<?xml version="1.0" standalone="no"?>
<!DOCTYPE svg PUBLIC "-//W3C//DTD SVG 1.1//EN" "http://www.w3.org/Graphics/SVG/1.1/DTD/svg11.dtd" >
<svg xmlns="http://www.w3.org/2000/svg">
<metadata>
Created by FontForge 20120702 at Tue Nov 27 14:16:22 2012

URW Software, Copyright 2003 by URW
</metadata>
<defs>
<font id="Tele-GroteskFet-Regular" horiz-adv-x="1024" vert-adv-y="2048" >
  <font-face 
    font-family="Tele-GroteskFet"
    font-weight="700"
    font-stretch="normal"
    units-per-em="2048"
    panose-1="0 0 0 0 0 0 0 0 0 0"
    ascent="1679"
    descent="-369"
    x-height="942"
    cap-height="1365"
    bbox="-167 -512 2507 1825"
    underline-thickness="173"
    underline-position="-110"
    unicode-range="U+0020-FFFD"
  />
<missing-glyph horiz-adv-x="396" vert-adv-y="1720" 
d="M40 0v1365h316v-1365h-316zM316 40v1285h-236v-1285h236z" />
    <glyph glyph-name=".notdef" horiz-adv-x="396" vert-adv-y="1720" 
d="M40 0v1365h316v-1365h-316zM316 40v1285h-236v-1285h236z" />
    <glyph glyph-name="glyph1" horiz-adv-x="0" vert-adv-y="0" 
 />
    <glyph glyph-name="glyph2" horiz-adv-x="396" vert-adv-y="1720" 
 />
    <glyph glyph-name="space" unicode=" " horiz-adv-x="396" vert-adv-y="1720" 
 />
    <glyph glyph-name="exclam" unicode="!" horiz-adv-x="561" vert-adv-y="1720" 
d="M388 1365v-392l-57 -596h-106l-50 594v394h213zM404 246v-246h-246v246h246z" />
    <glyph glyph-name="quotedbl" unicode="&#x22;" horiz-adv-x="704" vert-adv-y="1720" 
d="M262 845h-152l-35 520h222zM593 845h-151l-35 520h222z" />
    <glyph glyph-name="numbersign" unicode="#" horiz-adv-x="1229" vert-adv-y="1720" 
d="M133 436v147h206l31 222h-185v147h206l49 345h168l-49 -345h187l49 345h168l-49 -345h188v-147h-209l-31 -222h188v-147h-209l-51 -368h-168l52 368h-188l-51 -368h-168l51 368h-185zM725 805h-187l-31 -222h187z" />
    <glyph glyph-name="dollar" unicode="$" horiz-adv-x="1049" vert-adv-y="1720" 
d="M435 1447h160v-98q113 -15 201 -75q133 -94 143 -271h-212q-10 127 -132 159v-383q143 -56 215 -104q180 -118 180 -299q0 -123 -77 -216q-106 -129 -318 -150v-92h-160v98q-113 17 -196 76q-160 118 -165 325h228q0 -161 133 -215v432q-125 51 -193 103
q-145 112 -145 284q0 124 78 210q95 103 260 121v95zM595 188q58 11 96 36q78 52 78 144q0 130 -174 214v-394zM435 1165q-133 -33 -133 -145q0 -107 133 -186v331z" />
    <glyph glyph-name="percent" unicode="%" horiz-adv-x="1752" vert-adv-y="1720" 
d="M377 1383q142 0 236 -113q100 -120 100 -314q0 -169 -77 -285q-94 -144 -265 -144q-170 0 -267 146q-75 113 -75 281q0 198 98 314q97 115 250 115zM369 1244q-79 0 -127 -74q-53 -81 -53 -212q0 -130 47 -211q24 -41 68 -64q32 -17 69 -17q77 0 122 66q58 84 58 223
q0 133 -51 213q-49 76 -133 76zM656 0h-145l588 1365h141zM1386 837q142 0 236 -113q100 -120 100 -314q0 -169 -77 -285q-94 -144 -265 -144q-170 0 -267 146q-75 113 -75 281q0 198 98 314q97 115 250 115zM1378 698q-79 0 -127 -74q-53 -81 -53 -212q0 -130 47 -211
q24 -41 68 -64q32 -17 69 -17q77 0 122 66q58 84 58 223q0 133 -51 213q-48 76 -133 76z" />
    <glyph glyph-name="ampersand" unicode="&#x26;" horiz-adv-x="1072" vert-adv-y="1720" 
d="M1032 0h-220l-46 69q-125 -98 -297 -98q-174 0 -282 98q-119 109 -119 271q0 220 243 420q-8 11 -15 23q-71 105 -92 156q-37 88 -37 170q0 138 119 222q88 63 201 63q133 0 217 -82q78 -77 78 -197q0 -109 -73 -211q-52 -74 -165 -171l223 -334q19 77 23 168h198
q-18 -206 -100 -350zM407 614q-135 -131 -135 -282q0 -97 62 -154q57 -53 142 -53q110 0 195 89zM453 869q147 111 147 237q0 54 -30 92q-32 42 -85 42q-45 0 -78 -31q-41 -40 -41 -105q0 -103 87 -235z" />
    <glyph glyph-name="quotesingle" unicode="'" horiz-adv-x="372" vert-adv-y="1720" 
d="M262 845h-152l-35 520h222z" />
    <glyph glyph-name="parenleft" unicode="(" horiz-adv-x="558" vert-adv-y="1720" 
d="M305 1365h164q-5 -9 -10 -19q-184 -383 -184 -846q0 -213 50 -441q46 -209 135 -392l10 -22h-165q-111 211 -155 346q-82 249 -82 501q0 285 87 548q34 102 102 239q25 52 48 86z" />
    <glyph glyph-name="parenright" unicode=")" horiz-adv-x="558" vert-adv-y="1720" 
d="M90 1365h163q30 -44 80 -151q157 -336 157 -720q0 -254 -82 -503q-45 -136 -154 -346h-166l6 13q189 403 189 842q0 292 -80 574q-33 120 -113 291z" />
    <glyph glyph-name="asterisk" unicode="*" horiz-adv-x="819" vert-adv-y="1720" 
d="M721 1102l-222 -72l138 -185l-91 -69l-139 191l-138 -191l-93 69l142 185l-220 72l36 108l217 -79v234h117l-4 -234l218 79z" />
    <glyph glyph-name="plus" unicode="+" vert-adv-y="1720" 
d="M41 776h381v355h181v-355h380v-173h-380v-355h-188v348h-374v180z" />
    <glyph glyph-name="comma" unicode="," horiz-adv-x="504" vert-adv-y="1720" 
d="M375 246v-171q0 -127 -29 -197q-41 -97 -154 -146q-24 -10 -63 -19v119q105 21 111 168h-111v246h246z" />
    <glyph glyph-name="hyphen" unicode="-" horiz-adv-x="433" vert-adv-y="1720" 
d="M427 611v-197h-421v197h421z" />
    <glyph glyph-name="period" unicode="." horiz-adv-x="504" vert-adv-y="1720" 
d="M375 246v-246h-246v246h246z" />
    <glyph glyph-name="slash" unicode="/" horiz-adv-x="746" vert-adv-y="1720" 
d="M126 -355h-172l551 1720h171z" />
    <glyph glyph-name="zero" unicode="0" horiz-adv-x="966" vert-adv-y="1720" 
d="M487 1394q123 0 216 -78q178 -151 178 -636q0 -351 -99 -529q-101 -180 -296 -180q-401 0 -401 708q0 715 402 715zM479 1209q-109 0 -153 -154q-33 -117 -33 -384q0 -263 40 -380q47 -135 152 -135q114 0 155 158q33 125 33 381q0 239 -37 369q-42 145 -157 145z" />
    <glyph glyph-name="one" unicode="1" horiz-adv-x="966" vert-adv-y="1720" 
d="M400 0v1003q-45 -36 -103 -51q-41 -10 -125 -10v169q143 2 210 78q44 50 69 176h158v-1365h-209z" />
    <glyph glyph-name="two" unicode="2" horiz-adv-x="966" vert-adv-y="1720" 
d="M877 184v-184h-812q-1 190 47 310q50 118 167 223q63 54 200 148q198 137 198 318q0 80 -37 134q-55 82 -162 82q-114 0 -166 -107q-30 -59 -30 -144h-206q8 188 102 299q114 134 302 134q130 0 237 -65q174 -106 174 -334q0 -193 -148 -339q-73 -72 -249 -191
q-92 -63 -125 -99q-81 -85 -95 -185h603z" />
    <glyph glyph-name="three" unicode="3" horiz-adv-x="966" vert-adv-y="1720" 
d="M293 1000h-197q5 150 66 246q100 160 307 160q170 0 271 -106q95 -100 95 -259q0 -206 -168 -290q87 -29 142 -101q72 -93 72 -239q0 -193 -119 -312q-116 -115 -298 -115q-248 0 -349 203q-46 93 -46 201q0 10 1 32h199q3 -96 31 -156q45 -96 169 -96q91 0 142 60
q57 67 57 182q0 126 -64 191q-51 52 -152 52q-23 0 -65 -3v168q109 0 154 22q50 25 75 92q15 42 15 92q0 109 -65 163q-43 35 -104 35q-162 0 -169 -222z" />
    <glyph glyph-name="four" unicode="4" horiz-adv-x="966" vert-adv-y="1720" 
d="M543 0v335h-473v211l478 819h193v-850h139v-180h-139v-335h-198zM543 515v540l-300 -540h300z" />
    <glyph glyph-name="five" unicode="5" horiz-adv-x="966" vert-adv-y="1720" 
d="M69 343h204q10 -76 44 -121q52 -67 144 -67q110 0 161 92q41 75 41 195q0 123 -45 203q-53 95 -160 95q-110 0 -178 -120l-178 6l104 739h596v-190h-442l-49 -348q79 85 205 85q154 0 250 -116q110 -132 110 -339q0 -212 -114 -348q-116 -138 -306 -138q-117 0 -211 55
q-169 99 -176 317z" />
    <glyph glyph-name="six" unicode="6" horiz-adv-x="966" vert-adv-y="1720" 
d="M863 1053h-200q-24 165 -152 165q-194 0 -218 -458q93 143 241 143q160 0 259 -130q95 -125 95 -323q0 -195 -95 -326q-111 -153 -292 -153q-193 0 -296 165q-115 184 -115 527q0 329 104 522q113 209 329 209q113 0 198 -63q124 -91 142 -278zM493 727q-56 0 -102 -45
q-76 -74 -76 -240q0 -111 42 -193q49 -94 141 -94q90 0 136 89q41 81 41 192q0 116 -41 196q-48 95 -141 95z" />
    <glyph glyph-name="seven" unicode="7" horiz-adv-x="966" vert-adv-y="1720" 
d="M479 0h-222q1 182 80 464q81 301 267 593q45 68 78 107h-571v201h770v-185q-70 -81 -152 -237q-231 -444 -250 -943z" />
    <glyph glyph-name="eight" unicode="8" horiz-adv-x="966" vert-adv-y="1720" 
d="M289 736q-62 31 -96 78q-70 97 -70 228q0 158 98 253q103 99 266 99q160 0 260 -99q94 -94 94 -249q0 -148 -84 -246q-32 -37 -81 -64q68 -29 104 -64q106 -103 106 -290q0 -171 -95 -281q-113 -130 -309 -130q-186 0 -298 116q-105 109 -105 286q0 166 89 275
q44 55 121 88zM481 1216q-75 0 -118 -54q-44 -56 -44 -145q0 -90 47 -152q43 -57 118 -57q71 0 112 51q49 61 49 157q0 92 -43 145q-44 55 -121 55zM480 650q-83 0 -134 -68q-54 -72 -54 -184q0 -116 56 -188q50 -63 137 -63q101 0 148 78q40 65 40 165q0 108 -43 176
q-54 84 -150 84z" />
    <glyph glyph-name="nine" unicode="9" horiz-adv-x="966" vert-adv-y="1720" 
d="M103 319h200q25 -172 153 -172q191 0 217 460q-93 -143 -241 -143q-160 0 -259 130q-95 124 -95 322q0 195 95 326q111 152 292 152q193 0 296 -165q115 -183 115 -525q0 -330 -104 -524q-112 -209 -328 -209q-114 0 -200 64q-122 93 -141 284zM465 1210q-86 0 -133 -89
q-41 -79 -41 -192q0 -112 41 -194q47 -95 139 -95q95 0 142 98q38 78 38 185q0 115 -42 194q-50 93 -144 93z" />
    <glyph glyph-name="colon" unicode=":" horiz-adv-x="504" vert-adv-y="1720" 
d="M375 942v-246h-246v246h246zM375 246v-246h-246v246h246z" />
    <glyph glyph-name="semicolon" unicode=";" horiz-adv-x="504" vert-adv-y="1720" 
d="M375 246v-171q0 -127 -29 -197q-41 -97 -154 -146q-24 -10 -63 -19v119q105 21 111 168h-111v246h246zM375 942v-246h-246v246h246z" />
    <glyph glyph-name="less" unicode="&#x3c;" vert-adv-y="1720" 
d="M955 1214v-218l-654 -313l654 -313v-218l-887 438v186z" />
    <glyph glyph-name="equal" unicode="=" vert-adv-y="1720" 
d="M41 947h942v-173h-942v173zM41 605h942v-173h-942v173z" />
    <glyph glyph-name="greater" unicode="&#x3e;" vert-adv-y="1720" 
d="M69 1214l887 -438v-186l-887 -438v218l654 313l-654 313v218z" />
    <glyph glyph-name="question" unicode="?" horiz-adv-x="917" vert-adv-y="1720" 
d="M96 961q0 9 1 22q7 179 90 283q104 130 279 130q171 0 277 -109q102 -104 102 -267q0 -116 -59 -215q-30 -51 -60 -82l-74 -75q-90 -92 -95 -197q0 -40 -1 -76h-183q4 114 14 165q15 72 52 130q20 32 83 104q68 77 90 127q23 53 23 109q0 84 -45 141q-44 56 -126 56
q-164 0 -173 -246h-195zM582 246v-246h-246v246h246z" />
    <glyph glyph-name="at" unicode="@" horiz-adv-x="1502" vert-adv-y="1720" 
d="M971 981h149l-79 -399q-11 -73 -11 -82q0 -41 34 -41q74 0 143 71q120 123 120 313q0 197 -141 317q-135 114 -338 114q-255 0 -436 -186q-190 -195 -190 -494q0 -224 126 -360q136 -145 390 -145q200 0 369 72q21 9 77 36l14 6l43 -119q-39 -19 -55 -26
q-199 -91 -456 -91q-317 0 -487 172q-174 174 -174 452q0 229 119 431q112 190 309 289q168 85 350 85q250 0 420 -143q188 -157 188 -408q0 -171 -91 -312q-73 -112 -175 -162q-68 -33 -138 -33q-103 0 -139 82q-43 -42 -73 -60q-58 -33 -126 -33q-117 0 -187 89
q-62 79 -62 201q0 159 94 275q90 111 226 111q114 0 174 -89zM791 876q-44 0 -87 -32q-49 -35 -76 -106q-21 -56 -21 -115q0 -72 30 -122q31 -50 91 -50q87 0 141 93q42 74 42 181q0 69 -31 109q-32 42 -89 42z" />
    <glyph glyph-name="A" unicode="A" horiz-adv-x="1134" vert-adv-y="1720" 
d="M450 1365h235l438 -1365h-236l-107 366h-431l-108 -366h-231zM402 546h325l-161 552z" />
    <glyph glyph-name="B" unicode="B" horiz-adv-x="1143" vert-adv-y="1720" 
d="M125 0v1365h455q145 0 221 -24q120 -39 174 -136q43 -76 43 -171q0 -131 -85 -223q-40 -44 -110 -76q247 -72 247 -334q0 -133 -67 -234q-79 -118 -212 -151q-64 -16 -151 -16h-515zM350 797h189q112 0 158 18q54 22 81 84q16 38 16 87q0 133 -91 174q-38 17 -157 17
h-196v-380zM350 188h216q147 0 200 38q79 57 79 181q0 84 -40 141q-41 59 -132 70q-37 5 -126 5h-197v-435z" />
    <glyph glyph-name="C" unicode="C" horiz-adv-x="1180" vert-adv-y="1720" 
d="M899 523h222q-11 -208 -117 -358q-139 -198 -384 -198q-244 0 -387 181q-160 203 -160 531q0 283 130 481q154 236 426 236q244 0 387 -199q83 -116 97 -269h-222q-19 110 -69 176q-77 100 -199 100q-153 0 -234 -138q-91 -156 -91 -386q0 -225 87 -379q80 -141 234 -141
q241 0 280 363z" />
    <glyph glyph-name="D" unicode="D" horiz-adv-x="1196" vert-adv-y="1720" 
d="M125 0v1365h419q273 0 413 -153q166 -182 166 -520q0 -397 -215 -585q-83 -72 -191 -94q-65 -13 -162 -13h-430zM350 188h174q102 0 158 19.5t101 71.5q115 132 115 413q0 262 -117 387q-53 56 -119 79q-54 19 -135 19h-177v-989z" />
    <glyph glyph-name="E" unicode="E" horiz-adv-x="1039" vert-adv-y="1720" 
d="M125 0v1365h823v-193h-598v-370h553v-193h-553v-416h608v-193h-833z" />
    <glyph glyph-name="F" unicode="F" horiz-adv-x="969" vert-adv-y="1720" 
d="M125 0v1365h797v-193h-572v-382h500v-193h-500v-597h-225z" />
    <glyph glyph-name="G" unicode="G" horiz-adv-x="1255" vert-adv-y="1720" 
d="M1147 0h-173v158q-60 -75 -113 -114q-103 -77 -243 -77q-219 0 -362 158q-84 93 -126 211q-57 159 -57 337q0 336 174 543q152 181 395 181q268 0 409 -221q69 -107 82 -247h-218q-18 111 -71 179q-77 96 -206 96q-156 0 -243 -135q-97 -148 -97 -393q0 -261 111 -404
q86 -112 234 -112q196 0 270 205q24 65 30 180h-301v184h505v-729z" />
    <glyph glyph-name="H" unicode="H" horiz-adv-x="1210" vert-adv-y="1720" 
d="M125 0v1365h225v-552h510v552h225v-1365h-225v620h-510v-620h-225z" />
    <glyph glyph-name="I" unicode="I" horiz-adv-x="475" vert-adv-y="1720" 
d="M125 0v1365h225v-1365h-225z" />
    <glyph glyph-name="J" unicode="J" horiz-adv-x="624" vert-adv-y="1720" 
d="M6 -19v199q66 -18 112 -18q121 0 156 115q15 50 16 127q0 20 1 116v845h225v-873q0 -175 -18 -249q-65 -276 -365 -276q-56 0 -127 14z" />
    <glyph glyph-name="K" unicode="K" horiz-adv-x="1108" vert-adv-y="1720" 
d="M125 0v1365h224v-580l473 580h262l-477 -564l506 -801h-258l-393 629l-113 -134v-495h-224z" />
    <glyph glyph-name="L" unicode="L" horiz-adv-x="966" vert-adv-y="1720" 
d="M125 0v1365h225v-1172h565v-193h-790z" />
    <glyph glyph-name="M" unicode="M" horiz-adv-x="1454" vert-adv-y="1720" 
d="M125 0v1365h302l305 -1064l295 1064h302v-1365h-209v1080l-292 -1080h-190l-304 1067v-1067h-209z" />
    <glyph glyph-name="N" unicode="N" horiz-adv-x="1198" vert-adv-y="1720" 
d="M125 0v1365h231l508 -1012v1012h209v-1365h-233l-506 1007v-1007h-209z" />
    <glyph glyph-name="O" unicode="O" horiz-adv-x="1260" vert-adv-y="1720" 
d="M639 1396q231 0 384 -186q164 -202 164 -527q0 -284 -126 -479q-75 -116 -191 -178q-109 -59 -240 -59q-189 0 -328 119q-229 197 -229 594q0 332 160 525q158 191 406 191zM626 1204q-145 0 -235 -139q-93 -145 -93 -378q0 -230 84 -376q44 -77 124 -120q59 -32 127 -32
q93 0 169 61q83 66 126 207q34 112 34 254q0 236 -90 380q-89 143 -246 143z" />
    <glyph glyph-name="P" unicode="P" horiz-adv-x="1073" vert-adv-y="1720" 
d="M125 0v1365h427q147 0 226 -28q125 -44 191 -168q49 -91 49 -221q0 -222 -139 -337q-61 -50 -136 -70q-64 -16 -164 -16h-229v-525h-225zM350 717h198q128 0 181 51q64 63 64 177q0 131 -90 189q-50 32 -173 32h-180v-449z" />
    <glyph glyph-name="Q" unicode="Q" horiz-adv-x="1260" vert-adv-y="1720" 
d="M1163 6l-121 -118l-151 161q-126 -82 -269 -82q-181 0 -320 120q-229 196 -229 596q0 325 160 522q155 191 399 191q239 0 391 -186q164 -202 164 -534q0 -275 -134 -466q-16 -22 -38 -49zM736 453l148 -155q78 147 78 384q0 232 -90 380q-88 142 -242 142
q-150 0 -239 -139q-93 -145 -93 -378q0 -230 84 -376q45 -79 124 -120q62 -32 136 -32q61 0 121 26l-144 153z" />
    <glyph glyph-name="R" unicode="R" horiz-adv-x="1202" vert-adv-y="1720" 
d="M145 0v1365h505q118 0 186 -23q116 -40 180 -143q55 -89 55 -211q0 -250 -221 -337q81 -22 126 -80q40 -55 53 -120q10 -49 16 -124q17 -204 30 -256q9 -32 39 -71h-237q-17 33 -24 67q-6 29 -12 136q-9 148 -24 201q-30 110 -104 140q-49 19 -144 20h-199v-564h-225z
M370 739h198q144 0 197 38q81 57 81 184q0 136 -93 188q-50 28 -159 28h-224v-438z" />
    <glyph glyph-name="S" unicode="S" horiz-adv-x="1045" vert-adv-y="1720" 
d="M68 417h234q4 -103 42 -164q63 -102 188 -102q105 0 164 70q47 56 47 134q0 115 -106 181q-50 31 -222 102q-135 56 -215 135q-102 101 -102 257q0 169 124 274q109 92 280 92q235 0 353 -156q67 -87 78 -237h-219q-8 87 -42 130q-54 70 -169 70q-82 0 -130 -40
q-57 -48 -57 -131q0 -88 70 -146q56 -46 187 -98q128 -51 180 -80q224 -124 224 -351q0 -165 -117 -274q-123 -116 -330 -116q-239 0 -365 160q-88 113 -97 290z" />
    <glyph glyph-name="T" unicode="T" horiz-adv-x="1014" vert-adv-y="1720" 
d="M395 0v1172h-356v193h936v-193h-355v-1172h-225z" />
    <glyph glyph-name="U" unicode="U" horiz-adv-x="1176" vert-adv-y="1720" 
d="M109 1365h225v-781q0 -145 14 -212q44 -213 245 -213q162 0 217 139q33 84 33 286v781h225v-772q0 -171 -18 -256q-81 -370 -461 -370q-278 0 -400 205q-51 85 -68 201q-12 81 -12 224v768z" />
    <glyph glyph-name="V" unicode="V" horiz-adv-x="1037" vert-adv-y="1720" 
d="M394 0l-384 1365h238l275 -1098l278 1098h226l-387 -1365h-246z" />
    <glyph glyph-name="W" unicode="W" horiz-adv-x="1536" vert-adv-y="1720" 
d="M316 0l-302 1365h228l196 -1055l218 1055h226l215 -1057l200 1057h224l-308 -1365h-229l-218 1055l-219 -1055h-231z" />
    <glyph glyph-name="X" unicode="X" horiz-adv-x="1070" vert-adv-y="1720" 
d="M2 0l407 709l-378 656h257l250 -480l257 480h244l-376 -656l405 -709h-263l-273 514l-280 -514h-250z" />
    <glyph glyph-name="Y" unicode="Y" horiz-adv-x="1040" vert-adv-y="1720" 
d="M410 0v545l-428 820h253l291 -597l288 597h245l-424 -822v-543h-225z" />
    <glyph glyph-name="Z" unicode="Z" horiz-adv-x="1050" vert-adv-y="1720" 
d="M61 0v186l657 986h-606v193h875v-181l-661 -991h677v-193h-942z" />
    <glyph glyph-name="bracketleft" unicode="[" horiz-adv-x="557" vert-adv-y="1720" 
d="M497 1365v-164h-192v-1392h192v-164h-369v1720h369z" />
    <glyph glyph-name="backslash" unicode="\" horiz-adv-x="746" vert-adv-y="1720" 
d="M621 -355l-550 1720h170l552 -1720h-172z" />
    <glyph glyph-name="bracketright" unicode="]" horiz-adv-x="557" vert-adv-y="1720" 
d="M61 1365h369v-1720h-369v164h192v1392h-192v164z" />
    <glyph glyph-name="asciicircum" unicode="^" vert-adv-y="1720" 
d="M250 747h-199l338 624h246l338 -624h-200l-262 475z" />
    <glyph glyph-name="underscore" unicode="_" vert-adv-y="1720" 
d="M41 -110h942v-173h-942v173z" />
    <glyph glyph-name="grave" unicode="`" vert-adv-y="1720" 
d="M268 1365h180l170 -273h-165z" />
    <glyph glyph-name="a" unicode="a" horiz-adv-x="948" vert-adv-y="1720" 
d="M905 142v-142q-57 -25 -126 -25q-65 0 -98 32q-23 24 -39 76q-104 -112 -272 -112q-121 0 -202 64q-100 77 -100 212q0 146 111 232q83 64 239 80q68 7 208 11v78q0 167 -165 167q-151 0 -167 -163h-191q8 149 97 231q97 88 272 88q194 0 287 -111q46 -53 56 -145
q4 -35 4 -140v-356q0 -52 8 -67q11 -21 38 -21q18 0 40 11zM626 454q-124 -6 -194 -24q-71 -18 -110 -61q-45 -48 -45 -113q0 -64 42 -100q38 -32 103 -32q108 0 166 104q38 68 38 151v75z" />
    <glyph glyph-name="b" unicode="b" horiz-adv-x="1018" vert-adv-y="1720" 
d="M117 0v1365h201v-527q89 133 251 133q112 0 204 -65q178 -126 178 -433q0 -213 -97 -355q-101 -147 -279 -147q-177 0 -269 135v-106h-189zM528 803q-95 0 -153 -84q-61 -89 -61 -248q0 -145 52 -234q59 -98 165 -98q103 0 160 98q55 97 55 236q0 155 -62 246
q-57 84 -156 84z" />
    <glyph glyph-name="c" unicode="c" horiz-adv-x="921" vert-adv-y="1720" 
d="M667 333h199q-19 -144 -95 -236q-106 -126 -288 -126q-181 0 -289 119q-126 138 -126 373q0 223 107 358q118 150 315 150q191 0 293 -132q60 -77 71 -192h-200q-10 54 -34 89q-47 67 -131 67q-106 0 -162 -96q-54 -91 -54 -239q0 -152 58 -244q54 -85 153 -85
q103 0 153 95q22 40 30 99z" />
    <glyph glyph-name="d" unicode="d" horiz-adv-x="1018" vert-adv-y="1720" 
d="M902 0h-188v106q-96 -135 -270 -135q-178 0 -279 147q-97 142 -97 355q0 229 105 363q52 67 131 103q70 32 145 32q162 0 252 -133v527h201v-1365zM485 803q-95 0 -150 -84q-62 -93 -62 -245q0 -140 55 -237q57 -98 160 -98q106 0 164 98q53 90 53 233q0 160 -62 249
q-58 84 -158 84z" />
    <glyph glyph-name="e" unicode="e" horiz-adv-x="944" vert-adv-y="1720" 
d="M877 420h-608q3 -90 26 -150q55 -143 192 -143q97 0 147 77q19 30 35 78h190q-17 -78 -56 -141q-107 -170 -319 -170q-196 0 -308 143q-108 137 -108 347q0 214 110 361q112 149 297 149q150 0 255 -100q146 -141 147 -451zM675 561q-6 81 -34 139q-56 115 -167 115
q-106 0 -160 -102q-32 -61 -42 -152h403z" />
    <glyph glyph-name="f" unicode="f" horiz-adv-x="537" vert-adv-y="1720" 
d="M152 0v786h-134v156h134v129q0 166 48 232q67 93 212 93q38 0 106 -13v-168q-44 13 -71 13q-63 0 -81 -45q-13 -29 -13 -116v-125h153v-156h-151v-786h-203z" />
    <glyph glyph-name="g" unicode="g" horiz-adv-x="998" vert-adv-y="1720" 
d="M99 -79h203q24 -127 172 -127q124 0 171 93q40 80 40 211v49q-82 -139 -250 -139t-266 126q-101 131 -101 347q0 223 104 357q104 133 273 133t247 -139v110h189v-763q0 -149 -16 -226q-66 -308 -395 -308q-337 0 -371 276zM476 801q-90 0 -141 -75q-62 -90 -62 -245
t71 -240q55 -65 134 -65q91 0 145 78q64 92 64 240q0 162 -73 245q-55 62 -138 62z" />
    <glyph glyph-name="h" unicode="h" horiz-adv-x="973" vert-adv-y="1720" 
d="M117 0v1365h201v-534q92 140 252 140q105 0 178 -53q80 -58 101 -166q11 -55 11 -146v-606h-201v575q0 113 -23 157q-38 71 -127 71q-102 0 -154 -96q-23 -43 -32 -107q-5 -43 -5 -146v-454h-201z" />
    <glyph glyph-name="i" unicode="i" horiz-adv-x="442" vert-adv-y="1720" 
d="M121 1160v205h201v-205h-201zM121 0v942h201v-942h-201z" />
    <glyph glyph-name="j" unicode="j" horiz-adv-x="440" vert-adv-y="1720" 
d="M-18 -349v166q29 -6 50 -6q67 0 81 66q6 29 6 107v958h201v-931q0 -185 -30 -250q-27 -57 -85 -87q-58 -29 -129 -29q-36 0 -77 4zM119 1160v205h201v-205h-201z" />
    <glyph glyph-name="k" unicode="k" horiz-adv-x="908" vert-adv-y="1720" 
d="M117 0v1365h201v-762l315 339h234l-334 -348l366 -594h-235l-268 452l-78 -82v-370h-201z" />
    <glyph glyph-name="l" unicode="l" horiz-adv-x="442" vert-adv-y="1720" 
d="M121 0v1365h201v-1365h-201z" />
    <glyph glyph-name="m" unicode="m" horiz-adv-x="1444" vert-adv-y="1720" 
d="M117 0v942h189v-114q97 143 252 143q165 0 230 -151q99 151 265 151q97 0 169 -53q109 -80 109 -275v-643h-201v579q0 102 -15 142q-30 82 -120 82q-112 0 -153 -120q-17 -47 -17 -177v-506h-201v591q0 119 -28 161q-34 51 -99 51q-67 0 -116 -52q-47 -49 -58 -137
q-5 -42 -5 -108v-506h-201z" />
    <glyph glyph-name="n" unicode="n" horiz-adv-x="973" vert-adv-y="1720" 
d="M117 0v942h189v-119q96 148 266 148q108 0 186 -62q78 -63 96 -180q6 -43 6 -127v-602h-201v549q0 108 -14 158q-12 43 -46 69q-36 27 -87 27q-86 0 -140 -70q-36 -47 -47 -124q-7 -48 -7 -136v-473h-201z" />
    <glyph glyph-name="o" unicode="o" horiz-adv-x="986" vert-adv-y="1720" 
d="M502 971q186 0 303 -137q114 -133 114 -363q0 -243 -128 -380q-112 -120 -296 -120q-202 0 -317 143q-110 137 -110 356q0 212 103 348q117 153 331 153zM491 803q-97 0 -155 -85q-63 -92 -63 -246q0 -159 62 -249q58 -84 161 -84q94 0 149 74q69 92 69 259
q0 157 -60 245q-60 86 -163 86z" />
    <glyph glyph-name="p" unicode="p" horiz-adv-x="1018" vert-adv-y="1720" 
d="M117 -355v1297h189v-106q92 135 269 135q178 0 279 -147q97 -142 97 -354q0 -228 -106 -364q-105 -135 -275 -135q-163 0 -252 133v-459h-201zM528 803q-103 0 -162 -98q-52 -88 -52 -235q0 -158 61 -247q58 -84 156 -84t153 84q62 93 62 242q0 145 -55 240
q-58 98 -163 98z" />
    <glyph glyph-name="q" unicode="q" horiz-adv-x="1018" vert-adv-y="1720" 
d="M701 -355v459q-90 -133 -253 -133q-172 0 -275 135q-105 136 -105 362q0 214 97 356q101 147 279 147q174 0 270 -135v106h188v-1297h-201zM485 803q-100 0 -157 -98q-55 -97 -55 -238q0 -151 62 -244q55 -84 153 -84t155 84q62 90 62 246q0 149 -53 236q-59 98 -167 98z
" />
    <glyph glyph-name="r" unicode="r" horiz-adv-x="623" vert-adv-y="1720" 
d="M117 0v942h189v-156q86 185 264 185q11 0 43 -2v-205q-48 6 -71 6q-134 0 -193 -135q-31 -73 -31 -254v-381h-201z" />
    <glyph glyph-name="s" unicode="s" horiz-adv-x="849" vert-adv-y="1720" 
d="M67 267h200q10 -66 39 -97q43 -47 127 -47q79 0 120 42q33 35 33 90q0 81 -86 121q-32 16 -163 47q-257 62 -257 273q0 122 89 198q90 77 239 77q204 0 297 -125q41 -56 50 -145h-200q-18 119 -151 119q-63 0 -100 -32q-37 -31 -37 -82q0 -56 41 -85q33 -23 122 -43
q157 -36 216 -68q145 -76 145 -234q0 -135 -99 -222q-93 -83 -259 -83q-324 0 -366 296z" />
    <glyph glyph-name="t" unicode="t" horiz-adv-x="546" vert-adv-y="1720" 
d="M18 786v156h134v117l147 196h56v-313h160v-156h-162v-492q0 -83 11 -105q19 -38 77 -38q32 0 74 14v-165q-51 -21 -139 -21q-143 0 -191 88q-29 53 -29 207v512h-138z" />
    <glyph glyph-name="u" unicode="u" horiz-adv-x="973" vert-adv-y="1720" 
d="M856 0h-189v119q-96 -148 -266 -148q-111 0 -187 61q-76 62 -94 181q-7 43 -7 127v602h201v-549q0 -108 14 -158q12 -43 46 -69q36 -27 87 -27q86 0 140 70q36 47 47 124q7 48 7 136v473h201v-942z" />
    <glyph glyph-name="v" unicode="v" horiz-adv-x="832" vert-adv-y="1720" 
d="M308 0l-302 942h217l200 -708l196 708h207l-296 -942h-222z" />
    <glyph glyph-name="w" unicode="w" horiz-adv-x="1243" vert-adv-y="1720" 
d="M271 0l-261 942h214l157 -688l140 688h202l146 -681l158 681h206l-260 -942h-205l-147 675l-143 -675h-207z" />
    <glyph glyph-name="x" unicode="x" horiz-adv-x="852" vert-adv-y="1720" 
d="M-6 0l310 496l-285 446h239l165 -281l171 281h230l-284 -437l319 -505h-240l-196 339l-196 -339h-233z" />
    <glyph glyph-name="y" unicode="y" horiz-adv-x="850" vert-adv-y="1720" 
d="M89 -344v172q66 -13 104 -13q57 0 87 67q38 85 48 139l-322 921h219l209 -689l200 689h209l-306 -922q-72 -219 -118 -281q-70 -94 -195 -94q-54 0 -135 11z" />
    <glyph glyph-name="z" unicode="z" horiz-adv-x="824" vert-adv-y="1720" 
d="M51 0v159l473 615h-441v168h690v-146l-474 -628h498v-168h-746z" />
    <glyph glyph-name="braceleft" unicode="{" horiz-adv-x="558" vert-adv-y="1720" 
d="M184 504q54 -32 77 -62q42 -59 44 -179v-287q2 -90 12 -107q23 -40 65 -50t91 -10h27v-164h-50q-92 0 -150 10q-63 12 -109 60q-62 64 -63 219v318q-1 95 -30 130q-34 39 -84 48v162q55 11 85 49q25 30 29 115v331q1 167 89 230q67 50 233 48h50v-164h-26
q-104 1 -132 -29q-31 -27 -34 -73q-3 -25 -3 -62v-294q0 -113 -37 -168q-25 -36 -84 -71z" />
    <glyph glyph-name="bar" unicode="|" vert-adv-y="1720" 
d="M402 1365h220v-1706h-220v1706z" />
    <glyph glyph-name="braceright" unicode="}" horiz-adv-x="558" vert-adv-y="1720" 
d="M374 504q-65 38 -90 81q-31 57 -31 158v294q-1 82 -12 103q-21 40 -66 51q-42 10 -91 10h-26v164h50q166 2 233 -48q89 -63 89 -230v-331q4 -85 29 -115q30 -38 85 -49v-162q-49 -9 -84 -48q-29 -34 -30 -130v-318q0 -96 -22 -154q-25 -65 -87 -102q-61 -36 -212 -33h-51
v164h27q103 -1 131 28q31 28 34 73q3 31 3 66v287q0 91 21 137q17 39 43 64q16 16 57 40z" />
    <glyph glyph-name="asciitilde" unicode="~" horiz-adv-x="1365" vert-adv-y="1720" 
d="M303 1165l-111 90q38 85 84 144q84 106 203 106q76 0 230 -74q85 -41 112 -50q41 -14 74 -14q91 0 170 143l111 -91q-44 -97 -87 -149q-85 -102 -200 -102q-48 0 -115 27q-36 14 -109 48q-83 38 -111 48q-47 16 -83 16q-62 0 -109 -55q-27 -32 -59 -87z" />
    <glyph glyph-name="Adieresis" unicode="&#xc4;" horiz-adv-x="1134" vert-adv-y="1720" 
d="M450 1365h235l438 -1365h-236l-107 366h-431l-108 -366h-231zM402 546h325l-161 552zM825 1652v-205h-192v205h192zM500 1652v-205h-192v205h192z" />
    <glyph glyph-name="Aring" unicode="&#xc5;" horiz-adv-x="1134" vert-adv-y="1720" 
d="M450 1365h235l438 -1365h-236l-107 366h-431l-108 -366h-231zM402 546h325l-161 552zM568 1727q-40 0 -68 -29t-28 -72q0 -41 28 -71q27 -29 66 -29q40 0 68 30q27 30 27 70q0 42 -28 72q-27 29 -65 29zM567 1825q78 0 136 -57q57 -58 57 -139q0 -80 -56 -137
q-58 -59 -140 -59t-139 57q-57 58 -57 139q0 83 59 140q58 56 140 56z" />
    <glyph glyph-name="Ccedilla" unicode="&#xc7;" horiz-adv-x="1180" vert-adv-y="1720" 
d="M644 -32l-28 -76q21 12 46 12q57 0 106 -31q65 -41 65 -122q0 -69 -47 -113q-51 -48 -139 -48q-96 0 -142 56q-20 25 -24 55h108q10 -31 57 -31q73 0 73 77q0 36 -20 58t-53 22q-42 0 -54 -27h-108l65 172q-152 20 -257 114q-100 89 -157 236q-62 158 -62 358
q0 282 130 481q154 236 426 236q244 0 387 -200q83 -116 97 -269h-222q-19 110 -69 176q-77 101 -199 101q-153 0 -234 -138q-91 -157 -91 -387q0 -224 87 -379q80 -141 234 -141q240 0 280 363h222q-6 -131 -56 -250q-131 -293 -421 -305z" />
    <glyph glyph-name="Eacute" unicode="&#xc9;" horiz-adv-x="1039" vert-adv-y="1720" 
d="M125 0v1365h823v-193h-598v-370h553v-193h-553v-416h608v-193h-833zM768 1734l-185 -259h-171l170 259h186z" />
    <glyph glyph-name="Ntilde" unicode="&#xd1;" horiz-adv-x="1198" vert-adv-y="1720" 
d="M125 0v1365h231l508 -1012v1012h209v-1365h-233l-506 1007v-1007h-209zM791 1713h116q-36 -232 -190 -232q-57 0 -162 61q-52 30 -78 30q-53 0 -71 -91h-115q34 232 196 232q46 0 93 -23q15 -7 60 -35q48 -30 76 -30q53 0 75 88z" />
    <glyph glyph-name="Odieresis" unicode="&#xd6;" horiz-adv-x="1260" vert-adv-y="1720" 
d="M639 1396q231 0 384 -186q164 -202 164 -527q0 -284 -126 -479q-75 -116 -191 -178q-109 -59 -240 -59q-189 0 -328 119q-229 197 -229 594q0 332 160 525q158 191 406 191zM626 1204q-145 0 -235 -139q-93 -145 -93 -378q0 -230 84 -376q44 -77 124 -120q59 -32 127 -32
q93 0 169 61q83 66 126 207q34 112 34 254q0 236 -90 380q-89 143 -246 143zM888 1652v-205h-192v205h192zM563 1652v-205h-192v205h192z" />
    <glyph glyph-name="Udieresis" unicode="&#xdc;" horiz-adv-x="1176" vert-adv-y="1720" 
d="M109 1365h225v-781q0 -145 14 -212q44 -213 245 -213q162 0 217 139q33 84 33 286v781h225v-772q0 -171 -18 -256q-81 -370 -461 -370q-278 0 -400 205q-51 85 -68 201q-12 81 -12 224v768zM847 1652v-205h-192v205h192zM522 1652v-205h-192v205h192z" />
    <glyph glyph-name="aacute" unicode="&#xe1;" horiz-adv-x="948" vert-adv-y="1720" 
d="M905 142v-142q-57 -25 -126 -25q-65 0 -98 32q-23 24 -39 76q-104 -112 -272 -112q-121 0 -202 64q-100 77 -100 212q0 146 111 232q83 64 239 80q68 7 208 11v78q0 167 -165 167q-151 0 -167 -163h-191q8 149 97 231q97 88 272 88q194 0 287 -111q46 -53 56 -145
q4 -35 4 -140v-356q0 -52 8 -67q11 -21 38 -21q18 0 40 11zM626 454q-124 -6 -194 -24q-71 -18 -110 -61q-45 -48 -45 -113q0 -64 42 -100q38 -32 103 -32q108 0 166 104q38 68 38 151v75zM719 1365l-186 -273h-164l170 273h180z" />
    <glyph glyph-name="agrave" unicode="&#xe0;" horiz-adv-x="948" vert-adv-y="1720" 
d="M905 142v-142q-57 -25 -126 -25q-65 0 -98 32q-23 24 -39 76q-104 -112 -272 -112q-121 0 -202 64q-100 77 -100 212q0 146 111 232q83 64 239 80q68 7 208 11v78q0 167 -165 167q-151 0 -167 -163h-191q8 149 97 231q97 88 272 88q194 0 287 -111q46 -53 56 -145
q4 -35 4 -140v-356q0 -52 8 -67q11 -21 38 -21q18 0 40 11zM626 454q-124 -6 -194 -24q-71 -18 -110 -61q-45 -48 -45 -113q0 -64 42 -100q38 -32 103 -32q108 0 166 104q38 68 38 151v75zM230 1365h180l170 -273h-165z" />
    <glyph glyph-name="acircumflex" unicode="&#xe2;" horiz-adv-x="948" vert-adv-y="1720" 
d="M905 142v-142q-57 -25 -126 -25q-65 0 -98 32q-23 24 -39 76q-104 -112 -272 -112q-121 0 -202 64q-100 77 -100 212q0 146 111 232q83 64 239 80q68 7 208 11v78q0 167 -165 167q-151 0 -167 -163h-191q8 149 97 231q97 88 272 88q194 0 287 -111q46 -53 56 -145
q4 -35 4 -140v-356q0 -52 8 -67q11 -21 38 -21q18 0 40 11zM626 454q-124 -6 -194 -24q-71 -18 -110 -61q-45 -48 -45 -113q0 -64 42 -100q38 -32 103 -32q108 0 166 104q38 68 38 151v75zM723 1092h-168l-84 153l-87 -153h-157l158 273h178z" />
    <glyph glyph-name="adieresis" unicode="&#xe4;" horiz-adv-x="948" vert-adv-y="1720" 
d="M905 142v-142q-57 -25 -126 -25q-65 0 -98 32q-23 24 -39 76q-104 -112 -272 -112q-121 0 -202 64q-100 77 -100 212q0 146 111 232q83 64 239 80q68 7 208 11v78q0 167 -165 167q-151 0 -167 -163h-191q8 149 97 231q97 88 272 88q194 0 287 -111q46 -53 56 -145
q4 -35 4 -140v-356q0 -52 8 -67q11 -21 38 -21q18 0 40 11zM626 454q-124 -6 -194 -24q-71 -18 -110 -61q-45 -48 -45 -113q0 -64 42 -100q38 -32 103 -32q108 0 166 104q38 68 38 151v75zM733 1311v-205h-192v205h192zM408 1311v-205h-192v205h192z" />
    <glyph glyph-name="atilde" unicode="&#xe3;" horiz-adv-x="948" vert-adv-y="1720" 
d="M905 142v-142q-57 -25 -126 -25q-65 0 -98 32q-23 24 -39 76q-104 -112 -272 -112q-121 0 -202 64q-100 77 -100 212q0 146 111 232q83 64 239 80q68 7 208 11v78q0 167 -165 167q-151 0 -167 -163h-191q8 149 97 231q97 88 272 88q194 0 287 -111q46 -53 56 -145
q4 -35 4 -140v-356q0 -52 8 -67q11 -21 38 -21q18 0 40 11zM626 454q-124 -6 -194 -24q-71 -18 -110 -61q-45 -48 -45 -113q0 -64 42 -100q38 -32 103 -32q108 0 166 104q38 68 38 151v75zM763 1365q-9 -76 -29 -126q-49 -122 -152 -122q-50 0 -148 53q-47 26 -68 26
q-43 0 -61 -90h-120q6 66 26 119q28 72 82 105q37 24 75 24q52 0 105 -29l70 -39q21 -12 40 -12q43 0 58 91h122z" />
    <glyph glyph-name="aring" unicode="&#xe5;" horiz-adv-x="948" vert-adv-y="1720" 
d="M905 142v-142q-57 -25 -126 -25q-65 0 -98 32q-23 24 -39 76q-104 -112 -272 -112q-121 0 -202 64q-100 77 -100 212q0 146 111 232q83 64 239 80q68 7 208 11v78q0 167 -165 167q-151 0 -167 -163h-191q8 149 97 231q97 88 272 88q194 0 287 -111q46 -53 56 -145
q4 -35 4 -140v-356q0 -52 8 -67q11 -21 38 -21q18 0 40 11zM626 454q-124 -6 -194 -24q-71 -18 -110 -61q-45 -48 -45 -113q0 -64 42 -100q38 -32 103 -32q108 0 166 104q38 68 38 151v75zM476 1356q-40 0 -68 -29t-28 -72q0 -41 28 -71q27 -29 66 -29q40 0 68 30
q27 29 27 70q0 42 -28 72q-27 29 -65 29zM475 1453q78 0 134 -57q57 -57 57 -138q0 -79 -56 -135q-57 -58 -138 -58t-137 57q-57 57 -57 136q0 84 58 139q58 56 139 56z" />
    <glyph glyph-name="ccedilla" unicode="&#xe7;" horiz-adv-x="921" vert-adv-y="1720" 
d="M667 333h199q-18 -165 -126 -268q-103 -95 -265 -94l-29 -79q21 12 45 12q56 0 103 -31q63 -41 63 -122q0 -69 -45 -113q-50 -48 -136 -48q-93 0 -137 56q-19 24 -24 55h105q8 -31 55 -31q71 0 71 77q0 36 -20 58q-19 22 -51 22q-40 0 -52 -27h-105l66 181
q-80 18 -141 64q-175 133 -175 419q0 222 107 357q118 150 315 150q191 0 293 -132q60 -77 71 -192h-200q-10 54 -34 89q-47 67 -131 67q-106 0 -162 -96q-54 -92 -54 -239q0 -152 58 -244q54 -85 153 -85q102 0 153 95q22 40 30 99z" />
    <glyph glyph-name="eacute" unicode="&#xe9;" horiz-adv-x="944" vert-adv-y="1720" 
d="M877 420h-608q3 -90 26 -150q55 -143 192 -143q97 0 147 77q19 30 35 78h190q-17 -78 -56 -141q-107 -170 -319 -170q-196 0 -308 143q-108 137 -108 347q0 214 110 361q112 149 297 149q150 0 255 -100q146 -141 147 -451zM675 561q-6 81 -34 139q-56 115 -167 115
q-106 0 -160 -102q-32 -61 -42 -152h403zM717 1365l-186 -273h-164l170 273h180z" />
    <glyph glyph-name="egrave" unicode="&#xe8;" horiz-adv-x="944" vert-adv-y="1720" 
d="M877 420h-608q3 -90 26 -150q55 -143 192 -143q97 0 147 77q19 30 35 78h190q-17 -78 -56 -141q-107 -170 -319 -170q-196 0 -308 143q-108 137 -108 347q0 214 110 361q112 149 297 149q150 0 255 -100q146 -141 147 -451zM675 561q-6 81 -34 139q-56 115 -167 115
q-106 0 -160 -102q-32 -61 -42 -152h403zM228 1365h180l170 -273h-165z" />
    <glyph glyph-name="ecircumflex" unicode="&#xea;" horiz-adv-x="944" vert-adv-y="1720" 
d="M877 420h-608q3 -90 26 -150q55 -143 192 -143q97 0 147 77q19 30 35 78h190q-17 -78 -56 -141q-107 -170 -319 -170q-196 0 -308 143q-108 137 -108 347q0 214 110 361q112 149 297 149q150 0 255 -100q146 -141 147 -451zM675 561q-6 81 -34 139q-56 115 -167 115
q-106 0 -160 -102q-32 -61 -42 -152h403zM721 1092h-168l-84 153l-87 -153h-157l158 273h178z" />
    <glyph glyph-name="edieresis" unicode="&#xeb;" horiz-adv-x="944" vert-adv-y="1720" 
d="M877 420h-608q3 -90 26 -150q55 -143 192 -143q97 0 147 77q19 30 35 78h190q-17 -78 -56 -141q-107 -170 -319 -170q-196 0 -308 143q-108 137 -108 347q0 214 110 361q112 149 297 149q150 0 255 -100q146 -141 147 -451zM675 561q-6 81 -34 139q-56 115 -167 115
q-106 0 -160 -102q-32 -61 -42 -152h403zM731 1311v-205h-192v205h192zM406 1311v-205h-192v205h192z" />
    <glyph glyph-name="iacute" unicode="&#xed;" horiz-adv-x="446" vert-adv-y="1720" 
d="M123 0v942h201v-942h-201zM468 1365l-186 -273h-164l170 273h180z" />
    <glyph glyph-name="igrave" unicode="&#xec;" horiz-adv-x="446" vert-adv-y="1720" 
d="M123 0v942h201v-942h-201zM-21 1365h180l170 -273h-165z" />
    <glyph glyph-name="icircumflex" unicode="&#xee;" horiz-adv-x="446" vert-adv-y="1720" 
d="M123 0v942h201v-942h-201zM471 1092h-168l-84 153l-87 -153h-157l158 273h178z" />
    <glyph glyph-name="idieresis" unicode="&#xef;" horiz-adv-x="446" vert-adv-y="1720" 
d="M123 0v942h201v-942h-201zM433 1311v-205h-165v205h165zM179 1311v-205h-165v205h165z" />
    <glyph glyph-name="ntilde" unicode="&#xf1;" horiz-adv-x="973" vert-adv-y="1720" 
d="M117 0v942h189v-119q96 148 266 148q108 0 186 -62q78 -63 96 -180q6 -43 6 -127v-602h-201v549q0 108 -14 158q-12 43 -46 69q-36 27 -87 27q-86 0 -140 -70q-36 -47 -47 -124q-7 -48 -7 -136v-473h-201zM776 1365q-9 -76 -29 -126q-49 -122 -152 -122q-50 0 -148 53
q-47 26 -68 26q-43 0 -61 -90h-120q6 66 26 119q28 72 82 105q37 24 75 24q52 0 105 -29l70 -39q21 -12 40 -12q43 0 58 91h122z" />
    <glyph glyph-name="oacute" unicode="&#xf3;" horiz-adv-x="986" vert-adv-y="1720" 
d="M502 971q186 0 303 -137q114 -133 114 -363q0 -243 -128 -380q-112 -120 -296 -120q-202 0 -317 143q-110 137 -110 356q0 212 103 348q117 153 331 153zM491 803q-97 0 -155 -85q-63 -92 -63 -246q0 -159 62 -249q58 -84 161 -84q94 0 149 74q69 92 69 259
q0 157 -60 245q-60 86 -163 86zM738 1365l-186 -273h-164l170 273h180z" />
    <glyph glyph-name="ograve" unicode="&#xf2;" horiz-adv-x="986" vert-adv-y="1720" 
d="M502 971q186 0 303 -137q114 -133 114 -363q0 -243 -128 -380q-112 -120 -296 -120q-202 0 -317 143q-110 137 -110 356q0 212 103 348q117 153 331 153zM491 803q-97 0 -155 -85q-63 -92 -63 -246q0 -159 62 -249q58 -84 161 -84q94 0 149 74q69 92 69 259
q0 157 -60 245q-60 86 -163 86zM249 1365h180l170 -273h-165z" />
    <glyph glyph-name="ocircumflex" unicode="&#xf4;" horiz-adv-x="986" vert-adv-y="1720" 
d="M502 971q186 0 303 -137q114 -133 114 -363q0 -243 -128 -380q-112 -120 -296 -120q-202 0 -317 143q-110 137 -110 356q0 212 103 348q117 153 331 153zM491 803q-97 0 -155 -85q-63 -92 -63 -246q0 -159 62 -249q58 -84 161 -84q94 0 149 74q69 92 69 259
q0 157 -60 245q-60 86 -163 86zM742 1092h-168l-84 153l-87 -153h-157l158 273h178z" />
    <glyph glyph-name="odieresis" unicode="&#xf6;" horiz-adv-x="986" vert-adv-y="1720" 
d="M502 971q186 0 303 -137q114 -133 114 -363q0 -243 -128 -380q-112 -120 -296 -120q-202 0 -317 143q-110 137 -110 356q0 212 103 348q117 153 331 153zM491 803q-97 0 -155 -85q-63 -92 -63 -246q0 -159 62 -249q58 -84 161 -84q94 0 149 74q69 92 69 259
q0 157 -60 245q-60 86 -163 86zM752 1311v-205h-192v205h192zM427 1311v-205h-192v205h192z" />
    <glyph glyph-name="otilde" unicode="&#xf5;" horiz-adv-x="986" vert-adv-y="1720" 
d="M502 971q186 0 303 -137q114 -133 114 -363q0 -243 -128 -380q-112 -120 -296 -120q-202 0 -317 143q-110 137 -110 356q0 212 103 348q117 153 331 153zM491 803q-97 0 -155 -85q-63 -92 -63 -246q0 -159 62 -249q58 -84 161 -84q94 0 149 74q69 92 69 259
q0 157 -60 245q-60 86 -163 86zM783 1365q-9 -76 -29 -126q-49 -122 -152 -122q-50 0 -148 53q-47 26 -68 26q-43 0 -61 -90h-120q6 66 26 119q28 72 82 105q37 24 75 24q52 0 105 -29l70 -39q21 -12 40 -12q43 0 58 91h122z" />
    <glyph glyph-name="uacute" unicode="&#xfa;" horiz-adv-x="973" vert-adv-y="1720" 
d="M856 0h-189v119q-96 -148 -266 -148q-111 0 -187 61q-76 62 -94 181q-7 43 -7 127v602h201v-549q0 -108 14 -158q12 -43 46 -69q36 -27 87 -27q86 0 140 70q36 47 47 124q7 48 7 136v473h201v-942zM731 1365l-186 -273h-164l170 273h180z" />
    <glyph glyph-name="ugrave" unicode="&#xf9;" horiz-adv-x="973" vert-adv-y="1720" 
d="M856 0h-189v119q-96 -148 -266 -148q-111 0 -187 61q-76 62 -94 181q-7 43 -7 127v602h201v-549q0 -108 14 -158q12 -43 46 -69q36 -27 87 -27q86 0 140 70q36 47 47 124q7 48 7 136v473h201v-942zM242 1365h180l170 -273h-165z" />
    <glyph glyph-name="ucircumflex" unicode="&#xfb;" horiz-adv-x="973" vert-adv-y="1720" 
d="M856 0h-189v119q-96 -148 -266 -148q-111 0 -187 61q-76 62 -94 181q-7 43 -7 127v602h201v-549q0 -108 14 -158q12 -43 46 -69q36 -27 87 -27q86 0 140 70q36 47 47 124q7 48 7 136v473h201v-942zM735 1092h-168l-84 153l-87 -153h-157l158 273h178z" />
    <glyph glyph-name="udieresis" unicode="&#xfc;" horiz-adv-x="973" vert-adv-y="1720" 
d="M856 0h-189v119q-96 -148 -266 -148q-111 0 -187 61q-76 62 -94 181q-7 43 -7 127v602h201v-549q0 -108 14 -158q12 -43 46 -69q36 -27 87 -27q86 0 140 70q36 47 47 124q7 48 7 136v473h201v-942zM745 1311v-205h-192v205h192zM420 1311v-205h-192v205h192z" />
    <glyph glyph-name="dagger" unicode="&#x2020;" horiz-adv-x="959" vert-adv-y="1720" 
d="M876 981v-190h-305v-1156h-187v1156h-301v190h301v384h187v-384h305z" />
    <glyph glyph-name="degree" unicode="&#xb0;" vert-adv-y="1720" 
d="M512 1365q125 0 214 -86q88 -86 88 -209q0 -121 -87 -208q-89 -88 -214 -88q-126 0 -214 88q-88 86 -88 212q0 120 88 204q91 87 213 87zM512 1235q-66 0 -115 -49q-47 -47 -47 -114q0 -71 47 -119q48 -49 116 -49q66 0 115 49q47 49 47 117q0 70 -48 116q-49 49 -115 49
z" />
    <glyph glyph-name="cent" unicode="&#xa2;" horiz-adv-x="921" vert-adv-y="1720" 
d="M403 1324h141v-139q107 -15 181 -72q117 -90 129 -247h-201q-16 109 -109 145v-642q105 40 123 182h199q-18 -165 -129 -268q-82 -74 -193 -89v-153h-141v154q-100 15 -172 68q-178 134 -178 419q0 299 189 433q70 49 161 67v142zM403 1006q-145 -68 -145 -320
q0 -152 60 -244q32 -48 85 -71v635z" />
    <glyph glyph-name="sterling" unicode="&#xa3;" horiz-adv-x="860" vert-adv-y="1720" 
d="M86 -27l-93 124q82 67 135 150q74 117 74 241q0 28 -7 67h-191v168h126q-12 20 -33 52q-82 126 -82 248q0 168 123 276q107 93 276 93q264 0 363 -181q47 -85 50 -198h-205q-2 71 -33 122q-52 85 -176 85q-92 0 -138 -58q-50 -63 -50 -149q0 -62 28 -119q20 -42 53 -94
q30 -47 48 -77h296v-168h-236q3 -30 3 -46q0 -66 -27 -130q-20 -51 -55.5 -96t-110.5 -116q111 73 181 73q35 0 94 -37q36 -23 65 -23q82 0 92 144h196q-8 -155 -63 -244q-67 -109 -194 -109q-67 0 -166 44q-79 36 -128 36q-84 0 -215 -78z" />
    <glyph glyph-name="section" unicode="&#xa7;" horiz-adv-x="975" vert-adv-y="1720" 
d="M820 1057h-183q-10 168 -144 168q-53 0 -89 -31q-43 -37 -43 -104q0 -54 30 -92q30 -37 133 -102q195 -125 259 -179q122 -104 122 -250q0 -134 -82 -226q-34 -39 -87 -66q33 -35 48 -59q42 -67 42 -161q0 -144 -101 -240q-89 -84 -233 -84q-150 0 -242 86
q-101 94 -105 269h185q17 -179 164 -179q72 0 110 50q29 39 29 92q0 47 -27 89q-37 57 -288 216q-129 82 -180 146q-69 85 -69 214q0 138 90 223q36 34 82 50q-72 90 -72 196q0 123 74 208q93 106 253 106q119 0 203 -66q61 -47 90 -124q30 -81 31 -155v5zM340 782
q-29 -13 -56 -42q-39 -43 -39 -109q0 -75 71 -135q50 -42 188 -133q51 -33 67 -46q43 -32 59 -41q33 14 60 53q35 50 35 106q0 76 -70 133q-68 55 -249 169l-51 35z" />
    <glyph glyph-name="bullet" unicode="&#x2022;" horiz-adv-x="1365" vert-adv-y="1720" 
d="M689 978q113 0 196 -83q84 -83 84 -201t-84 -201q-83 -83 -200 -83t-200 83q-84 83 -84 200q0 121 84 202q85 83 204 83z" />
    <glyph glyph-name="paragraph" unicode="&#xb6;" horiz-adv-x="1172" vert-adv-y="1720" 
d="M393 -196v846h-26q-127 0 -214 80q-104 96 -104 271q0 121 55 211q61 101 183 133q77 20 169 20h569v-156h-135v-1405h-172v1405h-153v-1405h-172z" />
    <glyph glyph-name="germandbls" unicode="&#xdf;" horiz-adv-x="957" vert-adv-y="1720" 
d="M320 0h-201v786h-112v156h112q2 150 22 217q39 132 150 193q82 45 187 45q142 0 233 -82q92 -81 92 -203q0 -66 -32 -124q-14 -25 -74 -97q-50 -61 -50 -111q0 -41 24 -85q15 -27 67 -82q68 -71 100 -123q51 -85 51 -183q0 -167 -135 -261q-96 -67 -236 -67
q-64 0 -121 21v171q60 -28 119 -28q74 0 118 40q50 46 50 123q0 68 -37 136q-19 34 -85 112q-57 68 -78 109q-26 50 -26 95q0 66 74 176q66 98 66 167q0 52 -34 88q-37 40 -99 40q-86 0 -123 -85q-22 -50 -22 -200v-944z" />
    <glyph glyph-name="registered" unicode="&#xae;" horiz-adv-x="1412" vert-adv-y="1720" 
d="M702 1268q-139 0 -264 -86q-120 -83 -186 -225q-60 -130 -60 -274q0 -242 150 -414q149 -171 363 -171q217 0 368 175q147 171 147 407q0 245 -150 417q-150 171 -368 171zM716 1386q180 0 337 -113q144 -104 222 -273q68 -151 68 -319q0 -285 -183 -491
q-186 -210 -456 -210q-265 0 -449 205q-85 94 -134 218q-53 135 -53 277q0 204 99 379q92 162 249 250q138 77 300 77zM423 273v819h312q121 0 185 -54q77 -66 77 -179q0 -127 -107 -193q53 -32 73 -83q13 -32 25 -181q4 -82 42 -129h-170q-12 22 -16 36q-5 19 -10 94
q-6 87 -13 114q-14 56 -55 73q-26 10 -79 10h-104v-327h-160zM583 729h103q81 0 109 19q42 29 42 96q0 70 -48 97q-26 14 -88 14h-118v-226z" />
    <glyph glyph-name="copyright" unicode="&#xa9;" horiz-adv-x="1412" vert-adv-y="1720" 
d="M858 604h157q-9 -143 -72 -229q-87 -120 -238 -120q-150 0 -239 110q-97 120 -97 316q0 169 79 287q95 143 262 143q153 0 240 -121q54 -75 61 -178h-157q-27 160 -147 160q-82 0 -126 -73q-52 -87 -52 -217q0 -127 50 -213q43 -75 126 -75q130 0 153 210zM702 1268
q-139 0 -264 -86q-120 -83 -186 -225q-60 -130 -60 -274q0 -166 78 -310q78 -143 209 -216q105 -59 226 -59q217 0 368 175q147 171 147 407q0 245 -150 417q-150 171 -368 171zM716 1386q180 0 337 -113q144 -104 222 -273q68 -151 68 -319q0 -285 -183 -491
q-186 -210 -456 -210q-265 0 -449 205q-85 94 -134 218q-53 135 -53 277q0 204 99 379q92 162 249 250q138 77 300 77z" />
    <glyph glyph-name="trademark" unicode="&#x2122;" horiz-adv-x="1456" vert-adv-y="1720" 
d="M219 546v680h-210v139h579v-139h-209v-680h-160zM658 546v819h202l170 -581l164 581h202v-819h-150v539l-149 -539h-133l-156 536v-536h-150z" />
    <glyph glyph-name="acute" unicode="&#xb4;" vert-adv-y="1720" 
d="M757 1365l-186 -273h-164l170 273h180z" />
    <glyph glyph-name="dieresis" unicode="&#xa8;" vert-adv-y="1720" 
d="M770 1311v-205h-192v205h192zM445 1311v-205h-192v205h192z" />
    <glyph glyph-name="notequal" unicode="&#x2260;" vert-adv-y="1720" 
d="M352 238l-151 87l62 107h-222v173h322l97 169h-419v173h520l111 194l151 -87l-62 -107h222v-173h-322l-97 -169h419v-173h-519z" />
    <glyph glyph-name="AE" unicode="&#xc6;" horiz-adv-x="1590" vert-adv-y="1720" 
d="M689 366h-298l-145 -366h-234l569 1365h917v-193h-598v-370h553v-193h-553v-416h608v-193h-819v366zM689 546v567l-226 -567h226z" />
    <glyph glyph-name="Oslash" unicode="&#xd8;" horiz-adv-x="1260" vert-adv-y="1720" 
d="M290 -33h-178l117 196q-156 201 -156 519q0 327 160 524q156 191 398 191q158 0 288 -89l53 89h176l-118 -197q157 -202 157 -517q0 -283 -126 -479q-75 -116 -191 -178q-109 -59 -239 -59q-157 0 -288 88zM806 1139q-80 65 -176 65q-150 0 -239 -139q-93 -145 -93 -378
q0 -187 59 -329zM457 224q83 -64 176 -64t168 61q85 67 127 207q34 112 34 256q0 184 -60 320z" />
    <glyph glyph-name="infinity" unicode="&#x221e;" horiz-adv-x="1365" vert-adv-y="1720" 
d="M686 597q-51 -68 -92 -109q-106 -106 -248 -106t-230 98q-78 87 -78 220q0 135 84 221q89 90 224 90q183 0 334 -215q47 66 92 109q110 105 248 105q148 0 236 -103q72 -85 72 -212q0 -138 -85 -224q-88 -89 -223 -89q-133 0 -242 105q-43 42 -92 110zM757 697
q6 -8 11 -17q107 -166 234 -166q73 0 123 51t50 131q0 86 -58 137q-49 44 -117 44q-100 0 -187 -104q-21 -24 -40 -52zM609 696q-6 8 -11 17q-110 165 -236 165q-73 0 -122 -50q-49 -51 -49 -132q0 -87 57 -138q49 -43 117 -43q103 0 188 104q20 24 39 53q17 23 17 24z" />
    <glyph glyph-name="plusminus" unicode="&#xb1;" vert-adv-y="1720" 
d="M41 803h381v355h181v-355h380v-173h-380v-354h-188v347h-374v180zM41 173h942v-173h-942v173z" />
    <glyph glyph-name="lessequal" unicode="&#x2264;" vert-adv-y="1720" 
d="M955 1258v-206l-648 -238l648 -238v-206l-887 351v186zM955 313v-192h-887v192h887z" />
    <glyph glyph-name="greaterequal" unicode="&#x2265;" vert-adv-y="1720" 
d="M68 1258l887 -351v-186l-887 -351v206l648 238l-648 238v206zM68 313h887v-192h-887v192z" />
    <glyph glyph-name="yen" unicode="&#xa5;" horiz-adv-x="1040" vert-adv-y="1720" 
d="M627 0h-209v272h-240v145h240v101h-240v145h237l-367 702h242l236 -483l233 483h234l-362 -702h232v-145h-236v-101h236v-145h-236v-272z" />
    <glyph glyph-name="mu" unicode="&#xb5;" horiz-adv-x="973" vert-adv-y="1720" 
d="M314 -355h-201v1297h201v-549q0 -108 14 -158q12 -43 46 -69q36 -27 87 -27q86 0 140 70q36 47 47 124q7 48 7 136v473h201v-942h-189v119q-96 -148 -251 -148q-56 0 -102 28v-354z" />
    <glyph glyph-name="partialdiff" unicode="&#x2202;" horiz-adv-x="986" vert-adv-y="1720" 
d="M610 940q-85 133 -165 211q-69 67 -162 125l72 118q161 -76 299 -233q108 -121 183 -295q82 -188 82 -392q0 -246 -128 -383q-112 -120 -296 -120q-202 0 -317 143q-110 137 -110 357q0 213 103 347q60 76 146 117q77 36 161 36q66 0 132 -31zM491 803q-97 0 -155 -85
q-63 -92 -63 -246q0 -159 62 -249q58 -84 161 -84q94 0 149 74q69 92 69 259q0 157 -60 245q-60 86 -163 86z" />
    <glyph glyph-name="summation" unicode="&#x2211;" horiz-adv-x="1365" vert-adv-y="1720" 
d="M1242 1536v-489h-189l-21 297h-730l505 -795l-504 -870h748l12 302h198v-493h-1191v221l491 839l-491 769v219h1172z" />
    <glyph glyph-name="product" unicode="&#x220f;" horiz-adv-x="1365" vert-adv-y="1720" 
d="M49 1536h1268v-168h-150v-1712h150v-168h-485v168h148v1712h-594v-1712h145v-168h-482v168h151v1712h-151v168z" />
    <glyph glyph-name="glyph155" horiz-adv-x="396" vert-adv-y="1720" 
 />
    <glyph glyph-name="integral" unicode="&#x222b;" vert-adv-y="1720" 
d="M160 -491l39 196q47 -21 83 -21q82 0 106 63q13 33 13 205v1083q0 238 18 308q26 96 121 152q70 41 175 41q52 0 148 -22l-39 -195q-48 21 -85 21q-73 0 -99 -54q-17 -36 -17 -151v-1201q0 -168 -14 -232q-19 -85 -94 -143q-89 -70 -251 -70q-35 0 -80 14q-15 4 -24 6z
" />
    <glyph glyph-name="ordfeminine" unicode="&#xaa;" horiz-adv-x="559" vert-adv-y="1720" 
d="M547 663v-105q-44 -26 -91 -26q-58 0 -84 51q-66 -54 -154 -54q-76 0 -128 40q-64 49 -64 134q0 92 71 145q53 40 148 49q39 5 110 6v33q0 82 -83 82q-50 0 -71 -30q-12 -18 -16 -64h-139q11 212 231 212q122 0 180 -69q30 -34 37 -91q2 -21 2 -83v-206q0 -29 5 -33
q6 -5 15 -5q12 0 31 14zM355 809q-60 -4 -97 -13q-82 -21 -82 -88q0 -63 72 -63q56 0 86 54q21 36 21 81v29z" />
    <glyph glyph-name="ordmasculine" unicode="&#xba;" horiz-adv-x="582" vert-adv-y="1720" 
d="M296 1137q116 0 189 -84q70 -81 70 -220q0 -148 -79 -230q-71 -74 -184 -74q-126 0 -198 88q-68 83 -68 215q0 129 64 211q73 94 206 94zM289 1012q-50 0 -80 -43q-35 -50 -35 -135q0 -88 34 -137q30 -43 84 -43q49 0 77 37q38 50 38 142q0 88 -33 135q-31 44 -85 44z
" />
    <glyph glyph-name="Omega" unicode="&#x2126;" horiz-adv-x="1260" vert-adv-y="1720" 
d="M86 0v181h191q-204 203 -204 554q0 303 183 496q155 165 372 165q225 0 382 -169q177 -189 177 -494q0 -350 -204 -552h191v-181h-458v168q96 71 150 165q96 169 96 376q0 217 -106 364q-91 128 -224 128q-136 0 -229 -127q-105 -145 -105 -366q0 -360 246 -540v-168
h-458z" />
    <glyph glyph-name="ae" unicode="&#xe6;" horiz-adv-x="1458" vert-adv-y="1720" 
d="M1390 427h-594q3 -92 25 -153q53 -147 186 -147q126 0 175 155h191q-17 -78 -55 -140q-106 -171 -311 -171q-200 0 -311 173q-45 -54 -92 -93q-97 -80 -229 -80q-122 0 -205 64q-102 77 -102 212q0 144 108 226q82 62 233 77q64 7 203 11v87q0 167 -157 167
q-146 0 -161 -163h-191q6 148 93 231q93 88 262 88q194 0 284 -122q107 122 262 122q143 0 244 -99q142 -139 142 -445zM612 434q-120 -6 -186 -22q-149 -36 -149 -159q0 -62 40 -98q36 -32 98 -32q104 0 160 104q37 68 37 152v55zM1189 561q-6 82 -33 140q-55 115 -161 115
q-103 0 -155 -103q-31 -60 -41 -152h390z" />
    <glyph glyph-name="oslash" unicode="&#xf8;" horiz-adv-x="986" vert-adv-y="1720" 
d="M231 -29h-177l112 159q-98 138 -98 341q0 211 103 347q117 153 324 153q122 0 222 -60l42 60h173l-110 -158q97 -133 97 -343q0 -242 -128 -379q-112 -120 -294 -120q-126 0 -225 59zM604 767q-55 36 -110 36q-100 0 -158 -85q-63 -92 -63 -247q0 -90 23 -170zM385 173
q56 -34 110 -34q95 0 150 74q69 92 69 261q0 87 -23 166z" />
    <glyph glyph-name="questiondown" unicode="&#xbf;" horiz-adv-x="917" vert-adv-y="1720" 
d="M845 14q0 -8 -1 -19q-7 -158 -90 -249q-103 -115 -277 -115q-173 0 -279 108q-102 103 -102 268q0 117 62 196q39 51 129 127q47 41 65 69q34 63 33 156v12h183q-1 -94 -9 -141q-15 -79 -68 -137q-20 -23 -97 -97q-52 -51 -69 -91q-18 -45 -18 -92q0 -67 32 -117
q45 -71 139 -71q165 0 173 193h194zM599 942v-246h-246v246h246z" />
    <glyph glyph-name="exclamdown" unicode="&#xa1;" horiz-adv-x="561" vert-adv-y="1720" 
d="M175 -355v394l57 526h106l50 -524v-396h-213zM404 942v-246h-246v246h246z" />
    <glyph glyph-name="logicalnot" unicode="&#xac;" vert-adv-y="1720" 
d="M742 0v387h-674v192h887v-579h-213z" />
    <glyph glyph-name="radical" unicode="&#x221a;" horiz-adv-x="1365" vert-adv-y="1720" 
d="M1365 1693v-173h-376l-429 -1520h-235l-155 573h-170v173h291l76 -261q10 -37 52 -251l6 -31h11q8 38 40 175q46 199 50 215l88 311l222 789h529z" />
    <glyph glyph-name="florin" unicode="&#x192;" horiz-adv-x="537" vert-adv-y="1720" 
d="M229 -218h-203l141 1004h-116v156h138l18 129q23 166 81 232q80 93 226 93q37 0 103 -13l-24 -168q-41 13 -69 13q-71 0 -92 -55q-16 -39 -25 -106l-17 -125h149v-156h-171z" />
    <glyph glyph-name="approxequal" unicode="&#x2248;" vert-adv-y="1720" 
d="M131 713l-111 77q42 91 83 142q86 107 204 107q73 0 227 -74q136 -65 190 -65q61 0 108 48q29 30 61 83l111 -77q-45 -99 -89 -152q-83 -99 -196 -99q-49 0 -118 27q-36 15 -104 46q-142 66 -199 66q-59 0 -106 -48q-28 -30 -61 -81zM131 326l-111 77q42 92 83 143
q86 107 205 107q72 0 226 -73q87 -42 115 -51q41 -14 75 -14q62 0 108 47q29 30 61 83l111 -77q-45 -99 -89 -153q-83 -99 -196 -99q-49 0 -118 27q-33 13 -104 47q-141 65 -198 65q-60 0 -107 -48q-29 -29 -61 -81z" />
    <glyph glyph-name="Delta" unicode="&#x2206;" horiz-adv-x="1134" vert-adv-y="1720" 
d="M450 1365h235l438 -1365h-1113zM566 1098l-272 -918h540z" />
    <glyph glyph-name="guillemotleft" unicode="&#xab;" horiz-adv-x="769" vert-adv-y="1720" 
d="M661 859v-208l-152 -139l152 -142v-207l-259 243v209zM350 858v-204l-155 -140l155 -143v-210l-262 248v206z" />
    <glyph glyph-name="guillemotright" unicode="&#xbb;" horiz-adv-x="769" vert-adv-y="1720" 
d="M420 859l262 -250v-206l-262 -243v205l155 139l-155 145v210zM109 856l258 -244v-206l-258 -243v204l152 139l-152 142v208z" />
    <glyph glyph-name="ellipsis" unicode="&#x2026;" horiz-adv-x="1503" vert-adv-y="1720" 
d="M375 246v-246h-246v246h246zM875 246v-246h-246v246h246zM1374 246v-246h-246v246h246z" />
    <glyph glyph-name="glyph172" horiz-adv-x="966" vert-adv-y="966" 
 />
    <glyph glyph-name="Agrave" unicode="&#xc0;" horiz-adv-x="1134" vert-adv-y="1720" 
d="M450 1365h235l438 -1365h-236l-107 366h-431l-108 -366h-231zM402 546h325l-161 552zM319 1734h187l169 -259h-171z" />
    <glyph glyph-name="Atilde" unicode="&#xc3;" horiz-adv-x="1134" vert-adv-y="1720" 
d="M450 1365h235l438 -1365h-236l-107 366h-431l-108 -366h-231zM402 546h325l-161 552zM759 1713h116q-36 -232 -190 -232q-57 0 -162 61q-52 30 -78 30q-53 0 -71 -91h-115q34 232 196 232q46 0 93 -23q15 -7 60 -35q48 -30 76 -30q53 0 75 88z" />
    <glyph glyph-name="Otilde" unicode="&#xd5;" horiz-adv-x="1260" vert-adv-y="1720" 
d="M639 1396q231 0 384 -186q164 -202 164 -527q0 -284 -126 -479q-75 -116 -191 -178q-109 -59 -240 -59q-189 0 -328 119q-229 197 -229 594q0 332 160 525q158 191 406 191zM626 1204q-145 0 -235 -139q-93 -145 -93 -378q0 -230 84 -376q44 -77 124 -120q59 -32 127 -32
q93 0 169 61q83 66 126 207q34 112 34 254q0 236 -90 380q-89 143 -246 143zM822 1713h116q-36 -232 -190 -232q-57 0 -162 61q-52 30 -78 30q-53 0 -71 -91h-115q34 232 196 232q46 0 93 -23q15 -7 60 -35q48 -30 76 -30q53 0 75 88z" />
    <glyph glyph-name="OE" unicode="&#x152;" horiz-adv-x="1787" vert-adv-y="1720" 
d="M899 1237v128h796v-193h-591v-370h546v-193h-546v-416h601v-193h-806v126q-125 -159 -308 -159q-166 0 -300 121q-218 197 -218 595q0 325 152 523q75 96 179 147q91 44 189 44q186 0 306 -160zM599 1204q-88 0 -160 -69q-141 -134 -141 -447q0 -230 77 -376
q40 -76 114 -120q54 -32 116 -32q85 0 155 61q77 67 116 207q31 112 31 254q0 235 -83 380q-81 142 -225 142z" />
    <glyph glyph-name="oe" unicode="&#x153;" horiz-adv-x="1501" vert-adv-y="1720" 
d="M1433 420h-594q3 -90 25 -150q54 -143 186 -143q126 0 176 155h190q-17 -78 -55 -140q-105 -171 -310 -171q-185 0 -291 150q-107 -150 -289 -150q-191 0 -298 143q-105 139 -105 358q0 208 98 346q110 153 305 153q185 0 292 -155q108 155 280 155q143 0 246 -100
q144 -141 144 -451zM471 803q-88 0 -141 -85q-57 -92 -57 -246q0 -159 56 -249q52 -84 146 -84q86 0 136 74q62 93 62 258q0 158 -55 246q-53 86 -147 86zM1232 561q-6 81 -33 139q-55 115 -161 115q-103 0 -155 -102q-31 -61 -41 -152h390z" />
    <glyph glyph-name="endash" unicode="&#x2013;" horiz-adv-x="960" vert-adv-y="1720" 
d="M850 611v-197h-739v197h739z" />
    <glyph glyph-name="emdash" unicode="&#x2014;" horiz-adv-x="1444" vert-adv-y="1720" 
d="M1331 611v-197h-1214v197h1214z" />
    <glyph glyph-name="quotedblleft" unicode="&#x201c;" horiz-adv-x="831" vert-adv-y="1720" 
d="M702 853h-246v171q0 127 29 197q40 97 154 146q24 10 63 19v-119q-105 -21 -111 -168h111v-246zM375 853h-246v171q0 127 29 197q40 97 154 146q24 10 63 19v-119q-105 -21 -111 -168h111v-246z" />
    <glyph glyph-name="quotedblright" unicode="&#x201d;" horiz-adv-x="831" vert-adv-y="1720" 
d="M129 1365h246v-171q0 -127 -29 -197q-41 -97 -154 -146q-24 -10 -63 -19v119q105 21 111 168h-111v246zM456 1365h246v-171q0 -127 -29 -197q-41 -97 -154 -146q-24 -10 -63 -19v119q105 21 111 168h-111v246z" />
    <glyph glyph-name="quoteleft" unicode="&#x2018;" horiz-adv-x="504" vert-adv-y="1720" 
d="M129 853v171q0 127 29 197q40 97 154 146q24 10 63 19v-119q-105 -21 -111 -168h111v-246h-246z" />
    <glyph glyph-name="quoteright" unicode="&#x2019;" horiz-adv-x="504" vert-adv-y="1720" 
d="M375 1365v-171q0 -127 -29 -197q-41 -97 -154 -146q-24 -10 -63 -19v119q105 21 111 168h-111v246h246z" />
    <glyph glyph-name="divide" unicode="&#xf7;" vert-adv-y="1720" 
d="M606 1131v-215h-187v215h187zM606 463v-215h-187v215h187zM41 776h942v-173h-942v173z" />
    <glyph glyph-name="lozenge" unicode="&#x25ca;" horiz-adv-x="1365" vert-adv-y="1720" 
d="M683 1419l532 -736l-532 -736l-532 736zM683 1237l-404 -554l404 -555l403 555z" />
    <glyph glyph-name="ydieresis" unicode="&#xff;" horiz-adv-x="850" vert-adv-y="1720" 
d="M89 -344v172q66 -13 104 -13q57 0 87 67q38 85 48 139l-322 921h219l209 -689l200 689h209l-306 -922q-72 -219 -118 -281q-70 -94 -195 -94q-54 0 -135 11zM683 1311v-205h-192v205h192zM358 1311v-205h-192v205h192z" />
    <glyph glyph-name="Ydieresis" unicode="&#x178;" horiz-adv-x="1040" vert-adv-y="1720" 
d="M410 0v545l-428 820h253l291 -597l288 597h245l-424 -822v-543h-225zM779 1652v-205h-192v205h192zM454 1652v-205h-192v205h192z" />
    <glyph glyph-name="fraction" unicode="&#x2044;" horiz-adv-x="402" vert-adv-y="1720" 
d="M-15 0h-152l588 1365h148z" />
    <glyph glyph-name="currency" unicode="&#xa4;" horiz-adv-x="1365" vert-adv-y="1720" 
d="M81 265l200 201q-97 133 -97 288q0 146 98 285l-204 202l111 112l203 -203q143 98 292 98q148 0 287 -96l202 200l110 -111l-200 -200q100 -143 100 -289t-97 -285l202 -202l-110 -111l-202 201q-138 -98 -290 -98q-145 0 -293 98l-202 -201zM680 1067q-127 0 -219 -92
t-92 -223q0 -130 92 -222q93 -92 222 -92q131 0 223 92t92 222q0 133 -92 223q-94 92 -226 92z" />
    <glyph glyph-name="guilsinglleft" unicode="&#x2039;" horiz-adv-x="455" vert-adv-y="1720" 
d="M346 857v-206l-152 -138l152 -142v-209l-258 246v208z" />
    <glyph glyph-name="guilsinglright" unicode="&#x203a;" horiz-adv-x="454" vert-adv-y="1720" 
d="M109 857l257 -244v-211l-257 -240v205l152 140l-152 141v209z" />
    <glyph glyph-name="fi" unicode="&#xf001;" horiz-adv-x="979" vert-adv-y="1720" 
d="M152 0v786h-134v156h134v129q0 166 48 232q67 93 212 93q38 0 106 -13v-168q-44 13 -71 13q-63 0 -81 -45q-13 -29 -13 -116v-125h153v-156h-151v-786h-203zM657 1160v205h201v-205h-201zM657 0v942h201v-942h-201z" />
    <glyph glyph-name="fl" unicode="&#xf002;" horiz-adv-x="979" vert-adv-y="1720" 
d="M152 0v786h-134v156h134v129q0 166 48 232q67 93 212 93q38 0 106 -13v-168q-44 13 -71 13q-63 0 -81 -45q-13 -29 -13 -116v-125h153v-156h-151v-786h-203zM657 0v1365h201v-1365h-201z" />
    <glyph glyph-name="daggerdbl" unicode="&#x2021;" horiz-adv-x="959" vert-adv-y="1720" 
d="M876 977v-187h-305v-581h305v-187h-305v-387h-187v387h-301v187h301v581h-301v187h301v388h187v-388h305z" />
    <glyph glyph-name="periodcentered" unicode="&#x2219;" horiz-adv-x="504" vert-adv-y="1720" 
d="M375 601v-246h-246v246h246z" />
    <glyph glyph-name="quotesinglbase" unicode="&#x201a;" horiz-adv-x="504" vert-adv-y="1720" 
d="M129 246h246v-171q0 -127 -29 -197q-41 -97 -154 -146q-24 -10 -63 -19v119q105 21 111 168h-111v246z" />
    <glyph glyph-name="quotedblbase" unicode="&#x201e;" horiz-adv-x="831" vert-adv-y="1720" 
d="M129 246h246v-171q0 -127 -29 -197q-41 -97 -154 -146q-24 -10 -63 -19v119q105 21 111 168h-111v246zM456 246h246v-171q0 -127 -29 -197q-41 -97 -154 -146q-24 -10 -63 -19v119q105 21 111 168h-111v246z" />
    <glyph glyph-name="perthousand" unicode="&#x2030;" horiz-adv-x="2537" vert-adv-y="1720" 
d="M377 1383q142 0 236 -113q100 -120 100 -314q0 -169 -77 -285q-94 -144 -265 -144q-170 0 -267 146q-75 113 -75 281q0 198 98 314q97 115 250 115zM369 1244q-79 0 -127 -74q-53 -81 -53 -212q0 -130 47 -211q24 -41 68 -64q32 -17 69 -17q77 0 122 66q58 84 58 223
q0 133 -51 213q-49 76 -133 76zM656 0h-145l588 1365h141zM1386 837q142 0 236 -113q100 -120 100 -314q0 -169 -77 -285q-94 -144 -265 -144q-170 0 -267 146q-75 113 -75 281q0 198 98 314q97 115 250 115zM1378 698q-79 0 -127 -74q-53 -81 -53 -212q0 -130 47 -211
q24 -41 68 -64q32 -17 69 -17q77 0 122 66q58 84 58 223q0 133 -51 213q-48 76 -133 76zM2170 837q143 0 237 -113q100 -120 100 -314q0 -169 -77 -285q-94 -144 -265 -144t-268 146q-75 113 -75 281q0 198 98 314q97 115 250 115zM2162 698q-78 0 -127 -74
q-53 -81 -53 -212q0 -130 47 -211q48 -81 138 -81q77 0 122 66q58 84 58 223q0 132 -51 213q-49 76 -134 76z" />
    <glyph glyph-name="Acircumflex" unicode="&#xc2;" horiz-adv-x="1134" vert-adv-y="1720" 
d="M450 1365h235l438 -1365h-236l-107 366h-431l-108 -366h-231zM402 546h325l-161 552zM848 1475h-180l-101 148l-100 -148h-180l183 259h194z" />
    <glyph glyph-name="Ecircumflex" unicode="&#xca;" horiz-adv-x="1039" vert-adv-y="1720" 
d="M125 0v1365h823v-193h-598v-370h553v-193h-553v-416h608v-193h-833zM801 1475h-180l-101 148l-100 -148h-180l183 259h194z" />
    <glyph glyph-name="Aacute" unicode="&#xc1;" horiz-adv-x="1134" vert-adv-y="1720" 
d="M450 1365h235l438 -1365h-236l-107 366h-431l-108 -366h-231zM402 546h325l-161 552zM814 1734l-185 -259h-171l170 259h186z" />
    <glyph glyph-name="Edieresis" unicode="&#xcb;" horiz-adv-x="1039" vert-adv-y="1720" 
d="M125 0v1365h823v-193h-598v-370h553v-193h-553v-416h608v-193h-833zM779 1652v-205h-192v205h192zM454 1652v-205h-192v205h192z" />
    <glyph glyph-name="Egrave" unicode="&#xc8;" horiz-adv-x="1039" vert-adv-y="1720" 
d="M125 0v1365h823v-193h-598v-370h553v-193h-553v-416h608v-193h-833zM272 1734h187l169 -259h-171z" />
    <glyph glyph-name="Iacute" unicode="&#xcd;" horiz-adv-x="477" vert-adv-y="1720" 
d="M125 0v1365h225v-1365h-225zM485 1734l-185 -259h-171l170 259h186z" />
    <glyph glyph-name="Icircumflex" unicode="&#xce;" horiz-adv-x="479" vert-adv-y="1720" 
d="M127 0v1365h225v-1365h-225zM520 1475h-180l-101 148l-100 -148h-180l183 259h194z" />
    <glyph glyph-name="Idieresis" unicode="&#xcf;" horiz-adv-x="479" vert-adv-y="1720" 
d="M128 0v1365h225v-1365h-225zM466 1652v-205h-192v205h192zM206 1652v-205h-192v205h192z" />
    <glyph glyph-name="Igrave" unicode="&#xcc;" horiz-adv-x="477" vert-adv-y="1720" 
d="M127 0v1365h225v-1365h-225zM-8 1734h187l169 -259h-171z" />
    <glyph glyph-name="Oacute" unicode="&#xd3;" horiz-adv-x="1260" vert-adv-y="1720" 
d="M639 1396q231 0 384 -186q164 -202 164 -527q0 -284 -126 -479q-75 -116 -191 -178q-109 -59 -240 -59q-189 0 -328 119q-229 197 -229 594q0 332 160 525q158 191 406 191zM626 1204q-145 0 -235 -139q-93 -145 -93 -378q0 -230 84 -376q44 -77 124 -120q59 -32 127 -32
q93 0 169 61q83 66 126 207q34 112 34 254q0 236 -90 380q-89 143 -246 143zM877 1734l-185 -259h-171l170 259h186z" />
    <glyph glyph-name="Ocircumflex" unicode="&#xd4;" horiz-adv-x="1260" vert-adv-y="1720" 
d="M639 1396q231 0 384 -186q164 -202 164 -527q0 -284 -126 -479q-75 -116 -191 -178q-109 -59 -240 -59q-189 0 -328 119q-229 197 -229 594q0 332 160 525q158 191 406 191zM626 1204q-145 0 -235 -139q-93 -145 -93 -378q0 -230 84 -376q44 -77 124 -120q59 -32 127 -32
q93 0 169 61q83 66 126 207q34 112 34 254q0 236 -90 380q-89 143 -246 143zM911 1475h-180l-101 148l-100 -148h-180l183 259h194z" />
    <glyph glyph-name="Euro" unicode="&#x20ac;" horiz-adv-x="1141" vert-adv-y="1720" 
d="M381 490q14 -77 40 -136q40 -92 96 -139q70 -59 188 -59q107 0 198 62q22 15 62 47l119 -122q-55 -52 -92 -77q-138 -95 -315 -95q-307 0 -446 311q-40 91 -59 208h-152l55 145h82v41q0 12 1 54h-138l55 145h98q28 154 89 258q78 136 191 202q103 59 251 59
q194 0 371 -125l-70 -183q-66 54 -112 78q-89 45 -185 45q-155 0 -236 -108q-65 -87 -91 -226h536l-56 -145h-496v-48v-47h460l-55 -145h-389z" />
    <glyph glyph-name="Ograve" unicode="&#xd2;" horiz-adv-x="1260" vert-adv-y="1720" 
d="M639 1396q231 0 384 -186q164 -202 164 -527q0 -284 -126 -479q-75 -116 -191 -178q-109 -59 -240 -59q-189 0 -328 119q-229 197 -229 594q0 332 160 525q158 191 406 191zM626 1204q-145 0 -235 -139q-93 -145 -93 -378q0 -230 84 -376q44 -77 124 -120q59 -32 127 -32
q93 0 169 61q83 66 126 207q34 112 34 254q0 236 -90 380q-89 143 -246 143zM382 1734h187l169 -259h-171z" />
    <glyph glyph-name="Uacute" unicode="&#xda;" horiz-adv-x="1176" vert-adv-y="1720" 
d="M109 1365h225v-781q0 -145 14 -212q44 -213 245 -213q162 0 217 139q33 84 33 286v781h225v-772q0 -171 -18 -256q-81 -370 -461 -370q-278 0 -400 205q-51 85 -68 201q-12 81 -12 224v768zM836 1734l-185 -259h-171l170 259h186z" />
    <glyph glyph-name="Ucircumflex" unicode="&#xdb;" horiz-adv-x="1176" vert-adv-y="1720" 
d="M109 1365h225v-781q0 -145 14 -212q44 -213 245 -213q162 0 217 139q33 84 33 286v781h225v-772q0 -171 -18 -256q-81 -370 -461 -370q-278 0 -400 205q-51 85 -68 201q-12 81 -12 224v768zM869 1475h-180l-101 148l-100 -148h-180l183 259h194z" />
    <glyph glyph-name="Ugrave" unicode="&#xd9;" horiz-adv-x="1176" vert-adv-y="1720" 
d="M109 1365h225v-781q0 -145 14 -212q44 -213 245 -213q162 0 217 139q33 84 33 286v781h225v-772q0 -171 -18 -256q-81 -370 -461 -370q-278 0 -400 205q-51 85 -68 201q-12 81 -12 224v768zM341 1734h187l169 -259h-171z" />
    <glyph glyph-name="dotlessi" unicode="&#x131;" horiz-adv-x="442" vert-adv-y="1720" 
d="M121 0v942h201v-942h-201z" />
    <glyph glyph-name="circumflex" unicode="&#x2c6;" horiz-adv-x="1036" vert-adv-y="1720" 
d="M766 1092h-168l-84 153l-87 -153h-157l158 273h178z" />
    <glyph glyph-name="tilde" unicode="&#x2dc;" horiz-adv-x="1036" vert-adv-y="1720" 
d="M807 1365q-9 -76 -29 -126q-49 -122 -152 -122q-50 0 -148 53q-47 26 -68 26q-43 0 -61 -90h-120q6 66 26 119q28 72 82 105q37 24 75 24q52 0 105 -29l70 -39q21 -12 40 -12q43 0 58 91h122z" />
    <glyph glyph-name="macron" unicode="&#x2c9;" horiz-adv-x="1036" vert-adv-y="1720" 
d="M782 1267v-129h-528v129h528z" />
    <glyph glyph-name="breve" unicode="&#x2d8;" horiz-adv-x="1036" vert-adv-y="1720" 
d="M774 1365q-35 -273 -256 -273t-256 273h129q22 -138 127 -138t127 138h129z" />
    <glyph glyph-name="dotaccent" unicode="&#x2d9;" vert-adv-y="1720" 
d="M608 1311v-205h-192v205h192z" />
    <glyph glyph-name="ring" unicode="&#x2da;" vert-adv-y="1720" 
d="M514 1356q-40 0 -68 -29t-28 -72q0 -41 28 -71q27 -29 66 -29q40 0 68 30q27 29 27 70q0 42 -28 72q-27 29 -65 29zM513 1453q78 0 134 -57q57 -57 57 -138q0 -79 -56 -135q-57 -58 -138 -58t-137 57q-57 57 -57 136q0 84 58 139q58 56 139 56z" />
    <glyph glyph-name="cedilla" unicode="&#xb8;" horiz-adv-x="1036" vert-adv-y="1720" 
d="M420 0h95l-40 -108q21 12 46 12q57 0 105 -31q64 -41 64 -122q0 -69 -46 -113q-50 -48 -138 -48q-95 0 -140 56q-20 25 -24 55h107q8 -31 56 -31q72 0 72 77q0 36 -20 59q-19 21 -52 21q-42 0 -53 -27h-107z" />
    <glyph glyph-name="hungarumlaut" unicode="&#x2dd;" vert-adv-y="1720" 
d="M607 1365l-186 -273h-164l170 273h180zM948 1365l-185 -273h-165l170 273h180z" />
    <glyph glyph-name="ogonek" unicode="&#x2db;" horiz-adv-x="1036" vert-adv-y="1720" 
d="M675 3q-26 -24 -33 -31q-63 -60 -63 -125q0 -56 40 -81q27 -16 63 -16q22 0 71 15v-111q-58 -22 -108 -22q-121 0 -173 82q-26 42 -26 98q0 51 24 85q73 106 86 106h119z" />
    <glyph glyph-name="caron" unicode="&#x2c7;" horiz-adv-x="1036" vert-adv-y="1720" 
d="M270 1365h168l84 -153l87 153h157l-158 -273h-178z" />
    <glyph glyph-name="uni00A0" unicode="&#xa0;" horiz-adv-x="396" vert-adv-y="1720" 
 />
    <glyph glyph-name="brokenbar" unicode="&#xa6;" vert-adv-y="1720" 
d="M402 1365h220v-698h-220v698zM402 314h220v-655h-220v655z" />
    <glyph glyph-name="sfthyphen" unicode="&#xad;" horiz-adv-x="433" vert-adv-y="1720" 
d="M427 611v-197h-421v197h421z" />
    <glyph glyph-name="macron" unicode="&#xaf;" vert-adv-y="1720" 
d="M41 1648h942v-173h-942v173z" />
    <glyph glyph-name="twosuperior" unicode="&#xb2;" horiz-adv-x="562" vert-adv-y="1720" 
d="M526 687v-141h-513q7 22 8 71q3 117 69 200q58 68 175 146q109 74 109 172q0 40 -18 68q-28 40 -83 40q-98 0 -98 -138h-156q3 89 30 143q67 135 226 135q124 0 200 -80q59 -63 59 -165q0 -115 -90 -203q-42 -41 -146 -111q-102 -67 -118 -137h346z" />
    <glyph glyph-name="threesuperior" unicode="&#xb3;" horiz-adv-x="566" vert-adv-y="1720" 
d="M183 1126h-150q3 103 43 164q65 99 199 99q109 0 174 -66q62 -62 62 -159q0 -108 -88 -166q114 -65 114 -200q0 -117 -76 -190q-74 -71 -190 -71q-159 0 -224 125q-29 56 -29 130v25h151q2 -58 14 -89q21 -50 86 -50q49 0 77 28q32 33 32 93q0 125 -114 125q-10 0 -52 -2
v126q22 -1 32 -1q59 0 83 23q29 29 29 83t-34 79q-21 16 -52 16q-83 0 -87 -122z" />
    <glyph glyph-name="periodcentered" unicode="&#xb7;" horiz-adv-x="504" vert-adv-y="1720" 
d="M375 601v-246h-246v246h246z" />
    <glyph glyph-name="onesuperior" unicode="&#xb9;" horiz-adv-x="449" vert-adv-y="1720" 
d="M162 546v569q-45 -30 -116 -30h-19v132q91 1 128 41q30 34 39 107h118v-819h-150z" />
    <glyph glyph-name="onequarter" unicode="&#xbc;" horiz-adv-x="1345" vert-adv-y="1720" 
d="M162 546v569q-45 -30 -116 -30h-19v132q91 1 128 41q30 34 39 107h118v-819h-150zM433 0h-152l588 1365h149zM1084 0v194h-279v140l288 485h131v-493h86v-132h-86v-194h-140zM1084 326v261l-144 -261h144z" />
    <glyph glyph-name="onehalf" unicode="&#xbd;" horiz-adv-x="1413" vert-adv-y="1720" 
d="M162 546v569q-45 -30 -116 -30h-19v132q91 1 128 41q30 34 39 107h118v-819h-150zM433 0h-152l588 1365h149zM1377 141v-141h-513q8 22 8 71q3 120 69 200q60 70 175 146q109 74 109 172q0 40 -18 68q-28 40 -83 40q-98 0 -98 -138h-156q3 89 30 143q67 135 226 135
q124 0 200 -80q59 -63 59 -165q0 -115 -90 -203q-43 -42 -145 -111q-103 -67 -119 -137h346z" />
    <glyph glyph-name="threequarters" unicode="&#xbe;" horiz-adv-x="1454" vert-adv-y="1720" 
d="M542 0h-151l588 1365h148zM1193 0v194h-279v140l288 485h131v-493h86v-132h-86v-194h-140zM1193 326v261l-144 -261h144zM183 1126h-150q3 103 43 164q65 99 199 99q109 0 174 -66q62 -62 62 -159q0 -108 -88 -166q114 -65 114 -200q0 -117 -76 -190q-74 -71 -190 -71
q-159 0 -224 125q-29 56 -29 130v25h151q2 -58 14 -89q21 -50 86 -50q49 0 77 28q32 33 32 93q0 125 -114 125q-10 0 -52 -2v126q22 -1 32 -1q59 0 83 23q29 29 29 83t-34 79q-21 16 -52 16q-83 0 -87 -122z" />
    <glyph glyph-name="Eth" unicode="&#xd0;" horiz-adv-x="1196" vert-adv-y="1720" 
d="M0 609v193h125v563h419q273 0 413 -153q166 -182 166 -520q0 -397 -216 -585q-82 -72 -190 -94q-65 -13 -162 -13h-430v609h-125zM350 188h174q107 0 161 21q100 38 159 169q54 123 54 314q0 262 -117 387q-53 56 -119 79q-54 19 -135 19h-177v-375h273v-193h-273v-421z
" />
    <glyph glyph-name="multiply" unicode="&#xd7;" vert-adv-y="1720" 
d="M118 961l123 123l271 -272l272 272l123 -123l-272 -272l272 -271l-123 -123l-272 272l-271 -272l-123 123l272 272z" />
    <glyph glyph-name="Yacute" unicode="&#xdd;" horiz-adv-x="1040" vert-adv-y="1720" 
d="M410 0v545l-428 820h253l291 -597l288 597h245l-424 -822v-543h-225zM768 1734l-185 -259h-171l170 259h186z" />
    <glyph glyph-name="Thorn" unicode="&#xde;" horiz-adv-x="1050" vert-adv-y="1720" 
d="M125 0v1365h225v-232h162q145 0 225 -28q125 -44 191 -168q49 -91 49 -221q0 -223 -139 -338q-61 -50 -136 -70q-64 -16 -164 -16h-188v-292h-225zM350 484h157q129 0 181 51q64 63 64 177q0 132 -90 190q-50 32 -173 32h-139v-450z" />
    <glyph glyph-name="eth" unicode="&#xf0;" horiz-adv-x="986" vert-adv-y="1720" 
d="M689 1394l67 -117l-136 -79q80 -82 140 -182q159 -264 159 -542q0 -245 -128 -383q-112 -120 -296 -120q-202 0 -317 143q-110 137 -110 357q0 213 103 347q60 76 146 117q77 36 161 36q65 0 132 -31q-71 111 -131 177l-154 -89l-67 117l117 68q-39 30 -92 63l72 118
q77 -36 160 -101zM494 803q-100 0 -158 -85q-63 -92 -63 -242q0 -163 62 -252q58 -85 161 -85q94 0 149 74q69 93 69 260q0 156 -61 244q-59 86 -159 86z" />
    <glyph glyph-name="yacute" unicode="&#xfd;" horiz-adv-x="850" vert-adv-y="1720" 
d="M89 -344v172q66 -13 104 -13q57 0 87 67q38 85 48 139l-322 921h219l209 -689l200 689h209l-306 -922q-72 -219 -118 -281q-70 -94 -195 -94q-54 0 -135 11zM669 1365l-186 -273h-164l170 273h180z" />
    <glyph glyph-name="thorn" unicode="&#xfe;" horiz-adv-x="1018" vert-adv-y="1720" 
d="M117 -355v1720h201v-529q88 135 259 135q177 0 278 -147q97 -143 97 -354q0 -228 -106 -364q-106 -135 -276 -135q-162 0 -252 133v-459h-201zM531 803q-105 0 -164 -98q-53 -89 -53 -230q0 -162 62 -252q58 -84 156 -84q97 0 153 84q62 93 62 244q0 143 -56 238
q-57 98 -160 98z" />
    <glyph glyph-name="Amacron" unicode="&#x100;" horiz-adv-x="1134" vert-adv-y="1720" 
d="M450 1365h235l438 -1365h-236l-107 366h-431l-108 -366h-231zM402 546h325l-161 552zM857 1611v-132h-580v132h580z" />
    <glyph glyph-name="amacron" unicode="&#x101;" horiz-adv-x="948" vert-adv-y="1720" 
d="M905 142v-142q-57 -25 -126 -25q-65 0 -98 32q-23 24 -39 76q-104 -112 -272 -112q-121 0 -202 64q-100 77 -100 212q0 146 111 232q83 64 239 80q68 7 208 11v78q0 167 -165 167q-151 0 -167 -163h-191q8 149 97 231q97 88 272 88q194 0 287 -111q46 -53 56 -145
q4 -35 4 -140v-356q0 -52 8 -67q11 -21 38 -21q18 0 40 11zM626 454q-124 -6 -194 -24q-71 -18 -110 -61q-45 -48 -45 -113q0 -64 42 -100q38 -32 103 -32q108 0 166 104q38 68 38 151v75zM739 1267v-129h-528v129h528z" />
    <glyph glyph-name="Abreve" unicode="&#x102;" horiz-adv-x="1134" vert-adv-y="1720" 
d="M450 1365h235l438 -1365h-236l-107 366h-431l-108 -366h-231zM402 546h325l-161 552zM295 1734h136q14 -60 36 -88q32 -39 99 -39q74 0 107 47q18 26 30 80h136q-9 -77 -31 -122q-68 -144 -241 -144q-115 0 -188 69q-68 65 -84 197z" />
    <glyph glyph-name="abreve" unicode="&#x103;" horiz-adv-x="948" vert-adv-y="1720" 
d="M905 142v-142q-57 -25 -126 -25q-65 0 -98 32q-23 24 -39 76q-104 -112 -272 -112q-121 0 -202 64q-100 77 -100 212q0 146 111 232q83 64 239 80q68 7 208 11v78q0 167 -165 167q-151 0 -167 -163h-191q8 149 97 231q97 88 272 88q194 0 287 -111q46 -53 56 -145
q4 -35 4 -140v-356q0 -52 8 -67q11 -21 38 -21q18 0 40 11zM626 454q-124 -6 -194 -24q-71 -18 -110 -61q-45 -48 -45 -113q0 -64 42 -100q38 -32 103 -32q108 0 166 104q38 68 38 151v75zM730 1365q-35 -273 -256 -273t-256 273h129q22 -138 127 -138t127 138h129z" />
    <glyph glyph-name="Aogonek" unicode="&#x104;" horiz-adv-x="1134" vert-adv-y="1720" 
d="M1123 0h-1q-93 -82 -93 -164q0 -51 40 -77q27 -16 63 -16q22 0 71 15v-111q-60 -22 -108 -22q-93 0 -148 53q-50 47 -50 124q0 93 75 168q9 9 31 30h-117l-107 366h-430l-109 -366h-230l440 1365h235zM402 546h325l-161 552z" />
    <glyph glyph-name="aogonek" unicode="&#x105;" horiz-adv-x="948" vert-adv-y="1720" 
d="M898 -3q-91 -82 -91 -150q0 -57 41 -82q26 -16 62 -16q24 0 72 16v-111q-59 -23 -108 -23q-94 0 -149 53q-50 48 -50 127q0 84 82 165q-88 8 -115 107q-105 -112 -272 -112q-120 0 -202 64q-100 77 -100 212q0 146 111 232q83 64 239 80q67 7 208 11v78q0 167 -165 167
q-151 0 -167 -163h-191q7 148 97 231q97 88 272 88q194 0 287 -111q46 -54 56 -145q4 -36 4 -140v-356q0 -51 8 -67q11 -20 39 -20q16 0 39 10v-142zM626 454q-124 -6 -194 -24q-71 -18 -110 -61q-45 -49 -45 -113t42 -100q39 -32 103 -32q108 0 166 104q38 68 38 151v75z
" />
    <glyph glyph-name="Cacute" unicode="&#x106;" horiz-adv-x="1180" vert-adv-y="1720" 
d="M899 523h222q-11 -208 -117 -358q-139 -198 -384 -198q-244 0 -387 181q-160 203 -160 531q0 283 130 481q154 236 426 236q244 0 387 -199q83 -116 97 -269h-222q-19 110 -69 176q-77 100 -199 100q-153 0 -234 -138q-91 -156 -91 -386q0 -225 87 -379q80 -141 234 -141
q241 0 280 363zM838 1734l-185 -259h-171l170 259h186z" />
    <glyph glyph-name="cacute" unicode="&#x107;" horiz-adv-x="921" vert-adv-y="1720" 
d="M667 333h199q-19 -144 -95 -236q-106 -126 -288 -126q-181 0 -289 119q-126 138 -126 373q0 223 107 358q118 150 315 150q191 0 293 -132q60 -77 71 -192h-200q-10 54 -34 89q-47 67 -131 67q-106 0 -162 -96q-54 -91 -54 -239q0 -152 58 -244q54 -85 153 -85
q103 0 153 95q22 40 30 99zM706 1365l-186 -273h-164l170 273h180z" />
    <glyph glyph-name="Ccircumflex" unicode="&#x108;" horiz-adv-x="1180" vert-adv-y="1720" 
d="M899 523h222q-11 -208 -117 -358q-139 -198 -384 -198q-244 0 -387 181q-160 203 -160 531q0 283 130 481q154 236 426 236q244 0 387 -199q83 -116 97 -269h-222q-19 110 -69 176q-77 100 -199 100q-153 0 -234 -138q-91 -156 -91 -386q0 -225 87 -379q80 -141 234 -141
q241 0 280 363zM889 1475h-180l-101 148l-100 -148h-180l183 259h194z" />
    <glyph glyph-name="Cdotaccent" unicode="&#x10a;" horiz-adv-x="1180" vert-adv-y="1720" 
d="M899 523h222q-11 -208 -117 -358q-139 -198 -384 -198q-244 0 -387 181q-160 203 -160 531q0 283 130 481q154 236 426 236q244 0 387 -199q83 -116 97 -269h-222q-19 110 -69 176q-77 100 -199 100q-153 0 -234 -138q-91 -156 -91 -386q0 -225 87 -379q80 -141 234 -141
q241 0 280 363zM698 1652v-205h-192v205h192z" />
    <glyph glyph-name="cdotaccent" unicode="&#x10b;" horiz-adv-x="921" vert-adv-y="1720" 
d="M667 333h199q-19 -144 -95 -236q-106 -126 -288 -126q-181 0 -289 119q-126 138 -126 373q0 223 107 358q118 150 315 150q191 0 293 -132q60 -77 71 -192h-200q-10 54 -34 89q-47 67 -131 67q-106 0 -162 -96q-54 -91 -54 -239q0 -152 58 -244q54 -85 153 -85
q103 0 153 95q22 40 30 99zM583 1311v-205h-192v205h192z" />
    <glyph glyph-name="Ccaron" unicode="&#x10c;" horiz-adv-x="1180" vert-adv-y="1720" 
d="M899 523h222q-11 -208 -117 -358q-139 -198 -384 -198q-244 0 -387 181q-160 203 -160 531q0 283 130 481q154 236 426 236q244 0 387 -199q83 -116 97 -269h-222q-19 110 -69 176q-77 100 -199 100q-153 0 -234 -138q-91 -156 -91 -386q0 -225 87 -379q80 -141 234 -141
q241 0 280 363zM310 1734h180l100 -148l100 148h181l-183 -259h-195z" />
    <glyph glyph-name="ccaron" unicode="&#x10d;" horiz-adv-x="921" vert-adv-y="1720" 
d="M667 333h199q-19 -144 -95 -236q-106 -126 -288 -126q-181 0 -289 119q-126 138 -126 373q0 223 107 358q118 150 315 150q191 0 293 -132q60 -77 71 -192h-200q-10 54 -34 89q-47 67 -131 67q-106 0 -162 -96q-54 -91 -54 -239q0 -152 58 -244q54 -85 153 -85
q103 0 153 95q22 40 30 99zM213 1365h168l84 -153l87 153h157l-158 -273h-178z" />
    <glyph glyph-name="Dcaron" unicode="&#x10e;" horiz-adv-x="1196" vert-adv-y="1720" 
d="M125 0v1365h419q273 0 413 -153q166 -182 166 -520q0 -397 -215 -585q-83 -72 -191 -94q-65 -13 -162 -13h-430zM350 188h174q102 0 158 19.5t101 71.5q115 132 115 413q0 262 -117 387q-53 56 -119 79q-54 19 -135 19h-177v-989zM318 1734h180l100 -148l100 148h181
l-183 -259h-195z" />
    <glyph glyph-name="dcaron" unicode="&#x10f;" horiz-adv-x="1018" vert-adv-y="1720" 
d="M902 0h-188v106q-96 -135 -270 -135q-178 0 -279 147q-97 142 -97 355q0 229 105 363q52 67 131 103q70 32 145 32q162 0 252 -133v527h201v-1365zM485 803q-95 0 -150 -84q-62 -93 -62 -245q0 -140 55 -237q57 -98 160 -98q106 0 164 98q53 90 53 233q0 160 -62 249
q-58 84 -158 84zM1191 1365v-134q2 -216 -166 -232v77q68 15 75 110h-75v179h166z" />
    <glyph glyph-name="Dcroat" unicode="&#x110;" horiz-adv-x="1196" vert-adv-y="1720" 
d="M0 609v193h125v563h419q273 0 413 -153q166 -182 166 -520q0 -248 -88 -418q-96 -184 -257 -243q-84 -31 -223 -31h-430v609h-125zM350 188h174q107 0 160 21q101 38 159 170q55 123 55 313q0 262 -117 387q-53 56 -119 79q-54 19 -135 19h-177v-375h273v-193h-273v-421z
" />
    <glyph glyph-name="dcroat" unicode="&#x111;" horiz-adv-x="1018" vert-adv-y="1720" 
d="M902 0h-188v106q-96 -135 -269 -135q-179 0 -280 148q-97 142 -97 354q0 229 105 363q52 67 132 103q69 32 145 32q162 0 251 -133v244h-246v129h246v154h201v-154h90v-129h-90v-1082zM489 803q-98 0 -154 -84q-62 -93 -62 -240q0 -144 56 -241q56 -99 160 -99
q106 0 164 98q53 90 53 234q0 159 -62 248q-59 84 -155 84z" />
    <glyph glyph-name="Emacron" unicode="&#x112;" horiz-adv-x="1039" vert-adv-y="1720" 
d="M125 0v1365h823v-193h-598v-370h553v-193h-553v-416h608v-193h-833zM810 1611v-132h-580v132h580z" />
    <glyph glyph-name="emacron" unicode="&#x113;" horiz-adv-x="944" vert-adv-y="1720" 
d="M877 420h-608q3 -90 26 -150q55 -143 192 -143q97 0 147 77q19 30 35 78h190q-17 -78 -56 -141q-107 -170 -319 -170q-196 0 -308 143q-108 137 -108 347q0 214 110 361q112 149 297 149q150 0 255 -100q146 -141 147 -451zM675 561q-6 81 -34 139q-56 115 -167 115
q-106 0 -160 -102q-32 -61 -42 -152h403zM737 1267v-129h-528v129h528z" />
    <glyph glyph-name="Ebreve" unicode="&#x114;" horiz-adv-x="1039" vert-adv-y="1720" 
d="M125 0v1365h823v-193h-598v-370h553v-193h-553v-416h608v-193h-833zM276 1734h136q14 -60 36 -88q32 -39 99 -39q74 0 107 47q18 26 30 80h136q-9 -77 -31 -122q-68 -144 -241 -144q-115 0 -188 69q-68 65 -84 197z" />
    <glyph glyph-name="ebreve" unicode="&#x115;" horiz-adv-x="944" vert-adv-y="1720" 
d="M877 420h-608q3 -90 26 -150q55 -143 192 -143q97 0 147 77q19 30 35 78h190q-17 -78 -56 -141q-107 -170 -319 -170q-196 0 -308 143q-108 137 -108 347q0 214 110 361q112 149 297 149q150 0 255 -100q146 -141 147 -451zM675 561q-6 81 -34 139q-56 115 -167 115
q-106 0 -160 -102q-32 -61 -42 -152h403zM730 1365q-35 -273 -256 -273t-256 273h129q22 -138 127 -138t127 138h129z" />
    <glyph glyph-name="Edotaccent" unicode="&#x116;" horiz-adv-x="1039" vert-adv-y="1720" 
d="M125 0v1365h823v-193h-598v-370h553v-193h-553v-416h608v-193h-833zM616 1652v-205h-192v205h192z" />
    <glyph glyph-name="edotaccent" unicode="&#x117;" horiz-adv-x="944" vert-adv-y="1720" 
d="M877 420h-608q3 -90 26 -150q55 -143 192 -143q97 0 147 77q19 30 35 78h190q-17 -78 -56 -141q-107 -170 -319 -170q-196 0 -308 143q-108 137 -108 347q0 214 110 361q112 149 297 149q150 0 255 -100q146 -141 147 -451zM675 561q-6 81 -34 139q-56 115 -167 115
q-106 0 -160 -102q-32 -61 -42 -152h403zM568 1311v-205h-192v205h192z" />
    <glyph glyph-name="Eogonek" unicode="&#x118;" horiz-adv-x="1040" vert-adv-y="1720" 
d="M954 0l-6 -5q-87 -79 -87 -159q0 -51 41 -77q26 -16 62 -16q22 0 71 15v-111q-60 -22 -108 -22q-93 0 -148 53q-50 48 -50 124q0 93 75 168q9 9 31 30h-710v1365h823v-193h-598v-370h553v-193h-553v-416h608v-193h-4z" />
    <glyph glyph-name="eogonek" unicode="&#x119;" horiz-adv-x="944" vert-adv-y="1720" 
d="M634 -3q-90 -81 -90 -150q0 -57 41 -82q26 -16 62 -16q24 0 71 16v-111q-59 -23 -108 -23q-93 0 -148 53q-50 48 -50 126q0 84 76 161q-156 0 -259 88q-161 137 -161 402q0 214 110 361q112 149 298 149q149 0 254 -100q147 -141 147 -451h-608q3 -90 26 -150
q55 -143 192 -143q131 0 182 155h190q-15 -74 -56 -140q-66 -105 -169 -145zM675 561q-5 81 -34 139q-56 115 -167 115q-106 0 -160 -103q-32 -60 -42 -151h403z" />
    <glyph glyph-name="Ecaron" unicode="&#x11a;" horiz-adv-x="1039" vert-adv-y="1720" 
d="M125 0v1365h823v-193h-598v-370h553v-193h-553v-416h608v-193h-833zM240 1734h180l100 -148l100 148h181l-183 -259h-195z" />
    <glyph glyph-name="ecaron" unicode="&#x11b;" horiz-adv-x="944" vert-adv-y="1720" 
d="M877 420h-608q3 -90 26 -150q55 -143 192 -143q97 0 147 77q19 30 35 78h190q-17 -78 -56 -141q-107 -170 -319 -170q-196 0 -308 143q-108 137 -108 347q0 214 110 361q112 149 297 149q150 0 255 -100q146 -141 147 -451zM675 561q-6 81 -34 139q-56 115 -167 115
q-106 0 -160 -102q-32 -61 -42 -152h403zM225 1365h168l84 -153l87 153h157l-158 -273h-178z" />
    <glyph glyph-name="Gcircumflex" unicode="&#x11c;" horiz-adv-x="1255" vert-adv-y="1720" 
d="M1147 0h-173v158q-60 -75 -113 -114q-103 -77 -243 -77q-219 0 -362 158q-84 93 -126 211q-57 159 -57 337q0 336 174 543q152 181 395 181q268 0 409 -221q69 -107 82 -247h-218q-18 111 -71 179q-77 96 -206 96q-156 0 -243 -135q-97 -148 -97 -393q0 -261 111 -404
q86 -112 234 -112q196 0 270 205q24 65 30 180h-301v184h505v-729zM908 1475h-180l-101 148l-100 -148h-180l183 259h194z" />
    <glyph glyph-name="gcircumflex" unicode="&#x11d;" horiz-adv-x="998" vert-adv-y="1720" 
d="M99 -79h203q24 -127 172 -127q124 0 171 93q40 80 40 211v49q-82 -139 -250 -139t-266 126q-101 131 -101 347q0 223 104 357q104 133 273 133t247 -139v110h189v-763q0 -149 -16 -226q-66 -308 -395 -308q-337 0 -371 276zM476 801q-90 0 -141 -75q-62 -90 -62 -245
t71 -240q55 -65 134 -65q91 0 145 78q64 92 64 240q0 162 -73 245q-55 62 -138 62zM748 1092h-168l-84 153l-87 -153h-157l158 273h178z" />
    <glyph glyph-name="Gbreve" unicode="&#x11e;" horiz-adv-x="1255" vert-adv-y="1720" 
d="M1147 0h-173v158q-60 -75 -113 -114q-103 -77 -243 -77q-219 0 -362 158q-84 93 -126 211q-57 159 -57 337q0 336 174 543q152 181 395 181q268 0 409 -221q69 -107 82 -247h-218q-18 111 -71 179q-77 96 -206 96q-156 0 -243 -135q-97 -148 -97 -393q0 -261 111 -404
q86 -112 234 -112q196 0 270 205q24 65 30 180h-301v184h505v-729zM355 1734h136q14 -60 36 -88q32 -39 99 -39q74 0 107 47q18 26 30 80h136q-9 -77 -31 -122q-68 -144 -241 -144q-115 0 -188 69q-68 65 -84 197z" />
    <glyph glyph-name="gbreve" unicode="&#x11f;" horiz-adv-x="998" vert-adv-y="1720" 
d="M99 -79h203q24 -127 172 -127q124 0 171 93q40 80 40 211v49q-82 -139 -250 -139t-266 126q-101 131 -101 347q0 223 104 357q104 133 273 133t247 -139v110h189v-763q0 -149 -16 -226q-66 -308 -395 -308q-337 0 -371 276zM476 801q-90 0 -141 -75q-62 -90 -62 -245
t71 -240q55 -65 134 -65q91 0 145 78q64 92 64 240q0 162 -73 245q-55 62 -138 62zM755 1365q-35 -273 -256 -273t-256 273h129q22 -138 127 -138t127 138h129z" />
    <glyph glyph-name="Gdotaccent" unicode="&#x120;" horiz-adv-x="1255" vert-adv-y="1720" 
d="M1147 0h-173v158q-60 -75 -113 -114q-103 -77 -243 -77q-219 0 -362 158q-84 93 -126 211q-57 159 -57 337q0 336 174 543q152 181 395 181q268 0 409 -221q69 -107 82 -247h-218q-18 111 -71 179q-77 96 -206 96q-156 0 -243 -135q-97 -148 -97 -393q0 -261 111 -404
q86 -112 234 -112q196 0 270 205q24 65 30 180h-301v184h505v-729zM727 1652v-205h-192v205h192z" />
    <glyph glyph-name="gdotaccent" unicode="&#x121;" horiz-adv-x="998" vert-adv-y="1720" 
d="M99 -79h203q24 -127 172 -127q124 0 171 93q40 80 40 211v49q-82 -139 -250 -139t-266 126q-101 131 -101 347q0 223 104 357q104 133 273 133t247 -139v110h189v-763q0 -149 -16 -226q-66 -308 -395 -308q-337 0 -371 276zM476 801q-90 0 -141 -75q-62 -90 -62 -245
t71 -240q55 -65 134 -65q91 0 145 78q64 92 64 240q0 162 -73 245q-55 62 -138 62zM602 1311v-205h-192v205h192z" />
    <glyph glyph-name="Gcommaaccent" unicode="&#x122;" horiz-adv-x="1255" vert-adv-y="1720" 
d="M1147 0h-173v158q-60 -75 -113 -114q-103 -77 -243 -77q-219 0 -362 158q-84 93 -126 211q-57 159 -57 337q0 336 174 543q152 181 395 181q268 0 409 -221q69 -107 82 -247h-218q-18 111 -71 179q-77 96 -206 96q-156 0 -243 -135q-97 -148 -97 -393q0 -261 111 -404
q86 -112 234 -112q196 0 270 205q24 65 30 180h-301v184h505v-729zM723 -94v-134q2 -216 -166 -232v77q68 15 75 110h-75v179h166z" />
    <glyph glyph-name="gcommaaccent" unicode="&#x123;" horiz-adv-x="998" vert-adv-y="1720" 
d="M99 -79h203q24 -127 172 -127q124 0 171 93q40 80 40 211v49q-82 -139 -250 -139t-266 126q-101 131 -101 347q0 223 104 357q104 133 273 133t247 -139v110h189v-763q0 -149 -16 -226q-66 -308 -395 -308q-337 0 -371 276zM476 801q-90 0 -141 -75q-62 -90 -62 -245
t71 -240q55 -65 134 -65q91 0 145 78q64 92 64 240q0 162 -73 245q-55 62 -138 62zM417 1092v134q-2 217 166 232v-77q-68 -15 -75 -110h75v-179h-166z" />
    <glyph glyph-name="Hcircumflex" unicode="&#x124;" horiz-adv-x="1210" vert-adv-y="1720" 
d="M125 0v1365h225v-552h510v552h225v-1365h-225v620h-510v-620h-225zM887 1475h-180l-101 148l-100 -148h-180l183 259h194z" />
    <glyph glyph-name="Imacron" unicode="&#x12a;" horiz-adv-x="580" vert-adv-y="1720" 
d="M177 0v1365h225v-1365h-225zM580 1611v-132h-580v132h580z" />
    <glyph glyph-name="imacron" unicode="&#x12b;" horiz-adv-x="528" vert-adv-y="1720" 
d="M163 0v942h201v-942h-201zM528 1267v-129h-528v129h528z" />
    <glyph glyph-name="ibreve" unicode="&#x12d;" horiz-adv-x="446" vert-adv-y="1720" 
d="M121 0v942h201v-942h-201zM479 1365q-35 -273 -256 -273t-256 273h129q22 -138 127 -138t127 138h129z" />
    <glyph glyph-name="Iogonek" unicode="&#x12e;" horiz-adv-x="475" vert-adv-y="1720" 
d="M427 -242v-111q-60 -22 -108 -22q-93 0 -148 53q-50 47 -50 124q0 93 75 168q9 9 31 30h-102v1365h224v-1365q-20 -15 -33 -28q-63 -65 -63 -135q0 -52 40 -78q27 -16 63 -16q22 0 71 15z" />
    <glyph glyph-name="iogonek" unicode="&#x12f;" horiz-adv-x="442" vert-adv-y="1720" 
d="M317 0q-93 -83 -93 -154q0 -56 40 -81q27 -16 63 -16q23 0 71 16v-111q-59 -23 -108 -23q-93 0 -148 53q-50 48 -50 127q0 92 106 189h-77v942h200v-942h-4zM121 1160v205h201v-205h-201z" />
    <glyph glyph-name="Idot" unicode="&#x130;" horiz-adv-x="475" vert-adv-y="1720" 
d="M125 0v1365h225v-1365h-225zM333 1652v-205h-192v205h192z" />
    <glyph glyph-name="Kcommaaccent" unicode="&#x136;" horiz-adv-x="1108" vert-adv-y="1720" 
d="M125 0v1365h224v-580l473 580h262l-477 -564l506 -801h-258l-393 629l-113 -134v-495h-224zM664 -94v-134q2 -216 -166 -232v77q68 15 75 110h-75v179h166z" />
    <glyph glyph-name="kcommaaccent" unicode="&#x137;" horiz-adv-x="908" vert-adv-y="1720" 
d="M117 0v1365h201v-762l315 339h234l-334 -348l366 -594h-235l-268 452l-78 -82v-370h-201zM533 -94v-134q2 -216 -166 -232v77q68 15 75 110h-75v179h166z" />
    <glyph glyph-name="Lacute" unicode="&#x139;" horiz-adv-x="966" vert-adv-y="1720" 
d="M125 0v1365h225v-1172h565v-193h-790zM731 1734l-185 -259h-171l170 259h186z" />
    <glyph glyph-name="lacute" unicode="&#x13a;" horiz-adv-x="446" vert-adv-y="1720" 
d="M123 0v1365h201v-1365h-201zM465 1748l-186 -273h-164l170 273h180z" />
    <glyph glyph-name="Lcommaaccent" unicode="&#x13b;" horiz-adv-x="966" vert-adv-y="1720" 
d="M125 0v1365h225v-1172h565v-193h-790zM584 -94v-134q2 -216 -166 -232v77q68 15 75 110h-75v179h166z" />
    <glyph glyph-name="lcommaaccent" unicode="&#x13c;" horiz-adv-x="442" vert-adv-y="1720" 
d="M121 0v1365h201v-1365h-201zM304 -94v-134q2 -216 -166 -232v77q68 15 75 110h-75v179h166z" />
    <glyph glyph-name="Lcaron" unicode="&#x13d;" horiz-adv-x="966" vert-adv-y="1720" 
d="M125 0v1365h225v-1172h565v-193h-790zM763 1365v-134q2 -216 -166 -232v77q68 15 75 110h-75v179h166z" />
    <glyph glyph-name="lcaron" unicode="&#x13e;" horiz-adv-x="442" vert-adv-y="1720" 
d="M121 0v1365h201v-1365h-201zM624 1365v-134q2 -216 -166 -232v77q68 15 75 110h-75v179h166z" />
    <glyph glyph-name="Lslash" unicode="&#x141;" horiz-adv-x="966" vert-adv-y="1720" 
d="M0 406v193l125 93v673h225v-525l244 178v-193l-244 -178v-454h565v-193h-790v498z" />
    <glyph glyph-name="lslash" unicode="&#x142;" horiz-adv-x="443" vert-adv-y="1720" 
d="M0 453v179l121 108v625h201v-462l120 108v-179l-120 -107v-725h-201v561z" />
    <glyph glyph-name="Nacute" unicode="&#x143;" horiz-adv-x="1198" vert-adv-y="1720" 
d="M125 0v1365h231l508 -1012v1012h209v-1365h-233l-506 1007v-1007h-209zM846 1734l-185 -259h-171l170 259h186z" />
    <glyph glyph-name="nacute" unicode="&#x144;" horiz-adv-x="973" vert-adv-y="1720" 
d="M117 0v942h189v-119q96 148 266 148q108 0 186 -62q78 -63 96 -180q6 -43 6 -127v-602h-201v549q0 108 -14 158q-12 43 -46 69q-36 27 -87 27q-86 0 -140 -70q-36 -47 -47 -124q-7 -48 -7 -136v-473h-201zM731 1365l-186 -273h-164l170 273h180z" />
    <glyph glyph-name="Ncommaaccent" unicode="&#x145;" horiz-adv-x="1198" vert-adv-y="1720" 
d="M125 0v1365h231l508 -1012v1012h209v-1365h-233l-506 1007v-1007h-209zM693 -94v-134q2 -216 -166 -232v77q68 15 75 110h-75v179h166z" />
    <glyph glyph-name="ncommaaccent" unicode="&#x146;" horiz-adv-x="973" vert-adv-y="1720" 
d="M117 0v942h189v-119q96 148 266 148q108 0 186 -62q78 -63 96 -180q6 -43 6 -127v-602h-201v549q0 108 -14 158q-12 43 -46 69q-36 27 -87 27q-86 0 -140 -70q-36 -47 -47 -124q-7 -48 -7 -136v-473h-201zM571 -94v-134q2 -216 -166 -232v77q68 15 75 110h-75v179h166z
" />
    <glyph glyph-name="Ncaron" unicode="&#x147;" horiz-adv-x="1198" vert-adv-y="1720" 
d="M125 0v1365h231l508 -1012v1012h209v-1365h-233l-506 1007v-1007h-209zM319 1734h180l100 -148l100 148h181l-183 -259h-195z" />
    <glyph glyph-name="ncaron" unicode="&#x148;" horiz-adv-x="973" vert-adv-y="1720" 
d="M117 0v942h189v-119q96 148 266 148q108 0 186 -62q78 -63 96 -180q6 -43 6 -127v-602h-201v549q0 108 -14 158q-12 43 -46 69q-36 27 -87 27q-86 0 -140 -70q-36 -47 -47 -124q-7 -48 -7 -136v-473h-201zM239 1365h168l84 -153l87 153h157l-158 -273h-178z" />
    <glyph glyph-name="Omacron" unicode="&#x14c;" horiz-adv-x="1260" vert-adv-y="1720" 
d="M639 1396q231 0 384 -186q164 -202 164 -527q0 -284 -126 -479q-75 -116 -191 -178q-109 -59 -240 -59q-189 0 -328 119q-229 197 -229 594q0 332 160 525q158 191 406 191zM626 1204q-145 0 -235 -139q-93 -145 -93 -378q0 -230 84 -376q44 -77 124 -120q59 -32 127 -32
q93 0 169 61q83 66 126 207q34 112 34 254q0 236 -90 380q-89 143 -246 143zM920 1611v-132h-580v132h580z" />
    <glyph glyph-name="omacron" unicode="&#x14d;" horiz-adv-x="986" vert-adv-y="1720" 
d="M502 971q186 0 303 -137q114 -133 114 -363q0 -243 -128 -380q-112 -120 -296 -120q-202 0 -317 143q-110 137 -110 356q0 212 103 348q117 153 331 153zM491 803q-97 0 -155 -85q-63 -92 -63 -246q0 -159 62 -249q58 -84 161 -84q94 0 149 74q69 92 69 259
q0 157 -60 245q-60 86 -163 86zM758 1267v-129h-528v129h528z" />
    <glyph glyph-name="Ohungarumlaut" unicode="&#x150;" horiz-adv-x="1260" vert-adv-y="1720" 
d="M639 1396q231 0 384 -186q164 -202 164 -527q0 -284 -126 -479q-75 -116 -191 -178q-109 -59 -240 -59q-189 0 -328 119q-229 197 -229 594q0 332 160 525q158 191 406 191zM626 1204q-145 0 -235 -139q-93 -145 -93 -378q0 -230 84 -376q44 -77 124 -120q59 -32 127 -32
q93 0 169 61q83 66 126 207q34 112 34 254q0 236 -90 380q-89 143 -246 143zM700 1734l-185 -259h-171l170 259h186zM1042 1734l-186 -259h-171l170 259h187z" />
    <glyph glyph-name="ohungarumlaut" unicode="&#x151;" horiz-adv-x="995" vert-adv-y="1720" 
d="M502 971q186 0 303 -137q114 -133 114 -363q0 -243 -128 -380q-112 -120 -296 -120q-202 0 -317 143q-110 137 -110 356q0 212 103 348q117 153 331 153zM491 803q-97 0 -155 -85q-63 -92 -63 -246q0 -159 62 -249q58 -84 161 -84q94 0 149 74q69 92 69 259
q0 157 -60 245q-60 86 -163 86zM588 1365l-186 -273h-164l170 273h180zM929 1365l-185 -273h-165l170 273h180z" />
    <glyph glyph-name="Racute" unicode="&#x154;" horiz-adv-x="1202" vert-adv-y="1720" 
d="M145 0v1365h505q118 0 186 -23q116 -40 180 -143q55 -89 55 -211q0 -250 -221 -337q81 -22 126 -80q40 -55 53 -120q10 -49 16 -124q17 -204 30 -256q9 -32 39 -71h-237q-17 33 -24 67q-6 29 -12 136q-9 148 -24 201q-30 110 -104 140q-49 19 -144 20h-199v-564h-225z
M370 739h198q144 0 197 38q81 57 81 184q0 136 -93 188q-50 28 -159 28h-224v-438zM848 1734l-185 -259h-171l170 259h186z" />
    <glyph glyph-name="racute" unicode="&#x155;" horiz-adv-x="623" vert-adv-y="1720" 
d="M117 0v942h189v-156q86 185 264 185q11 0 43 -2v-205q-48 6 -71 6q-134 0 -193 -135q-31 -73 -31 -254v-381h-201zM558 1365l-186 -273h-164l170 273h180z" />
    <glyph glyph-name="Rcommaaccent" unicode="&#x156;" horiz-adv-x="1202" vert-adv-y="1720" 
d="M145 0v1365h505q118 0 186 -23q116 -40 180 -143q55 -89 55 -211q0 -250 -221 -337q81 -22 126 -80q40 -55 53 -120q10 -49 16 -124q17 -204 30 -256q9 -32 39 -71h-237q-17 33 -24 67q-6 29 -12 136q-9 148 -24 201q-30 110 -104 140q-49 19 -144 20h-199v-564h-225z
M370 739h198q144 0 197 38q81 57 81 184q0 136 -93 188q-50 28 -159 28h-224v-438zM689 -94v-134q2 -216 -166 -232v77q68 15 75 110h-75v179h166z" />
    <glyph glyph-name="rcommaaccent" unicode="&#x157;" horiz-adv-x="623" vert-adv-y="1720" 
d="M117 0v942h189v-156q86 185 264 185q11 0 43 -2v-205q-48 6 -71 6q-134 0 -193 -135q-31 -73 -31 -254v-381h-201zM302 -94v-134q2 -216 -166 -232v77q68 15 75 110h-75v179h166z" />
    <glyph glyph-name="Rcaron" unicode="&#x158;" horiz-adv-x="1202" vert-adv-y="1720" 
d="M145 0v1365h505q118 0 186 -23q116 -40 180 -143q55 -89 55 -211q0 -250 -221 -337q81 -22 126 -80q40 -55 53 -120q10 -49 16 -124q17 -204 30 -256q9 -32 39 -71h-237q-17 33 -24 67q-6 29 -12 136q-9 148 -24 201q-30 110 -104 140q-49 19 -144 20h-199v-564h-225z
M370 739h198q144 0 197 38q81 57 81 184q0 136 -93 188q-50 28 -159 28h-224v-438zM321 1734h180l100 -148l100 148h181l-183 -259h-195z" />
    <glyph glyph-name="rcaron" unicode="&#x159;" horiz-adv-x="655" vert-adv-y="1720" 
d="M148 0v942h189v-156q86 185 264 185q11 0 43 -2v-205q-48 6 -71 6q-134 0 -193 -135q-31 -73 -31 -254v-381h-201zM96 1365h168l84 -153l87 153h157l-158 -273h-178z" />
    <glyph glyph-name="Sacute" unicode="&#x15a;" horiz-adv-x="1045" vert-adv-y="1720" 
d="M68 417h234q4 -103 42 -164q63 -102 188 -102q105 0 164 70q47 56 47 134q0 115 -106 181q-50 31 -222 102q-135 56 -215 135q-102 101 -102 257q0 169 124 274q109 92 280 92q235 0 353 -156q67 -87 78 -237h-219q-8 87 -42 130q-54 70 -169 70q-82 0 -130 -40
q-57 -48 -57 -131q0 -88 70 -146q56 -46 187 -98q128 -51 180 -80q224 -124 224 -351q0 -165 -117 -274q-123 -116 -330 -116q-239 0 -365 160q-88 113 -97 290zM770 1734l-185 -259h-171l170 259h186z" />
    <glyph glyph-name="sacute" unicode="&#x15b;" horiz-adv-x="849" vert-adv-y="1720" 
d="M67 267h200q10 -66 39 -97q43 -47 127 -47q79 0 120 42q33 35 33 90q0 81 -86 121q-32 16 -163 47q-257 62 -257 273q0 122 89 198q90 77 239 77q204 0 297 -125q41 -56 50 -145h-200q-18 119 -151 119q-63 0 -100 -32q-37 -31 -37 -82q0 -56 41 -85q33 -23 122 -43
q157 -36 216 -68q145 -76 145 -234q0 -135 -99 -222q-93 -83 -259 -83q-324 0 -366 296zM670 1365l-186 -273h-164l170 273h180z" />
    <glyph glyph-name="Scircumflex" unicode="&#x15c;" horiz-adv-x="1045" vert-adv-y="1720" 
d="M68 417h234q4 -103 42 -164q63 -102 188 -102q105 0 164 70q47 56 47 134q0 115 -106 181q-50 31 -222 102q-135 56 -215 135q-102 101 -102 257q0 169 124 274q109 92 280 92q235 0 353 -156q67 -87 78 -237h-219q-8 87 -42 130q-54 70 -169 70q-82 0 -130 -40
q-57 -48 -57 -131q0 -88 70 -146q56 -46 187 -98q128 -51 180 -80q224 -124 224 -351q0 -165 -117 -274q-123 -116 -330 -116q-239 0 -365 160q-88 113 -97 290zM813 1475h-180l-101 148l-100 -148h-180l183 259h194z" />
    <glyph glyph-name="scircumflex" unicode="&#x15d;" horiz-adv-x="849" vert-adv-y="1720" 
d="M67 267h200q10 -66 39 -97q43 -47 127 -47q79 0 120 42q33 35 33 90q0 81 -86 121q-32 16 -163 47q-257 62 -257 273q0 122 89 198q90 77 239 77q204 0 297 -125q41 -56 50 -145h-200q-18 119 -151 119q-63 0 -100 -32q-37 -31 -37 -82q0 -56 41 -85q33 -23 122 -43
q157 -36 216 -68q145 -76 145 -234q0 -135 -99 -222q-93 -83 -259 -83q-324 0 -366 296zM673 1092h-168l-84 153l-87 -153h-157l158 273h178z" />
    <glyph glyph-name="Scedilla" unicode="&#x15e;" horiz-adv-x="1045" vert-adv-y="1720" 
d="M68 417h234q4 -103 42 -164q62 -102 187 -102q105 0 164 70q47 56 47 135q0 114 -105 180q-49 31 -223 103q-134 55 -214 135q-102 101 -102 257q0 169 124 274q109 92 280 92q235 0 353 -156q67 -88 78 -238h-219q-8 88 -42 131q-54 70 -168 70q-83 0 -131 -40
q-57 -48 -57 -132q0 -87 70 -145q56 -47 187 -99q129 -50 180 -79q224 -124 224 -351q0 -132 -75 -230q-120 -156 -366 -161l-29 -75q22 12 47 12q59 0 108 -31q67 -41 67 -122q0 -69 -48 -113q-51 -48 -142 -48q-97 0 -144 56q-21 25 -25 55h110q10 -31 58 -31q34 0 55 20
q20 21 20 57t-21 58q-20 22 -54 22q-43 0 -55 -27h-110l67 174q-120 17 -207 85q-160 130 -165 358z" />
    <glyph glyph-name="scedilla" unicode="&#x15f;" horiz-adv-x="849" vert-adv-y="1720" 
d="M67 267h200q10 -66 39 -97q44 -47 127 -47q79 0 119 42q34 36 34 90q0 81 -86 121q-32 16 -163 47q-257 62 -257 273q0 122 89 198q90 77 239 77q204 0 297 -125q41 -56 50 -145h-200q-8 55 -44 85q-42 34 -107 34q-62 0 -100 -32q-37 -32 -37 -82q0 -56 41 -85
q33 -23 123 -43q155 -36 215 -68q145 -76 145 -234q0 -106 -66 -188q-91 -113 -286 -117l-30 -79q21 12 46 12q57 0 105 -31q65 -41 65 -122q0 -69 -46 -113q-50 -48 -139 -48q-94 0 -140 56q-20 25 -24 55h107q8 -31 56 -31q73 0 73 77q0 36 -20 58t-53 22q-42 0 -53 -27
h-107l67 178q-108 17 -172 72q-93 87 -107 217z" />
    <glyph glyph-name="Scaron" unicode="&#x160;" horiz-adv-x="1045" vert-adv-y="1720" 
d="M68 417h234q4 -103 42 -164q63 -102 188 -102q105 0 164 70q47 56 47 134q0 115 -106 181q-50 31 -222 102q-135 56 -215 135q-102 101 -102 257q0 169 124 274q109 92 280 92q235 0 353 -156q67 -87 78 -237h-219q-8 87 -42 130q-54 70 -169 70q-82 0 -130 -40
q-57 -48 -57 -131q0 -88 70 -146q56 -46 187 -98q128 -51 180 -80q224 -124 224 -351q0 -165 -117 -274q-123 -116 -330 -116q-239 0 -365 160q-88 113 -97 290zM242 1734h180l100 -148l100 148h181l-183 -259h-195z" />
    <glyph glyph-name="scaron" unicode="&#x161;" horiz-adv-x="849" vert-adv-y="1720" 
d="M67 267h200q10 -66 39 -97q43 -47 127 -47q79 0 120 42q33 35 33 90q0 81 -86 121q-32 16 -163 47q-257 62 -257 273q0 122 89 198q90 77 239 77q204 0 297 -125q41 -56 50 -145h-200q-18 119 -151 119q-63 0 -100 -32q-37 -31 -37 -82q0 -56 41 -85q33 -23 122 -43
q157 -36 216 -68q145 -76 145 -234q0 -135 -99 -222q-93 -83 -259 -83q-324 0 -366 296zM177 1365h168l84 -153l87 153h157l-158 -273h-178z" />
    <glyph glyph-name="Tcommaaccent" unicode="&#x162;" horiz-adv-x="1014" vert-adv-y="1720" 
d="M395 0v1172h-356v193h936v-193h-355v-1172h-225zM593 -94v-134q2 -216 -166 -232v77q68 15 75 110h-75v179h166z" />
    <glyph glyph-name="tcommaaccent" unicode="&#x163;" horiz-adv-x="546" vert-adv-y="1720" 
d="M18 786v156h134v117l147 196h56v-313h160v-156h-162v-492q0 -83 11 -105q19 -38 77 -38q32 0 74 14v-165q-51 -21 -139 -21q-143 0 -191 88q-29 53 -29 207v512h-138zM353 -94v-134q2 -216 -166 -232v77q68 15 75 110h-75v179h166z" />
    <glyph glyph-name="Tcaron" unicode="&#x164;" horiz-adv-x="1014" vert-adv-y="1720" 
d="M395 0v1172h-356v193h936v-193h-355v-1172h-225zM227 1734h180l100 -148l100 148h181l-183 -259h-195z" />
    <glyph glyph-name="tcaron" unicode="&#x165;" horiz-adv-x="546" vert-adv-y="1720" 
d="M18 786v156h134v117l147 196h56v-313h160v-156h-162v-492q0 -83 11 -105q19 -38 77 -38q32 0 74 14v-165q-51 -21 -139 -21q-143 0 -191 88q-29 53 -29 207v512h-138zM707 1365v-134q2 -216 -166 -232v77q68 15 75 110h-75v179h166z" />
    <glyph glyph-name="utilde" unicode="&#x169;" horiz-adv-x="973" vert-adv-y="1720" 
d="M856 0h-189v119q-96 -148 -266 -148q-111 0 -187 61q-76 62 -94 181q-7 43 -7 127v602h201v-549q0 -108 14 -158q12 -43 46 -69q36 -27 87 -27q86 0 140 70q36 47 47 124q7 48 7 136v473h201v-942zM776 1365q-9 -76 -29 -126q-49 -122 -152 -122q-50 0 -148 53
q-47 26 -68 26q-43 0 -61 -90h-120q6 66 26 119q28 72 82 105q37 24 75 24q52 0 105 -29l70 -39q21 -12 40 -12q43 0 58 91h122z" />
    <glyph glyph-name="Umacron" unicode="&#x16a;" horiz-adv-x="1176" vert-adv-y="1720" 
d="M109 1365h225v-781q0 -145 14 -212q44 -213 245 -213q162 0 217 139q33 84 33 286v781h225v-772q0 -171 -18 -256q-81 -370 -461 -370q-278 0 -400 205q-51 85 -68 201q-12 81 -12 224v768zM879 1611v-132h-580v132h580z" />
    <glyph glyph-name="umacron" unicode="&#x16b;" horiz-adv-x="973" vert-adv-y="1720" 
d="M856 0h-189v119q-96 -148 -266 -148q-111 0 -187 61q-76 62 -94 181q-7 43 -7 127v602h201v-549q0 -108 14 -158q12 -43 46 -69q36 -27 87 -27q86 0 140 70q36 47 47 124q7 48 7 136v473h201v-942zM751 1267v-129h-528v129h528z" />
    <glyph glyph-name="ubreve" unicode="&#x16d;" horiz-adv-x="973" vert-adv-y="1720" 
d="M856 0h-189v119q-96 -148 -266 -148q-111 0 -187 61q-76 62 -94 181q-7 43 -7 127v602h201v-549q0 -108 14 -158q12 -43 46 -69q36 -27 87 -27q86 0 140 70q36 47 47 124q7 48 7 136v473h201v-942zM743 1365q-35 -273 -256 -273t-256 273h129q22 -138 127 -138t127 138
h129z" />
    <glyph glyph-name="Uring" unicode="&#x16e;" horiz-adv-x="1176" vert-adv-y="1720" 
d="M109 1365h225v-781q0 -145 14 -212q44 -213 245 -213q162 0 217 139q33 84 33 286v781h225v-772q0 -171 -18 -256q-81 -370 -461 -370q-278 0 -400 205q-51 85 -68 201q-12 81 -12 224v768zM590 1727q-40 0 -68 -29t-28 -72q0 -41 28 -71q27 -29 66 -29q40 0 68 30
q27 30 27 70q0 42 -28 72q-27 29 -65 29zM589 1825q78 0 136 -57q57 -58 57 -139q0 -80 -56 -137q-58 -59 -140 -59t-139 57q-57 58 -57 139q0 83 59 140q58 56 140 56z" />
    <glyph glyph-name="uring" unicode="&#x16f;" horiz-adv-x="973" vert-adv-y="1720" 
d="M856 0h-189v119q-96 -148 -266 -148q-111 0 -187 61q-76 62 -94 181q-7 43 -7 127v602h201v-549q0 -108 14 -158q12 -43 46 -69q36 -27 87 -27q86 0 140 70q36 47 47 124q7 48 7 136v473h201v-942zM488 1356q-40 0 -68 -29t-28 -72q0 -41 28 -71q27 -29 66 -29
q40 0 68 30q27 29 27 70q0 42 -28 72q-27 29 -65 29zM487 1453q78 0 134 -57q57 -57 57 -138q0 -79 -56 -135q-57 -58 -138 -58t-137 57q-57 57 -57 136q0 84 58 139q58 56 139 56z" />
    <glyph glyph-name="Uhungarumlaut" unicode="&#x170;" horiz-adv-x="1176" vert-adv-y="1720" 
d="M109 1365h225v-781q0 -145 14 -212q44 -213 245 -213q162 0 217 139q33 84 33 286v781h225v-772q0 -171 -18 -256q-81 -370 -461 -370q-278 0 -400 205q-51 85 -68 201q-12 81 -12 224v768zM658 1734l-185 -259h-171l170 259h186zM1000 1734l-186 -259h-171l170 259h187z
" />
    <glyph glyph-name="uhungarumlaut" unicode="&#x171;" horiz-adv-x="980" vert-adv-y="1720" 
d="M856 0h-189v119q-96 -148 -266 -148q-111 0 -187 61q-76 62 -94 181q-7 43 -7 127v602h201v-549q0 -108 14 -158q12 -43 46 -69q36 -27 87 -27q86 0 140 70q36 47 47 124q7 48 7 136v473h201v-942zM581 1365l-186 -273h-164l170 273h180zM922 1365l-185 -273h-165
l170 273h180z" />
    <glyph glyph-name="Uogonek" unicode="&#x172;" horiz-adv-x="1176" vert-adv-y="1720" 
d="M793 1q-94 -83 -94 -165q0 -51 41 -77q26 -16 62 -16q22 0 71 15v-111q-60 -22 -108 -22q-93 0 -148 53q-50 47 -50 124q0 92 74 167q-26 -2 -53 -2q-276 0 -399 205q-51 85 -68 201q-12 82 -12 224v768h225v-781q0 -145 14 -212q44 -212 245 -212q162 0 217 139
q33 84 33 285v781h225v-772q-1 -175 -18 -256q-39 -186 -167 -286q-41 -31 -90 -50z" />
    <glyph glyph-name="uogonek" unicode="&#x173;" horiz-adv-x="973" vert-adv-y="1720" 
d="M934 -235v-111q-59 -23 -108 -23q-94 0 -149 53q-50 48 -50 127q0 91 107 189h-67v119q-96 -148 -265 -148q-112 0 -188 61q-76 62 -94 181q-7 43 -7 127v602h201v-549q0 -108 14 -158q12 -43 46 -69q36 -27 88 -27q85 0 139 70q36 47 47 124q7 48 7 136v473h201v-942
q-97 -74 -97 -153q0 -57 41 -82q26 -16 62 -16q24 0 72 16z" />
    <glyph glyph-name="Wcircumflex" unicode="&#x174;" horiz-adv-x="1536" vert-adv-y="1720" 
d="M316 0l-302 1365h228l196 -1055l218 1055h226l215 -1057l200 1057h224l-308 -1365h-229l-218 1055l-219 -1055h-231zM1039 1475h-180l-101 148l-100 -148h-180l183 259h194z" />
    <glyph glyph-name="Ycircumflex" unicode="&#x176;" horiz-adv-x="1040" vert-adv-y="1720" 
d="M410 0v545l-428 820h253l291 -597l288 597h245l-424 -822v-543h-225zM804 1475h-180l-101 148l-100 -148h-180l183 259h194z" />
    <glyph glyph-name="ycircumflex" unicode="&#x177;" horiz-adv-x="850" vert-adv-y="1720" 
d="M89 -344v172q66 -13 104 -13q57 0 87 67q38 85 48 139l-322 921h219l209 -689l200 689h209l-306 -922q-72 -219 -118 -281q-70 -94 -195 -94q-54 0 -135 11zM679 1092h-168l-84 153l-87 -153h-157l158 273h178z" />
    <glyph glyph-name="Zacute" unicode="&#x179;" horiz-adv-x="1050" vert-adv-y="1720" 
d="M61 0v186l657 986h-606v193h875v-181l-661 -991h677v-193h-942zM773 1734l-185 -259h-171l170 259h186z" />
    <glyph glyph-name="zacute" unicode="&#x17a;" horiz-adv-x="824" vert-adv-y="1720" 
d="M51 0v159l473 615h-441v168h690v-146l-474 -628h498v-168h-746zM657 1365l-186 -273h-164l170 273h180z" />
    <glyph glyph-name="Zdotaccent" unicode="&#x17b;" horiz-adv-x="1050" vert-adv-y="1720" 
d="M61 0v186l657 986h-606v193h875v-181l-661 -991h677v-193h-942zM621 1652v-205h-192v205h192z" />
    <glyph glyph-name="zdotaccent" unicode="&#x17c;" horiz-adv-x="824" vert-adv-y="1720" 
d="M51 0v159l473 615h-441v168h690v-146l-474 -628h498v-168h-746zM508 1311v-205h-192v205h192z" />
    <glyph glyph-name="Zcaron" unicode="&#x17d;" horiz-adv-x="1050" vert-adv-y="1720" 
d="M61 0v186l657 986h-606v193h875v-181l-661 -991h677v-193h-942zM245 1734h180l100 -148l100 148h181l-183 -259h-195z" />
    <glyph glyph-name="zcaron" unicode="&#x17e;" horiz-adv-x="824" vert-adv-y="1720" 
d="M51 0v159l473 615h-441v168h690v-146l-474 -628h498v-168h-746zM164 1365h168l84 -153l87 153h157l-158 -273h-178z" />
    <glyph glyph-name="uni01CD" unicode="&#x1cd;" horiz-adv-x="1134" vert-adv-y="1720" 
d="M450 1365h235l438 -1365h-236l-107 366h-431l-108 -366h-231zM402 546h325l-161 552zM289 1734h180l100 -148l100 148h181l-183 -259h-195z" />
    <glyph glyph-name="uni01CE" unicode="&#x1ce;" horiz-adv-x="948" vert-adv-y="1720" 
d="M905 142v-142q-57 -25 -126 -25q-65 0 -98 32q-23 24 -39 76q-104 -112 -272 -112q-121 0 -202 64q-100 77 -100 212q0 146 111 232q83 64 239 80q68 7 208 11v78q0 167 -165 167q-151 0 -167 -163h-191q8 149 97 231q97 88 272 88q194 0 287 -111q46 -53 56 -145
q4 -35 4 -140v-356q0 -52 8 -67q11 -21 38 -21q18 0 40 11zM626 454q-124 -6 -194 -24q-71 -18 -110 -61q-45 -48 -45 -113q0 -64 42 -100q38 -32 103 -32q108 0 166 104q38 68 38 151v75zM225 1365h168l84 -153l87 153h157l-158 -273h-178z" />
    <glyph glyph-name="Ucaron" unicode="&#x1d3;" horiz-adv-x="1176" vert-adv-y="1720" 
d="M109 1365h225v-781q0 -145 14 -212q44 -213 245 -213q162 0 217 139q33 84 33 286v781h225v-772q0 -171 -18 -256q-81 -370 -461 -370q-278 0 -400 205q-51 85 -68 201q-12 81 -12 224v768zM308 1734h180l100 -148l100 148h181l-183 -259h-195z" />
    <glyph glyph-name="ucaron" unicode="&#x1d4;" horiz-adv-x="973" vert-adv-y="1720" 
d="M856 0h-189v119q-96 -148 -266 -148q-111 0 -187 61q-76 62 -94 181q-7 43 -7 127v602h201v-549q0 -108 14 -158q12 -43 46 -69q36 -27 87 -27q86 0 140 70q36 47 47 124q7 48 7 136v473h201v-942zM239 1365h168l84 -153l87 153h157l-158 -273h-178z" />
    <glyph glyph-name="Gcaron" unicode="&#x1e6;" horiz-adv-x="1255" vert-adv-y="1720" 
d="M1147 0h-173v158q-60 -75 -113 -114q-103 -77 -243 -77q-219 0 -362 158q-84 93 -126 211q-57 159 -57 337q0 336 174 543q152 181 395 181q268 0 409 -221q69 -107 82 -247h-218q-18 111 -71 179q-77 96 -206 96q-156 0 -243 -135q-97 -148 -97 -393q0 -261 111 -404
q86 -112 234 -112q196 0 270 205q24 65 30 180h-301v184h505v-729zM368 1734h180l100 -148l100 148h181l-183 -259h-195z" />
    <glyph glyph-name="gcaron" unicode="&#x1e7;" horiz-adv-x="998" vert-adv-y="1720" 
d="M99 -79h203q24 -127 172 -127q124 0 171 93q40 80 40 211v49q-82 -139 -250 -139t-266 126q-101 131 -101 347q0 223 104 357q104 133 273 133t247 -139v110h189v-763q0 -149 -16 -226q-66 -308 -395 -308q-337 0 -371 276zM476 801q-90 0 -141 -75q-62 -90 -62 -245
t71 -240q55 -65 134 -65q91 0 145 78q64 92 64 240q0 162 -73 245q-55 62 -138 62zM255 1365h168l84 -153l87 153h157l-158 -273h-178z" />
    <glyph glyph-name="afii57929" unicode="&#x2bc;" horiz-adv-x="504" vert-adv-y="1720" 
d="M375 1365v-171q0 -127 -29 -197q-41 -97 -154 -146q-24 -10 -63 -19v119q105 21 111 168h-111v246h246z" />
    <glyph glyph-name="semicolon" unicode="&#x37e;" horiz-adv-x="504" vert-adv-y="1720" 
d="M375 246v-171q0 -127 -29 -197q-41 -97 -154 -146q-24 -10 -63 -19v119q105 21 111 168h-111v246h246zM375 942v-246h-246v246h246z" />
    <glyph glyph-name="anoteleia" unicode="&#x387;" horiz-adv-x="504" vert-adv-y="1720" 
d="M375 601v-246h-246v246h246z" />
    <glyph glyph-name="Wdieresis" unicode="&#x1e84;" horiz-adv-x="1536" vert-adv-y="1720" 
d="M316 0l-302 1365h228l196 -1055l218 1055h226l215 -1057l200 1057h224l-308 -1365h-229l-218 1055l-219 -1055h-231zM1026 1652v-205h-192v205h192zM701 1652v-205h-192v205h192z" />
    <glyph glyph-name="hyphen" unicode="&#x2010;" horiz-adv-x="433" vert-adv-y="1720" 
d="M427 611v-197h-421v197h421z" />
    <glyph glyph-name="nbhyphen" unicode="&#x2011;" horiz-adv-x="433" vert-adv-y="1720" 
d="M427 611v-197h-421v197h421z" />
    <glyph glyph-name="figuredash" unicode="&#x2012;" horiz-adv-x="960" vert-adv-y="1720" 
d="M850 611v-197h-739v197h739z" />
    <glyph glyph-name="afii00208" unicode="&#x2015;" horiz-adv-x="1444" vert-adv-y="1720" 
d="M1331 611v-197h-1214v197h1214z" />
    <glyph glyph-name="quotereversed" unicode="&#x201b;" horiz-adv-x="396" vert-adv-y="1720" 
 />
    <glyph glyph-name="radicalex" unicode="&#x203e;" vert-adv-y="1720" 
d="M41 1648h942v-173h-942v173z" />
    <glyph glyph-name="fourinferior" unicode="&#x2084;" horiz-adv-x="566" vert-adv-y="1720" 
d="M304 0v194h-279v140l288 485h131v-493h86v-132h-86v-194h-140zM304 326v261l-144 -261h144z" />
    <glyph glyph-name="franc" unicode="&#x20a3;" horiz-adv-x="1382" vert-adv-y="1720" 
d="M125 0v1365h780v-180h-572v-327h433v-180h-433v-678h-208zM875 0v858h189v-156q86 185 265 185q10 0 42 -2v-205l-15 2q-37 4 -57 4q-133 0 -192 -136q-31 -72 -31 -253v-297h-201z" />
    <glyph glyph-name="estimated" unicode="&#x212e;" horiz-adv-x="944" vert-adv-y="1720" 
d="M877 420h-608q3 -90 26 -150q55 -143 192 -143q97 0 147 77q19 30 35 78h190q-17 -78 -56 -141q-107 -170 -319 -170q-196 0 -308 143q-108 137 -108 347q0 214 110 361q112 149 297 149q150 0 255 -100q146 -141 147 -451zM675 561q-6 81 -34 139q-56 115 -167 115
q-106 0 -160 -102q-32 -61 -42 -152h403z" />
    <glyph glyph-name="minus" unicode="&#x2212;" vert-adv-y="1720" 
d="M41 776h942v-173h-942v173z" />
    <glyph glyph-name="fraction" unicode="&#x2215;" horiz-adv-x="402" vert-adv-y="1720" 
d="M-15 0h-152l588 1365h148z" />
    <glyph glyph-name="dotmath" unicode="&#x22c5;" horiz-adv-x="504" vert-adv-y="1720" 
d="M375 601v-246h-246v246h246z" />
    <glyph glyph-name="fi" unicode="&#xea01;" horiz-adv-x="979" vert-adv-y="1720" 
d="M152 0v786h-134v156h134v129q0 166 48 232q67 93 212 93q38 0 106 -13v-168q-44 13 -71 13q-63 0 -81 -45q-13 -29 -13 -116v-125h153v-156h-151v-786h-203zM657 1160v205h201v-205h-201zM657 0v942h201v-942h-201z" />
    <glyph glyph-name="fl" unicode="&#xea02;" horiz-adv-x="979" vert-adv-y="1720" 
d="M152 0v786h-134v156h134v129q0 166 48 232q67 93 212 93q38 0 106 -13v-168q-44 13 -71 13q-63 0 -81 -45q-13 -29 -13 -116v-125h153v-156h-151v-786h-203zM657 0v1365h201v-1365h-201z" />
    <glyph glyph-name="uniEA11" unicode="&#xea11;" horiz-adv-x="1036" vert-adv-y="1720" 
d="M776 1652v-205h-192v205h192zM451 1652v-205h-192v205h192z" />
    <glyph glyph-name="uniEA12" unicode="&#xea12;" vert-adv-y="1720" 
d="M608 1652v-205h-192v205h192z" />
    <glyph glyph-name="uniEA13" unicode="&#xea13;" horiz-adv-x="1036" vert-adv-y="1720" 
d="M520 1727q-40 0 -68 -29t-28 -72q0 -41 28 -71q27 -29 66 -29q40 0 68 30q27 30 27 70q0 42 -28 72q-27 29 -65 29zM519 1825q78 0 136 -57q57 -58 57 -139q0 -80 -56 -137q-58 -59 -140 -59t-139 57q-57 58 -57 139q0 83 59 140q58 56 140 56z" />
    <glyph glyph-name="uniEA14" unicode="&#xea14;" horiz-adv-x="1036" vert-adv-y="1720" 
d="M765 1734l-185 -259h-171l170 259h186z" />
    <glyph glyph-name="uniEA15" unicode="&#xea15;" vert-adv-y="1720" 
d="M264 1734h187l169 -259h-171z" />
    <glyph glyph-name="uniEA16" unicode="&#xea16;" horiz-adv-x="1036" vert-adv-y="1720" 
d="M799 1475h-180l-101 148l-100 -148h-180l183 259h194z" />
    <glyph glyph-name="uniEA17" unicode="&#xea17;" horiz-adv-x="1036" vert-adv-y="1720" 
d="M238 1734h180l100 -148l100 148h181l-183 -259h-195z" />
    <glyph glyph-name="uniEA18" unicode="&#xea18;" horiz-adv-x="1036" vert-adv-y="1720" 
d="M246 1734h136q14 -60 36 -88q32 -39 99 -39q74 0 107 47q18 26 30 80h136q-9 -77 -31 -122q-68 -144 -241 -144q-115 0 -188 69q-68 65 -84 197z" />
    <glyph glyph-name="uniEA19" unicode="&#xea19;" horiz-adv-x="1036" vert-adv-y="1720" 
d="M710 1713h116q-36 -232 -190 -232q-57 0 -162 61q-52 30 -78 30q-53 0 -71 -91h-115q34 232 196 232q46 0 93 -23q15 -7 60 -35q48 -30 76 -30q53 0 75 88z" />
    <glyph glyph-name="uniEA1A" unicode="&#xea1a;" horiz-adv-x="1036" vert-adv-y="1720" 
d="M588 1734l-185 -259h-171l170 259h186zM930 1734l-186 -259h-171l170 259h187z" />
    <glyph glyph-name="uniEA1B" unicode="&#xea1b;" horiz-adv-x="1036" vert-adv-y="1720" 
d="M419 0h99l-42 -108q22 12 47 12q59 0 108 -31q67 -41 67 -122q0 -69 -48 -113q-51 -48 -142 -48q-97 0 -144 56q-21 25 -25 55h110q10 -31 58 -31q34 0 55 20q20 21 20 57t-21 58q-20 22 -54 22q-43 0 -55 -27h-110z" />
    <glyph glyph-name="uniEA1C" unicode="&#xea1c;" horiz-adv-x="1036" vert-adv-y="1720" 
d="M930 3q-96 -88 -96 -167q0 -51 41 -77q26 -16 62 -16q22 0 71 15v-111q-60 -22 -108 -22q-93 0 -148 53q-50 47 -50 125q0 99 109 200h119z" />
    <glyph glyph-name="uniEA1D" unicode="&#xea1d;" horiz-adv-x="1036" vert-adv-y="1720" 
d="M808 1611v-132h-580v132h580z" />
    <glyph glyph-name="uniEA3F" unicode="&#xea3f;" horiz-adv-x="1033" vert-adv-y="1720" 
d="M599 1365v-134q2 -216 -166 -232v77q68 15 75 110h-75v179h166z" />
    <glyph glyph-name="Hochkomma" unicode="&#xea4f;" horiz-adv-x="1033" vert-adv-y="1720" 
d="M435 1092v134q-2 217 166 232v-77q-68 -15 -75 -110h75v-179h-166z" />
    <glyph glyph-name="uniEA66" unicode="&#xea66;" horiz-adv-x="1033" vert-adv-y="1720" 
d="M599 -94v-134q2 -216 -166 -232v77q68 15 75 110h-75v179h166z" />
    <glyph glyph-name="uniEA67" unicode="&#xea67;" horiz-adv-x="1033" vert-adv-y="1720" 
d="M599 1365v-134q2 -216 -166 -232v77q68 15 75 110h-75v179h166z" />
    <glyph glyph-name="uniEA68" unicode="&#xea68;" vert-adv-y="1720" 
d="M738 1652v-205h-192v205h192zM478 1652v-205h-192v205h192z" />
    <glyph glyph-name="Unterkomma" unicode="&#xea69;" horiz-adv-x="1033" vert-adv-y="1720" 
d="M599 -94v-134q2 -216 -166 -232v77q68 15 75 110h-75v179h166z" />
    <glyph glyph-name="uniEA6A" unicode="&#xea6a;" vert-adv-y="1720" 
d="M722 1311v-205h-165v205h165zM468 1311v-205h-165v205h165z" />
    <glyph glyph-name="hp1089" unicode="&#xefed;" vert-adv-y="1720" 
d="M608 1652v-205h-192v205h192z" />
    <glyph glyph-name="hp1087" unicode="&#xefee;" horiz-adv-x="1036" vert-adv-y="1720" 
d="M246 1734h136q14 -60 36 -88q32 -39 99 -39q74 0 107 47q18 26 30 80h136q-9 -77 -31 -122q-68 -144 -241 -144q-115 0 -188 69q-68 65 -84 197z" />
    <glyph glyph-name="hp1085" unicode="&#xefef;" horiz-adv-x="1036" vert-adv-y="1720" 
d="M808 1611v-132h-580v132h580z" />
    <glyph glyph-name="hp1045" unicode="&#xeff0;" horiz-adv-x="1036" vert-adv-y="1720" 
d="M588 1734l-185 -259h-171l170 259h186zM930 1734l-186 -259h-171l170 259h187z" />
    <glyph glyph-name="hp1030" unicode="&#xeff1;" horiz-adv-x="1036" vert-adv-y="1720" 
d="M930 3q-96 -88 -96 -167q0 -51 41 -77q26 -16 62 -16q22 0 71 15v-111q-60 -22 -108 -22q-93 0 -148 53q-50 47 -50 125q0 99 109 200h119z" />
    <glyph glyph-name="hp0330" unicode="&#xeff2;" horiz-adv-x="1036" vert-adv-y="1720" 
d="M419 0h99l-42 -108q22 12 47 12q59 0 108 -31q67 -41 67 -122q0 -69 -48 -113q-51 -48 -142 -48q-97 0 -144 56q-21 25 -25 55h110q10 -31 58 -31q34 0 55 20q20 21 20 57t-21 58q-20 22 -54 22q-43 0 -55 -27h-110z" />
    <glyph glyph-name="hp0323" unicode="&#xeff3;" horiz-adv-x="1036" vert-adv-y="1720" 
d="M520 1727q-40 0 -68 -29t-28 -72q0 -41 28 -71q27 -29 66 -29q40 0 68 30q27 30 27 70q0 42 -28 72q-27 29 -65 29zM519 1825q78 0 136 -57q57 -58 57 -139q0 -80 -56 -137q-58 -59 -140 -59t-139 57q-57 58 -57 139q0 83 59 140q58 56 140 56z" />
    <glyph glyph-name="hp0322" unicode="&#xeff4;" horiz-adv-x="1036" vert-adv-y="1720" 
d="M238 1734h180l100 -148l100 148h181l-183 -259h-195z" />
    <glyph glyph-name="hp0321" unicode="&#xeff5;" horiz-adv-x="1036" vert-adv-y="1720" 
d="M710 1713h116q-36 -232 -190 -232q-57 0 -162 61q-52 30 -78 30q-53 0 -71 -91h-115q34 232 196 232q46 0 93 -23q15 -7 60 -35q48 -30 76 -30q53 0 75 88z" />
    <glyph glyph-name="hp0320" unicode="&#xeff6;" horiz-adv-x="1036" vert-adv-y="1720" 
d="M776 1652v-205h-192v205h192zM451 1652v-205h-192v205h192z" />
    <glyph glyph-name="hp0319" unicode="&#xeff7;" horiz-adv-x="1036" vert-adv-y="1720" 
d="M799 1475h-180l-101 148l-100 -148h-180l183 259h194z" />
    <glyph glyph-name="hp0318" unicode="&#xeff8;" vert-adv-y="1720" 
d="M264 1734h187l169 -259h-171z" />
    <glyph glyph-name="hp0317" unicode="&#xeff9;" horiz-adv-x="1036" vert-adv-y="1720" 
d="M765 1734l-185 -259h-171l170 259h186z" />
    <glyph glyph-name="afii10017" unicode="&#x410;" horiz-adv-x="1134" vert-adv-y="1720" 
d="M450 1365h235l438 -1365h-236l-107 366h-431l-108 -366h-231zM402 546h325l-161 552z" />
    <glyph glyph-name="afii10018" unicode="&#x411;" horiz-adv-x="1066" vert-adv-y="1720" 
d="M915 1365v-193h-565v-331h202q146 0 226 -28q124 -44 191 -168q49 -91 49 -224q0 -220 -137 -335q-65 -55 -158 -73q-65 -13 -171 -13h-427v1365h790zM350 642v-443h180q132 0 184 40q79 61 79 182q0 131 -90 189q-50 32 -173 32h-180z" />
    <glyph glyph-name="afii10019" unicode="&#x412;" horiz-adv-x="1143" vert-adv-y="1720" 
d="M125 0v1365h455q145 0 221 -24q120 -39 174 -136q43 -76 43 -171q0 -131 -85 -223q-40 -44 -110 -76q247 -72 247 -334q0 -133 -67 -234q-79 -118 -212 -151q-64 -16 -151 -16h-515zM350 797h189q112 0 158 18q54 22 81 84q16 38 16 87q0 133 -91 174q-38 17 -157 17
h-196v-380zM350 188h216q147 0 200 38q79 57 79 181q0 84 -40 141q-41 59 -132 70q-37 5 -126 5h-197v-435z" />
    <glyph glyph-name="afii10020" unicode="&#x413;" horiz-adv-x="966" vert-adv-y="1720" 
d="M125 1365h790v-193h-565v-1172h-225v1365z" />
    <glyph glyph-name="afii10021" unicode="&#x414;" horiz-adv-x="1250" vert-adv-y="1720" 
d="M1106 193h137v-398h-225v205h-807v-205h-225v398h40q63 0 104 33q50 40 64 155l118 984h794v-1172zM881 193v979h-366l-87 -744q-12 -104 -27 -147q-17 -49 -47 -88h527z" />
    <glyph glyph-name="afii10022" unicode="&#x415;" horiz-adv-x="1039" vert-adv-y="1720" 
d="M125 0v1365h823v-193h-598v-370h553v-193h-553v-416h608v-193h-833z" />
    <glyph glyph-name="afii10024" unicode="&#x416;" horiz-adv-x="1866" vert-adv-y="1720" 
d="M1046 655v-655h-220v655h-83l-512 -655h-239l546 730l-497 635h239l459 -571h87v571h220v-571h81l460 571h239l-497 -635l546 -730h-240l-511 655h-78z" />
    <glyph glyph-name="afii10025" unicode="&#x417;" horiz-adv-x="1103" vert-adv-y="1720" 
d="M434 609v193h138q105 0 168 46q79 58 79 160q0 88 -65 142q-64 54 -168 54q-249 0 -297 -276h-222q18 215 165 347q136 121 362 121q216 0 327 -92q125 -103 125 -275q0 -153 -104 -243q-61 -53 -151 -77q256 -68 256 -321q0 -177 -125 -297q-131 -124 -347 -124
q-281 0 -422 232q-86 142 -94 324h221q17 -151 64 -233q74 -130 233 -130q110 0 177 69q66 68 66 169q0 116 -85 173q-58 38 -164 38h-137z" />
    <glyph glyph-name="afii10026" unicode="&#x418;" horiz-adv-x="1198" vert-adv-y="1720" 
d="M125 1365h209v-917l530 809v108h209v-1365h-209v913l-530 -813v-100h-209v1365z" />
    <glyph glyph-name="afii10028" unicode="&#x41a;" horiz-adv-x="1159" vert-adv-y="1720" 
d="M119 0v1365h220v-571h81l460 571h239l-497 -635l546 -730h-240l-511 655h-78v-655h-220z" />
    <glyph glyph-name="afii10029" unicode="&#x41b;" horiz-adv-x="1213" vert-adv-y="1720" 
d="M497 1172l-88 -762q-13 -119 -24 -161q-37 -142 -144 -213q-84 -56 -219 -56h-8h-7v195q66 2 104 33q51 41 64 155l119 1002h794v-1365h-225v1172h-366z" />
    <glyph glyph-name="afii10030" unicode="&#x41c;" horiz-adv-x="1454" vert-adv-y="1720" 
d="M125 0v1365h302l305 -1064l295 1064h302v-1365h-209v1080l-292 -1080h-190l-304 1067v-1067h-209z" />
    <glyph glyph-name="afii10031" unicode="&#x41d;" horiz-adv-x="1210" vert-adv-y="1720" 
d="M125 0v1365h225v-552h510v552h225v-1365h-225v620h-510v-620h-225z" />
    <glyph glyph-name="afii10032" unicode="&#x41e;" horiz-adv-x="1260" vert-adv-y="1720" 
d="M639 1396q231 0 384 -186q164 -202 164 -527q0 -284 -126 -479q-75 -116 -191 -178q-109 -59 -240 -59q-189 0 -328 119q-229 197 -229 594q0 332 160 525q158 191 406 191zM626 1204q-145 0 -235 -139q-93 -145 -93 -378q0 -230 84 -376q44 -77 124 -120q59 -32 127 -32
q93 0 169 61q83 66 126 207q34 112 34 254q0 236 -90 380q-89 143 -246 143z" />
    <glyph glyph-name="afii10033" unicode="&#x41f;" horiz-adv-x="1210" vert-adv-y="1720" 
d="M1085 1365v-1365h-225v1172h-510v-1172h-225v1365h960z" />
    <glyph glyph-name="afii10034" unicode="&#x420;" horiz-adv-x="1073" vert-adv-y="1720" 
d="M125 0v1365h427q147 0 226 -28q125 -44 191 -168q49 -91 49 -221q0 -222 -139 -337q-61 -50 -136 -70q-64 -16 -164 -16h-229v-525h-225zM350 717h198q128 0 181 51q64 63 64 177q0 131 -90 189q-50 32 -173 32h-180v-449z" />
    <glyph glyph-name="afii10035" unicode="&#x421;" horiz-adv-x="1180" vert-adv-y="1720" 
d="M899 523h222q-11 -208 -117 -358q-139 -198 -384 -198q-244 0 -387 181q-160 203 -160 531q0 283 130 481q154 236 426 236q244 0 387 -199q83 -116 97 -269h-222q-19 110 -69 176q-77 100 -199 100q-153 0 -234 -138q-91 -156 -91 -386q0 -225 87 -379q80 -141 234 -141
q241 0 280 363z" />
    <glyph glyph-name="afii10036" unicode="&#x422;" horiz-adv-x="1014" vert-adv-y="1720" 
d="M395 0v1172h-356v193h936v-193h-355v-1172h-225z" />
    <glyph glyph-name="afii10037" unicode="&#x423;" horiz-adv-x="1040" vert-adv-y="1720" 
d="M415 380l-422 985h249l288 -754l291 754h245l-479 -1120q-58 -136 -112 -196q-75 -82 -230 -82q-61 0 -132 14v199q67 -18 110 -18q68 0 108 49t68 127z" />
    <glyph glyph-name="afii10038" unicode="&#x424;" horiz-adv-x="1590" vert-adv-y="1720" 
d="M907 160v-160h-225v160q-139 5 -239 31q-118 30 -211 107q-164 136 -164 384q0 247 164 384q151 125 417 137q7 0 33 1v161h225v-161q139 -6 239 -31q117 -30 211 -107q164 -137 164 -384q0 -248 -164 -384q-151 -125 -417 -137q-7 0 -33 -1zM682 352v659
q-157 -6 -239 -51q-150 -82 -150 -278q0 -215 178 -292q74 -32 211 -38zM907 1011v-659q157 7 239 51q150 83 150 279q0 215 -178 292q-74 32 -211 37z" />
    <glyph glyph-name="afii10039" unicode="&#x425;" horiz-adv-x="1070" vert-adv-y="1720" 
d="M2 0l407 709l-378 656h257l250 -480l257 480h244l-376 -656l405 -709h-263l-273 514l-280 -514h-250z" />
    <glyph glyph-name="afii10040" unicode="&#x426;" horiz-adv-x="1229" vert-adv-y="1720" 
d="M1085 193h137v-398h-225v205h-872v1365h225v-1172h510v1172h225v-1172z" />
    <glyph glyph-name="afii10041" unicode="&#x427;" horiz-adv-x="1220" vert-adv-y="1720" 
d="M871 515q-112 -71 -290 -71q-275 0 -403 165q-82 107 -82 300v456h225v-454q0 -135 62 -201q70 -74 229 -74q165 0 225 100q34 55 34 175v454h225v-26v0v-1339h-225v515z" />
    <glyph glyph-name="afii10042" unicode="&#x428;" horiz-adv-x="1727" vert-adv-y="1720" 
d="M1602 0h-1477v1365h225v-1172h401v1172h225v-1172h401v1172h225v-1365z" />
    <glyph glyph-name="afii10043" unicode="&#x429;" horiz-adv-x="1746" vert-adv-y="1720" 
d="M1602 192h137v-397h-225v205h-1389v1365h225v-1173h401v1173h225v-1173h401v1173h225v-1173z" />
    <glyph glyph-name="afii10046" unicode="&#x42c;" horiz-adv-x="1066" vert-adv-y="1720" 
d="M125 1365h225v-524h202q147 0 226 -28q125 -44 191 -168q49 -91 49 -224q0 -220 -137 -335q-65 -55 -158 -73q-65 -13 -171 -13h-427v1365zM350 642v-443h180q132 0 184 40q79 61 79 182q0 131 -90 189q-50 32 -173 32h-180z" />
    <glyph glyph-name="afii10045" unicode="&#x42b;" horiz-adv-x="1472" vert-adv-y="1720" 
d="M125 1365h225v-524h202q147 0 226 -28q125 -44 191 -168q49 -91 49 -224q0 -220 -137 -335q-65 -55 -158 -73q-65 -13 -171 -13h-427v1365zM350 642v-443h180q132 0 184 40q79 61 79 182q0 131 -90 189q-50 32 -173 32h-180zM1122 0v1365h225v-1365h-225z" />
    <glyph glyph-name="afii10044" unicode="&#x42a;" horiz-adv-x="1220" vert-adv-y="1720" 
d="M7 1365h498v-524h202q147 0 226 -28q124 -44 191 -168q49 -91 49 -224q0 -220 -137 -335q-65 -55 -158 -73q-65 -13 -171 -13h-427v1172h-273v193zM505 642v-443h180q132 0 184 40q79 61 79 182q0 131 -90 189q-50 32 -173 32h-180z" />
    <glyph glyph-name="afii10047" unicode="&#x42d;" horiz-adv-x="1180" vert-adv-y="1720" 
d="M874 802q-56 402 -318 402q-133 0 -211 -118q-40 -61 -56 -158h-222q15 171 118 296q141 172 366 172q272 0 426 -236q130 -198 130 -481q0 -328 -160 -531q-143 -181 -387 -181q-266 0 -407 232q-86 142 -94 324h221q40 -363 280 -363q198 0 280 244q30 86 39 205h-445
v193h440z" />
    <glyph glyph-name="afii10048" unicode="&#x42e;" horiz-adv-x="1755" vert-adv-y="1720" 
d="M576 813q23 184 94 307q80 138 204 210q115 66 254 66q240 0 391 -186q164 -204 164 -527q0 -284 -126 -479q-75 -116 -191 -178q-109 -59 -240 -59q-218 0 -367 157q-169 177 -188 496h-221v-620h-225v1365h225v-552h226zM1126 1204q-150 0 -240 -139q-93 -144 -93 -370
q0 -238 84 -383q44 -77 124 -120q60 -32 128 -32q93 0 168 61q84 67 127 207q34 112 34 256q0 234 -90 378q-89 142 -242 142z" />
    <glyph glyph-name="afii10049" unicode="&#x42f;" horiz-adv-x="1202" vert-adv-y="1720" 
d="M1057 0h-225v564h-200q-91 0 -143 -20q-74 -29 -105 -140q-15 -57 -23 -201q-6 -110 -15 -150q-6 -23 -21 -53h-237q30 39 39 71q14 55 30 256q10 121 31 175q33 85 93 122q24 14 71 27q-221 87 -221 337q0 203 146 308q96 69 275 69h505v-1365zM832 739v438h-224
q-120 0 -172 -36q-80 -55 -80 -179q0 -140 94 -194q51 -29 184 -29h198z" />
    <glyph glyph-name="afii10050" unicode="&#x490;" horiz-adv-x="966" vert-adv-y="1720" 
d="M915 1488v-316h-565v-1172h-225v1365h565v123h225z" />
    <glyph glyph-name="afii10051" unicode="&#x402;" horiz-adv-x="1191" vert-adv-y="1720" 
d="M602 -17q47 -16 82 -16q108 0 162 102q58 109 58 308q0 426 -214 426q-135 0 -176 -147q-19 -69 -19 -193v-463h-225v1172h-256v193h936v-193h-455v-341q92 140 253 140q120 0 202 -76q99 -91 136 -277q23 -114 23 -234q0 -319 -150 -475q-104 -108 -248 -108
q-56 0 -109 15v167z" />
    <glyph glyph-name="afii10053" unicode="&#x404;" horiz-adv-x="1180" vert-adv-y="1720" 
d="M306 802h440v-193h-445q11 -141 52 -241q84 -208 267 -208q240 0 280 363h221q-11 -208 -117 -358q-139 -198 -384 -198q-244 0 -387 181q-160 203 -160 531q0 283 130 481q154 236 426 236q244 0 387 -199q84 -116 97 -269h-221q-20 110 -70 176q-76 100 -198 100
q-262 0 -318 -402z" />
    <glyph glyph-name="afii10054" unicode="&#x405;" horiz-adv-x="1045" vert-adv-y="1720" 
d="M68 417h234q4 -103 42 -164q63 -102 188 -102q105 0 164 70q47 56 47 134q0 115 -106 181q-50 31 -222 102q-135 56 -215 135q-102 101 -102 257q0 169 124 274q109 92 280 92q235 0 353 -156q67 -87 78 -237h-219q-8 87 -42 130q-54 70 -169 70q-82 0 -130 -40
q-57 -48 -57 -131q0 -88 70 -146q56 -46 187 -98q128 -51 180 -80q224 -124 224 -351q0 -165 -117 -274q-123 -116 -330 -116q-239 0 -365 160q-88 113 -97 290z" />
    <glyph glyph-name="afii10055" unicode="&#x406;" horiz-adv-x="475" vert-adv-y="1720" 
d="M125 0v1365h225v-1365h-225z" />
    <glyph glyph-name="uni04C0" unicode="&#x4c0;" horiz-adv-x="475" vert-adv-y="1720" 
d="M125 0v1365h225v-1365h-225z" />
    <glyph glyph-name="afii10057" unicode="&#x408;" horiz-adv-x="624" vert-adv-y="1720" 
d="M6 -19v199q66 -18 112 -18q121 0 156 115q15 50 16 127q0 20 1 116v845h225v-873q0 -175 -18 -249q-65 -276 -365 -276q-56 0 -127 14z" />
    <glyph glyph-name="afii10058" unicode="&#x409;" horiz-adv-x="1722" vert-adv-y="1720" 
d="M1061 1365v-524h175q146 0 226 -28q124 -44 191 -168q49 -91 49 -224q0 -220 -137 -335q-65 -55 -158 -73q-66 -13 -171 -13h-400v1172h-339l-87 -761q-14 -120 -25 -162q-37 -142 -144 -213q-84 -56 -219 -56h-8h-7v195q66 3 104 33q51 41 64 156l119 1001h767z
M1061 642v-443h153q132 0 184 40q79 61 79 182q0 131 -90 189q-50 32 -173 32h-153z" />
    <glyph glyph-name="afii10059" unicode="&#x40a;" horiz-adv-x="1746" vert-adv-y="1720" 
d="M860 826v539h225v-539h175q146 0 226 -27q124 -44 191 -166q49 -89 49 -220q0 -216 -137 -328q-65 -54 -158 -72q-66 -13 -171 -13h-400v633h-483v-633h-225v1365h225v-539h483zM1085 633v-434h153q132 0 184 39q79 60 79 178q0 129 -90 186q-50 31 -173 31h-153z" />
    <glyph glyph-name="afii10060" unicode="&#x40b;" horiz-adv-x="1150" vert-adv-y="1720" 
d="M495 1172v-341q92 140 253 140q105 0 178 -53q80 -58 101 -166q11 -55 11 -146v-606h-201v575q0 113 -23 157q-38 71 -128 71q-121 0 -168 -128q-23 -60 -23 -212v-463h-225v1172h-256v193h936v-193h-455z" />
    <glyph glyph-name="afii10145" unicode="&#x40f;" horiz-adv-x="1210" vert-adv-y="1720" 
d="M493 0h-368v1365h225v-1172h510v1172h225v-1365h-367v-205h-225v205z" />
    <glyph glyph-name="afii61352" unicode="&#x2116;" horiz-adv-x="1718" vert-adv-y="1720" 
d="M125 0v1365h231l508 -1012v1012h209v-1365h-233l-506 1007v-1007h-209zM1448 913q120 0 192 -85q71 -82 71 -225q0 -150 -79 -235q-70 -75 -183 -75q-126 0 -197 88q-69 86 -69 226q0 127 64 211q73 95 201 95zM1447 762q-48 0 -76 -41q-30 -43 -30 -116q0 -78 30 -121
q28 -40 77 -40q45 0 72 35q33 44 33 125q0 75 -29 117q-29 41 -77 41zM1711 226v-132h-528v132h528z" />
    <glyph glyph-name="afii10023" unicode="&#x401;" horiz-adv-x="1039" vert-adv-y="1720" 
d="M125 0v1365h823v-193h-598v-370h553v-193h-553v-416h608v-193h-833zM779 1652v-205h-192v205h192zM454 1652v-205h-192v205h192z" />
    <glyph glyph-name="glyph444" horiz-adv-x="1036" vert-adv-y="1720" 
d="M776 1652v-205h-192v205h192zM451 1652v-205h-192v205h192z" />
    <glyph glyph-name="afii10027" unicode="&#x419;" horiz-adv-x="1198" vert-adv-y="1720" 
d="M125 1365h209v-917l530 809v108h209v-1365h-209v913l-530 -813v-100h-209v1365zM340 1734h136q14 -60 36 -88q32 -39 99 -39q75 0 107 47q18 26 30 80h136q-9 -77 -31 -123q-68 -143 -241 -143q-115 0 -188 69q-68 65 -84 197z" />
    <glyph glyph-name="glyph446" horiz-adv-x="1036" vert-adv-y="1720" 
d="M246 1734h136q14 -60 36 -88q32 -39 99 -39q75 0 107 47q18 26 30 80h136q-9 -77 -31 -123q-68 -143 -241 -143q-115 0 -188 69q-68 65 -84 197z" />
    <glyph glyph-name="afii10052" unicode="&#x403;" horiz-adv-x="966" vert-adv-y="1720" 
d="M125 1365h790v-193h-565v-1172h-225v1365zM775 1734l-185 -259h-171l170 259h186z" />
    <glyph glyph-name="glyph448" horiz-adv-x="1036" vert-adv-y="1720" 
d="M765 1734l-185 -259h-171l170 259h186z" />
    <glyph glyph-name="afii10056" unicode="&#x407;" horiz-adv-x="479" vert-adv-y="1720" 
d="M128 0v1365h225v-1365h-225zM466 1652v-205h-192v205h192zM206 1652v-205h-192v205h192z" />
    <glyph glyph-name="glyph450" vert-adv-y="1720" 
d="M738 1652v-205h-192v205h192zM478 1652v-205h-192v205h192z" />
    <glyph glyph-name="afii10061" unicode="&#x40c;" horiz-adv-x="1165" vert-adv-y="1720" 
d="M119 0v1365h220v-571h81l460 571h239l-497 -635l546 -730h-240l-511 655h-78v-655h-220zM843 1734l-185 -259h-171l170 259h186z" />
    <glyph glyph-name="afii10062" unicode="&#x40e;" horiz-adv-x="1040" vert-adv-y="1720" 
d="M415 380l-422 985h249l288 -754l291 754h245l-479 -1120q-58 -136 -112 -196q-75 -82 -230 -82q-61 0 -132 14v199q67 -18 110 -18q68 0 108 49t68 127zM264 1734h136q14 -60 36 -88q32 -39 99 -39q75 0 107 47q18 26 30 80h136q-9 -77 -31 -123q-68 -143 -241 -143
q-115 0 -188 69q-68 65 -84 197z" />
    <glyph glyph-name="afii10065" unicode="&#x430;" horiz-adv-x="948" vert-adv-y="1720" 
d="M905 142v-142q-57 -25 -126 -25q-65 0 -98 32q-23 24 -39 76q-104 -112 -272 -112q-121 0 -202 64q-100 77 -100 212q0 146 111 232q83 64 239 80q68 7 208 11v78q0 167 -165 167q-151 0 -167 -163h-191q8 149 97 231q97 88 272 88q194 0 287 -111q46 -53 56 -145
q4 -35 4 -140v-356q0 -52 8 -67q11 -21 38 -21q18 0 40 11zM626 454q-124 -6 -194 -24q-71 -18 -110 -61q-45 -48 -45 -113q0 -64 42 -100q38 -32 103 -32q108 0 166 104q38 68 38 151v75z" />
    <glyph glyph-name="afii10066" unicode="&#x431;" horiz-adv-x="987" vert-adv-y="1720" 
d="M632 1421h157q1 -71 1 -82q0 -121 -52 -172q-45 -45 -152 -64q-117 -22 -162 -52q-47 -31 -91 -119q85 40 175 40q199 0 313 -159q97 -136 97 -342q0 -214 -103 -349q-114 -150 -314 -150q-209 0 -321 163q-92 135 -92 362q0 274 70 463q79 210 288 280q40 14 140 32
q36 6 41 30t5 98v21zM499 812q-98 0 -157 -84q-69 -97 -69 -251q0 -157 61 -254q58 -92 166 -92q97 0 152 84q62 96 62 257t-64 256q-57 84 -151 84z" />
    <glyph glyph-name="afii10067" unicode="&#x432;" horiz-adv-x="897" vert-adv-y="1720" 
d="M117 0v942h427q102 0 164 -35q104 -60 104 -193q0 -154 -154 -204q185 -55 185 -237q0 -154 -125 -231q-49 -30 -113 -38q-34 -4 -95 -4h-393zM318 410v-242h172q148 0 148 122q0 120 -142 120h-178zM318 774v-196h176q53 0 83 27q30 28 30 74q0 95 -108 95h-181z" />
    <glyph glyph-name="afii10068" unicode="&#x433;" horiz-adv-x="720" vert-adv-y="1720" 
d="M318 774v-774h-201v942h597v-168h-396z" />
    <glyph glyph-name="afii10069" unicode="&#x434;" horiz-adv-x="1001" vert-adv-y="1720" 
d="M878 168h102v-373h-201v205h-578v-205h-201v373h24q69 0 103 47q25 33 33 107l71 620h647v-774zM677 168v606h-274l-50 -416q-17 -133 -65 -190h389z" />
    <glyph glyph-name="afii10070" unicode="&#x435;" horiz-adv-x="944" vert-adv-y="1720" 
d="M877 420h-608q3 -90 26 -150q55 -143 192 -143q97 0 147 77q19 30 35 78h190q-17 -78 -56 -141q-107 -170 -319 -170q-196 0 -308 143q-108 137 -108 347q0 214 110 361q112 149 297 149q150 0 255 -100q146 -141 147 -451zM675 561q-6 81 -34 139q-56 115 -167 115
q-106 0 -160 -102q-32 -61 -42 -152h403z" />
    <glyph glyph-name="afii10072" unicode="&#x436;" horiz-adv-x="1370" vert-adv-y="1720" 
d="M588 432h-54l-338 -432h-200l381 500l-355 442h200l309 -385h57v385h197v-385h56l311 386h199l-356 -443l379 -500h-199l-338 432h-52v-432h-197v432z" />
    <glyph glyph-name="afii10073" unicode="&#x437;" horiz-adv-x="877" vert-adv-y="1720" 
d="M353 572h87q67 0 107 25q50 32 50 90q0 56 -43 88q-38 28 -104 28q-155 0 -182 -156h-201q16 161 126 248q97 76 269 76q146 0 234 -58q105 -70 105 -196q0 -95 -63 -156q-42 -41 -115 -56q199 -56 199 -239q0 -127 -93 -210q-96 -85 -265 -85q-222 0 -328 144
q-64 87 -81 218h199q27 -194 200 -194q79 0 123 43q40 38 40 93q0 88 -86 118q-32 11 -86 11h-92v168z" />
    <glyph glyph-name="afii10074" unicode="&#x438;" horiz-adv-x="977" vert-adv-y="1720" 
d="M318 373l341 504v65h201v-942h-201v569l-341 -504v-65h-201v942h201v-569z" />
    <glyph glyph-name="afii10076" unicode="&#x43a;" horiz-adv-x="908" vert-adv-y="1720" 
d="M111 0v942h197v-385h70l297 386h199l-356 -443l380 -500h-200l-324 432h-66v-432h-197z" />
    <glyph glyph-name="afii10077" unicode="&#x43b;" horiz-adv-x="977" vert-adv-y="1720" 
d="M386 774l-51 -442q-18 -157 -56 -220q-81 -132 -260 -132h-6h-6v161q54 3 85 27q41 34 51 127l71 647h647v-942h-201v774h-274z" />
    <glyph glyph-name="afii10078" unicode="&#x43c;" horiz-adv-x="1163" vert-adv-y="1720" 
d="M117 0v942h286l182 -680l176 680h286v-942h-197v690l-174 -690h-180l-182 680v-680h-197z" />
    <glyph glyph-name="afii10079" unicode="&#x43d;" horiz-adv-x="977" vert-adv-y="1720" 
d="M318 410v-410h-201v942h201v-364h341v364h201v-942h-201v410h-341z" />
    <glyph glyph-name="afii10080" unicode="&#x43e;" horiz-adv-x="986" vert-adv-y="1720" 
d="M502 971q186 0 303 -137q114 -133 114 -363q0 -243 -128 -380q-112 -120 -296 -120q-202 0 -317 143q-110 137 -110 356q0 212 103 348q117 153 331 153zM491 803q-97 0 -155 -85q-63 -92 -63 -246q0 -159 62 -249q58 -84 161 -84q94 0 149 74q69 92 69 259
q0 157 -60 245q-60 86 -163 86z" />
    <glyph glyph-name="afii10081" unicode="&#x43f;" horiz-adv-x="977" vert-adv-y="1720" 
d="M318 774v-774h-201v942h743v-942h-201v774h-341z" />
    <glyph glyph-name="afii10082" unicode="&#x440;" horiz-adv-x="1018" vert-adv-y="1720" 
d="M117 -355v1297h189v-106q92 135 269 135q178 0 279 -147q97 -142 97 -354q0 -228 -106 -364q-105 -135 -275 -135q-163 0 -252 133v-459h-201zM528 803q-103 0 -162 -98q-52 -88 -52 -235q0 -158 61 -247q58 -84 156 -84t153 84q62 93 62 242q0 145 -55 240
q-58 98 -163 98z" />
    <glyph glyph-name="afii10083" unicode="&#x441;" horiz-adv-x="921" vert-adv-y="1720" 
d="M667 333h199q-19 -144 -95 -236q-106 -126 -288 -126q-181 0 -289 119q-126 138 -126 373q0 223 107 358q118 150 315 150q191 0 293 -132q60 -77 71 -192h-200q-10 54 -34 89q-47 67 -131 67q-106 0 -162 -96q-54 -91 -54 -239q0 -152 58 -244q54 -85 153 -85
q103 0 153 95q22 40 30 99z" />
    <glyph glyph-name="afii10084" unicode="&#x442;" horiz-adv-x="706" vert-adv-y="1720" 
d="M454 786v-786h-201v786h-239v156h679v-156h-239z" />
    <glyph glyph-name="afii10085" unicode="&#x443;" horiz-adv-x="850" vert-adv-y="1720" 
d="M89 -344v172q66 -13 104 -13q57 0 87 67q38 85 48 139l-322 921h219l209 -689l200 689h209l-306 -922q-72 -219 -118 -281q-70 -94 -195 -94q-54 0 -135 11z" />
    <glyph glyph-name="afii10086" unicode="&#x444;" horiz-adv-x="1316" vert-adv-y="1720" 
d="M757 -355h-197v403q-16 -21 -31 -36q-44 -41 -137 -41q-156 0 -246 140q-91 142 -91 361q0 208 86 349q92 150 251 150q99 0 149 -55q8 -9 19 -23v472h197v-472q14 18 27 31q45 47 141 47q159 0 251 -150q86 -141 86 -349q0 -219 -91 -361q-90 -140 -246 -140
q-97 0 -146 50q-10 11 -22 27v-403zM410 803q-70 0 -110 -85q-44 -94 -44 -242q0 -161 43 -253q40 -84 113 -84q64 0 101 74q47 94 47 260q0 155 -41 244q-40 86 -109 86zM907 803q-70 0 -109 -86q-41 -91 -41 -244q0 -167 47 -260q37 -74 101 -74q74 0 113 84q43 92 43 253
q0 151 -44 242q-40 85 -110 85z" />
    <glyph glyph-name="afii10087" unicode="&#x445;" horiz-adv-x="852" vert-adv-y="1720" 
d="M-6 0l310 496l-285 446h239l165 -281l171 281h230l-284 -437l319 -505h-240l-196 339l-196 -339h-233z" />
    <glyph glyph-name="afii10088" unicode="&#x446;" horiz-adv-x="983" vert-adv-y="1720" 
d="M860 168h103v-373h-201v205h-645v942h201v-774h341v774h201v-774z" />
    <glyph glyph-name="afii10091" unicode="&#x449;" horiz-adv-x="1307" vert-adv-y="1720" 
d="M1086 0h-969v942h201v-774h232v774h201v-774h232v774h201v-774h103v-373h-201v205z" />
    <glyph glyph-name="afii10092" unicode="&#x44a;" horiz-adv-x="927" vert-adv-y="1720" 
d="M0 942h412v-348h175q333 0 333 -291q0 -151 -98 -233q-63 -53 -157 -66q-27 -4 -87 -4h-367v774h-211v168zM412 426v-258h131q172 0 172 131q0 73 -50 106q-33 21 -109 21h-144z" />
    <glyph glyph-name="afii10093" unicode="&#x44b;" horiz-adv-x="1217" vert-adv-y="1720" 
d="M318 594h174q334 0 334 -291q0 -151 -98 -233q-64 -53 -157 -66q-27 -4 -87 -4h-367v942h201v-348zM318 426v-258h131q172 0 172 131q0 73 -50 106q-33 21 -109 21h-144zM900 0v942h201v-942h-201z" />
    <glyph glyph-name="afii10094" unicode="&#x44c;" horiz-adv-x="832" vert-adv-y="1720" 
d="M318 594h174q334 0 334 -291q0 -151 -98 -233q-64 -53 -157 -66q-27 -4 -87 -4h-367v942h201v-348zM318 426v-258h131q172 0 172 131q0 73 -50 106q-33 21 -109 21h-144z" />
    <glyph glyph-name="afii10095" unicode="&#x44d;" horiz-adv-x="921" vert-adv-y="1720" 
d="M640 572q-9 59 -29 103q-57 128 -178 128q-90 0 -137 -75q-20 -32 -28 -81h-201q13 130 88 212q102 112 276 112q198 0 316 -150q107 -135 107 -357q0 -236 -126 -374q-108 -119 -289 -119q-196 0 -303 144q-64 86 -81 218h199q9 -67 36 -111q51 -83 148 -83
q127 0 181 141q19 50 27 124h-293v168h287z" />
    <glyph glyph-name="afii10096" unicode="&#x44e;" horiz-adv-x="1342" vert-adv-y="1720" 
d="M432 578q14 98 58 180q114 213 362 213q195 0 309 -137q114 -135 114 -363q0 -243 -128 -380q-112 -120 -296 -120q-156 0 -263 88q-138 114 -161 351h-109v-410h-201v942h201v-364h114zM850 803q-100 0 -158 -85q-63 -92 -63 -242q0 -163 62 -253q58 -84 161 -84
q95 0 149 74q69 92 69 260q0 156 -60 243t-160 87z" />
    <glyph glyph-name="afii10097" unicode="&#x44f;" horiz-adv-x="917" vert-adv-y="1720" 
d="M599 349h-114q-88 0 -121 -23q-35 -26 -47 -82q-7 -32 -11 -100q-7 -117 -25 -144h-213q21 21 31 64q7 25 19 162q6 74 21 106q26 61 85 81q28 9 73 16q-206 41 -206 239q0 135 98 210q83 64 244 64h367v-942h-201v349zM599 517v257h-131q-172 0 -172 -131q0 -72 50 -105
q33 -21 109 -21h144z" />
    <glyph glyph-name="afii10098" unicode="&#x491;" horiz-adv-x="720" vert-adv-y="1720" 
d="M714 1051v-277h-396v-774h-201v942h396v109h201z" />
    <glyph glyph-name="afii10099" unicode="&#x452;" horiz-adv-x="962" vert-adv-y="1720" 
d="M318 0h-201v1138h-109v129h109v98h201v-98h218v-129h-218v-307q86 140 236 140q141 0 230 -116q112 -146 112 -440q0 -305 -123 -470q-110 -148 -280 -148q-47 0 -112 16v167q48 -17 85 -17q85 0 140 77q85 118 85 364q0 212 -58 313q-50 86 -131 86q-79 0 -130 -65
q-42 -54 -51 -156q-3 -38 -3 -119v-463z" />
    <glyph glyph-name="afii10101" unicode="&#x454;" horiz-adv-x="921" vert-adv-y="1720" 
d="M281 572h287v-168h-293q9 -86 35 -143q56 -122 173 -122q103 0 154 95q22 40 30 99h199q-19 -144 -95 -236q-106 -126 -289 -126q-180 0 -289 119q-126 138 -126 374q0 222 107 357q118 150 316 150q191 0 293 -132q59 -77 71 -192h-201q-9 54 -33 89q-48 67 -132 67
q-130 0 -185 -145q-15 -37 -22 -86z" />
    <glyph glyph-name="afii10102" unicode="&#x455;" horiz-adv-x="849" vert-adv-y="1720" 
d="M67 267h200q10 -66 39 -97q43 -47 127 -47q79 0 120 42q33 35 33 90q0 81 -86 121q-32 16 -163 47q-257 62 -257 273q0 122 89 198q90 77 239 77q204 0 297 -125q41 -56 50 -145h-200q-18 119 -151 119q-63 0 -100 -32q-37 -31 -37 -82q0 -56 41 -85q33 -23 122 -43
q157 -36 216 -68q145 -76 145 -234q0 -135 -99 -222q-93 -83 -259 -83q-324 0 -366 296z" />
    <glyph glyph-name="afii10103" unicode="&#x456;" horiz-adv-x="442" vert-adv-y="1720" 
d="M121 1160v205h201v-205h-201zM121 0v942h201v-942h-201z" />
    <glyph glyph-name="afii10105" unicode="&#x458;" horiz-adv-x="440" vert-adv-y="1720" 
d="M-18 -349v166q29 -6 50 -6q67 0 81 66q6 29 6 107v958h201v-931q0 -185 -30 -250q-27 -57 -85 -87q-58 -29 -129 -29q-36 0 -77 4zM119 1160v205h201v-205h-201z" />
    <glyph glyph-name="afii10106" unicode="&#x459;" horiz-adv-x="1293" vert-adv-y="1720" 
d="M834 594h147q333 0 333 -291q0 -150 -98 -233q-63 -53 -156 -66q-28 -4 -87 -4h-340v774h-246l-51 -442q-18 -157 -57 -220q-81 -132 -260 -132h-6h-6v161q54 3 85 27q41 34 51 127l71 647h620v-348zM834 426v-258h103q172 0 172 131q0 73 -50 106q-33 21 -108 21h-117z
" />
    <glyph glyph-name="afii10107" unicode="&#x45a;" horiz-adv-x="1293" vert-adv-y="1720" 
d="M632 417h-314v-417h-201v942h201v-357h314v357h201v-357h147q333 0 333 -287q0 -148 -98 -229q-63 -53 -156 -65q-28 -4 -87 -4h-340v417zM833 417v-249h103q172 0 172 127q0 70 -50 101q-34 21 -108 21h-117z" />
    <glyph glyph-name="afii10108" unicode="&#x45b;" horiz-adv-x="973" vert-adv-y="1720" 
d="M117 1138h-109v129h109v98h201v-98h218v-129h-218v-307q92 140 253 140q105 0 178 -54q79 -57 101 -165q11 -55 11 -146v-606h-201v575q0 114 -23 157q-38 71 -127 71q-103 0 -155 -96q-23 -43 -31 -107q-6 -43 -6 -146v-454h-201v1138z" />
    <glyph glyph-name="afii10193" unicode="&#x45f;" horiz-adv-x="977" vert-adv-y="1720" 
d="M589 0v-205h-201v205h-271v942h201v-774h341v774h201v-942h-271z" />
    <glyph glyph-name="afii10089" unicode="&#x447;" horiz-adv-x="983" vert-adv-y="1720" 
d="M866 0h-201v367q-96 -48 -241 -48q-210 0 -294 103q-37 45 -44 107q-4 33 -4 77v336h201v-283q0 -77 18 -107q18 -29 59 -46q46 -19 99 -19q136 0 182 94q24 49 24 154v207h201v-942z" />
    <glyph glyph-name="afii10090" unicode="&#x448;" horiz-adv-x="1301" vert-adv-y="1720" 
d="M751 168h232v774h201v-942h-1067v942h201v-774h232v774h201v-774z" />
    <glyph glyph-name="afii10071" unicode="&#x451;" horiz-adv-x="944" vert-adv-y="1720" 
d="M877 420h-608q3 -90 26 -150q55 -143 192 -143q97 0 147 77q19 30 35 78h190q-17 -78 -56 -141q-107 -170 -319 -170q-196 0 -308 143q-108 137 -108 347q0 214 110 361q112 149 297 149q150 0 255 -100q146 -141 147 -451zM675 561q-6 81 -34 139q-56 115 -167 115
q-106 0 -160 -102q-32 -61 -42 -152h403zM731 1311v-205h-192v205h192zM406 1311v-205h-192v205h192z" />
    <glyph glyph-name="glyph495" vert-adv-y="1720" 
d="M770 1311v-205h-192v205h192zM445 1311v-205h-192v205h192z" />
    <glyph glyph-name="afii10075" unicode="&#x439;" horiz-adv-x="977" vert-adv-y="1720" 
d="M318 373l341 504v65h201v-942h-201v569l-341 -504v-65h-201v942h201v-569zM745 1365q-35 -273 -256 -273t-256 273h129q22 -138 127 -138t127 138h129z" />
    <glyph glyph-name="glyph497" horiz-adv-x="1036" vert-adv-y="1720" 
d="M774 1365q-35 -273 -256 -273t-256 273h129q22 -138 127 -138t127 138h129z" />
    <glyph glyph-name="afii10100" unicode="&#x453;" horiz-adv-x="720" vert-adv-y="1720" 
d="M318 774v-774h-201v942h597v-168h-396zM676 1365l-186 -273h-164l170 273h180z" />
    <glyph glyph-name="glyph499" vert-adv-y="1720" 
d="M757 1365l-186 -273h-164l170 273h180z" />
    <glyph glyph-name="afii10104" unicode="&#x457;" horiz-adv-x="446" vert-adv-y="1720" 
d="M123 0v942h201v-942h-201zM433 1311v-205h-165v205h165zM179 1311v-205h-165v205h165z" />
    <glyph glyph-name="glyph501" horiz-adv-x="442" vert-adv-y="1720" 
d="M121 0v942h201v-942h-201z" />
    <glyph glyph-name="glyph502" vert-adv-y="1720" 
d="M722 1311v-205h-165v205h165zM468 1311v-205h-165v205h165z" />
    <glyph glyph-name="afii10109" unicode="&#x45c;" horiz-adv-x="908" vert-adv-y="1720" 
d="M111 0v942h197v-385h70l297 386h199l-356 -443l380 -500h-200l-324 432h-66v-432h-197zM725 1365l-186 -273h-164l170 273h180z" />
    <glyph glyph-name="afii10110" unicode="&#x45e;" horiz-adv-x="850" vert-adv-y="1720" 
d="M89 -344v172q66 -13 104 -13q57 0 87 67q38 85 48 139l-322 921h219l209 -689l200 689h209l-306 -922q-72 -219 -118 -281q-70 -94 -195 -94q-54 0 -135 11zM680 1365q-35 -273 -256 -273t-256 273h129q22 -138 127 -138t127 138h129z" />
    <glyph glyph-name="uni200A" unicode="&#x200a;" horiz-adv-x="205" vert-adv-y="1720" 
 />
    <glyph glyph-name="uni200B" unicode="&#x200b;" horiz-adv-x="0" vert-adv-y="1720" 
 />
    <glyph glyph-name="uniFEFF" unicode="&#xfeff;" horiz-adv-x="0" vert-adv-y="1720" 
 />
    <glyph glyph-name="uniFFFC" unicode="&#xfffc;" horiz-adv-x="2048" vert-adv-y="1720" 
d="M2048 1150h-100v223h-223v100h323v-323zM1473 1373h-323v100h323v-100zM2048 575h-100v323h100v-323zM898 1388h-323v100h323v-100zM2048 0h-323v100h223v223h100v-323zM323 1373h-223v-223h-100v323h323v-100zM1473 0h-323v100h323v-100zM100 575h-100v323h100v-323z
M898 0h-323v100h323v-100zM323 0h-323v323h100v-223h223v-100zM555 1096q134 0 215 -105q84 -109 84 -279q0 -152 -65 -257q-81 -131 -234 -131t-236 132q-64 102 -64 260q0 172 83 275q85 105 217 105zM554 1017q-91 0 -148 -81q-58 -83 -58 -219q0 -135 49 -220
q28 -48 78 -75q38 -21 81 -21q87 0 140 71q65 90 65 239q0 136 -57 222q-55 84 -150 84zM963 357v737h233q101 0 147 -29q78 -51 78 -153q0 -109 -101 -160q128 -37 128 -184q0 -135 -100 -188q-44 -23 -113 -23h-272zM1053 780h124q82 0 109 20q44 30 44 96q0 83 -55 108
q-22 11 -91 11h-131v-235zM1053 436h140q87 0 116 19q48 32 48 114q0 92 -65 123q-27 13 -113 13h-126v-269zM1493 346v80q25 -10 51 -10q72 0 98 67q13 33 13 141v470h90v-485q0 -90 -8 -129q-17 -73 -75 -112q-45 -29 -112 -29q-26 0 -57 7z" />
    <glyph glyph-name="uniFFFD" unicode="&#xfffd;" horiz-adv-x="2048" vert-adv-y="1720" 
d="M1021 1556l940 -938l-940 -937l-937 937zM686 779h214q9 199 132 199q54 0 84 -43q23 -35 23 -85q0 -52 -24 -96q-10 -20 -97 -107q-65 -66 -83 -131q-13 -45 -16 -157v-6v-8h198v10q1 58 10 88q12 41 35 70q9 11 43 39q73 61 113 121q46 69 46 173q0 158 -104 254
q-87 79 -226 79q-138 0 -229 -84q-112 -103 -119 -316zM1145 243h-254v-248h254v248z" />
    <glyph glyph-name="uni2000" unicode="&#x2000;" vert-adv-y="1720" 
 />
    <glyph glyph-name="uni2001" unicode="&#x2001;" horiz-adv-x="2048" vert-adv-y="1720" 
 />
    <glyph glyph-name="uni2002" unicode="&#x2002;" vert-adv-y="1720" 
 />
    <glyph glyph-name="uni2003" unicode="&#x2003;" horiz-adv-x="2048" vert-adv-y="1720" 
 />
    <glyph glyph-name="uni2004" unicode="&#x2004;" horiz-adv-x="683" vert-adv-y="1720" 
 />
    <glyph glyph-name="uni2005" unicode="&#x2005;" horiz-adv-x="512" vert-adv-y="1720" 
 />
    <glyph glyph-name="uni2006" unicode="&#x2006;" horiz-adv-x="341" vert-adv-y="1720" 
 />
    <glyph glyph-name="uni2007" unicode="&#x2007;" horiz-adv-x="1128" vert-adv-y="1720" 
 />
    <glyph glyph-name="uni2008" unicode="&#x2008;" horiz-adv-x="549" vert-adv-y="1720" 
 />
    <glyph glyph-name="uni2009" unicode="&#x2009;" horiz-adv-x="410" vert-adv-y="1720" 
 />
    <glyph glyph-name="ccircumflex" unicode="&#x109;" horiz-adv-x="921" vert-adv-y="1720" 
d="M667 333h199q-19 -144 -95 -236q-106 -126 -288 -126q-181 0 -289 119q-126 138 -126 373q0 223 107 358q118 150 315 150q191 0 293 -132q60 -77 71 -192h-200q-10 54 -34 89q-47 67 -131 67q-106 0 -162 -96q-54 -91 -54 -239q0 -152 58 -244q54 -85 153 -85
q103 0 153 95q22 40 30 99zM709 1092h-168l-84 153l-87 -153h-157l158 273h178z" />
    <glyph glyph-name="GID00520" horiz-adv-x="921" vert-adv-y="1720" 
d="M667 333h199q-19 -144 -95 -236q-106 -126 -288 -126q-181 0 -289 119q-126 138 -126 374q0 222 107 357q118 150 315 150q191 0 293 -132q60 -77 71 -192h-200q-10 54 -34 89q-47 67 -131 67q-106 0 -162 -96q-54 -91 -54 -239q0 -152 58 -244q54 -85 153 -85
q103 0 153 95q22 40 30 99z" />
    <glyph glyph-name="GID00521" horiz-adv-x="1036" vert-adv-y="1720" 
d="M766 1092h-168l-84 153l-87 -153h-157l158 273h178z" />
    <glyph glyph-name="hcircumflex" unicode="&#x125;" horiz-adv-x="973" vert-adv-y="1720" 
d="M117 0v1365h201v-534q92 140 252 140q105 0 178 -53q79 -58 101 -166q11 -55 11 -146v-606h-201v575q0 114 -23 157q-38 71 -127 71q-102 0 -154 -96q-23 -43 -31 -107q-6 -43 -6 -146v-454h-201zM500 1475h-180l-101 148l-100 -148h-180l183 259h194z" />
    <glyph glyph-name="Hbar" unicode="&#x126;" horiz-adv-x="1220" vert-adv-y="1720" 
d="M129 966h-109v132h109v267h225v-267h510v267h225v-267h110v-132h-110v-966h-225v620h-510v-620h-225v966zM354 966v-153h510v153h-510z" />
    <glyph glyph-name="hbar" unicode="&#x127;" horiz-adv-x="973" vert-adv-y="1720" 
d="M117 1138h-109v129h109v98h201v-98h218v-129h-218v-307q92 140 253 140q105 0 178 -54q79 -57 101 -165q11 -55 11 -146v-606h-201v575q0 114 -23 157q-38 71 -127 71q-103 0 -155 -96q-23 -43 -31 -107q-6 -43 -6 -146v-454h-201v1138z" />
    <glyph glyph-name="Itilde" unicode="&#x128;" horiz-adv-x="475" vert-adv-y="1720" 
d="M125 0v1365h225v-1365h-225zM429 1713h116q-36 -232 -190 -232q-57 0 -162 61q-52 30 -78 30q-53 0 -71 -91h-115q34 232 196 232q46 0 93 -23q15 -7 60 -35q48 -30 76 -30q53 0 75 88z" />
    <glyph glyph-name="GID00526" horiz-adv-x="475" vert-adv-y="1720" 
d="M125 0v1365h225v-1365h-225z" />
    <glyph glyph-name="GID00527" horiz-adv-x="1036" vert-adv-y="1720" 
d="M710 1713h116q-36 -232 -190 -232q-57 0 -162 61q-52 30 -78 30q-53 0 -71 -91h-115q34 232 196 232q46 0 93 -23q16 -8 60 -35q48 -30 76 -30q53 0 75 88z" />
    <glyph glyph-name="itilde" unicode="&#x129;" horiz-adv-x="442" vert-adv-y="1720" 
d="M121 0v942h201v-942h-201zM510 1365q-9 -76 -29 -126q-49 -122 -152 -122q-50 0 -148 53q-47 26 -68 26q-43 0 -61 -90h-120q6 66 26 119q28 72 82 105q37 24 75 24q52 0 105 -29l70 -39q21 -12 40 -12q43 0 58 91h122z" />
    <glyph glyph-name="GID00529" horiz-adv-x="442" vert-adv-y="1720" 
d="M121 0v942h201v-942h-201z" />
    <glyph glyph-name="GID00530" horiz-adv-x="1036" vert-adv-y="1720" 
d="M807 1365q-9 -76 -29 -126q-49 -122 -152 -122q-50 0 -148 53q-47 26 -68 26q-43 0 -61 -90h-120q6 67 26 119q29 72 82 105q37 24 78 24q49 0 102 -29l70 -39q21 -12 40 -12q43 0 58 91h122z" />
    <glyph glyph-name="Ibreve" unicode="&#x12c;" horiz-adv-x="475" vert-adv-y="1720" 
d="M124 0v1365h225v-1365h-225zM-35 1734h136q14 -60 36 -88q32 -39 99 -39q75 0 107 47q18 26 30 80h136q-9 -77 -31 -123q-68 -143 -241 -143q-115 0 -188 69q-68 65 -84 197z" />
    <glyph glyph-name="IJ" unicode="&#x132;" horiz-adv-x="1017" vert-adv-y="1720" 
d="M125 0v1365h225v-1365h-225zM399 -19v199q66 -18 112 -18q121 0 156 115q15 50 16 127q0 20 1 116v845h225v-873q0 -175 -18 -249q-65 -276 -365 -276q-56 0 -127 14z" />
    <glyph glyph-name="GID00533" horiz-adv-x="624" vert-adv-y="1720" 
d="M6 -19v199q66 -18 112 -18q121 0 156 115q15 50 16 127q0 20 1 116v845h225v-873q0 -175 -18 -249q-65 -276 -365 -276q-56 0 -127 14z" />
    <glyph glyph-name="ij" unicode="&#x133;" horiz-adv-x="885" vert-adv-y="1720" 
d="M121 1160v205h201v-205h-201zM121 0v942h201v-942h-201zM426 -349v166q29 -6 50 -6q67 0 81 66q6 29 6 107v958h201v-931q0 -185 -30 -250q-27 -57 -85 -87q-58 -29 -129 -29q-36 0 -77 4zM563 1160v205h201v-205h-201z" />
    <glyph glyph-name="GID00535" horiz-adv-x="442" vert-adv-y="1720" 
d="M121 1160v205h201v-205h-201zM121 0v942h201v-942h-201z" />
    <glyph glyph-name="GID00536" horiz-adv-x="440" vert-adv-y="1720" 
d="M-18 -349v166q29 -6 50 -6q67 0 81 66q6 29 6 107v958h201v-931q0 -185 -30 -250q-27 -57 -85 -87q-58 -29 -129 -29q-36 0 -77 4zM119 1160v205h201v-205h-201z" />
    <glyph glyph-name="Jcircumflex" unicode="&#x134;" horiz-adv-x="624" vert-adv-y="1720" 
d="M6 -19v199q66 -18 112 -18q121 0 156 115q15 50 16 127q0 20 1 116v845h225v-873q0 -175 -18 -249q-65 -276 -365 -276q-56 0 -127 14zM676 1475h-180l-100 148l-100 -148h-180l182 259h195z" />
    <glyph glyph-name="kgreenlandic" unicode="&#x138;" horiz-adv-x="908" vert-adv-y="1720" 
d="M318 575l315 367h234l-333 -370l365 -572h-232l-259 432l-90 -100v-332h-201v942h201v-367z" />
    <glyph glyph-name="Ldot" unicode="&#x13f;" horiz-adv-x="966" vert-adv-y="1720" 
d="M125 0v1365h225v-1172h565v-193h-790zM671 784v-205h-192v205h192z" />
    <glyph glyph-name="ldot" unicode="&#x140;" horiz-adv-x="593" vert-adv-y="1720" 
d="M121 0v1365h201v-1365h-201zM593 808v-205h-192v205h192z" />
    <glyph glyph-name="napostrophe" unicode="&#x149;" horiz-adv-x="1071" vert-adv-y="1720" 
d="M216 0v942h189v-119q96 148 266 148q108 0 186 -62t95 -180q7 -43 7 -127v-602h-201v549q0 108 -14 158q-12 43 -47 69q-35 27 -86 27q-86 0 -140 -70q-36 -47 -47 -124q-7 -49 -7 -136v-473h-201zM180 1138v-134q0 -143 -72 -199q-35 -26 -94 -33v77q31 9 46 27
q23 27 29 83h-75v179h166z" />
    <glyph glyph-name="Eng" unicode="&#x14a;" horiz-adv-x="1208" vert-adv-y="1720" 
d="M125 1365h225v-175q55 79 99 115q99 83 238 83q145 0 253 -91q103 -87 132 -255q13 -77 13 -205v-518q0 -226 -73 -324q-101 -137 -295 -137q-71 0 -159 29v194q65 -31 119 -31q102 0 146 67q37 56 37 248v501q0 116 -13 167q-21 87 -87 127q-58 36 -136 36
q-167 0 -229 -146q-45 -105 -45 -308v-742h-225v1365z" />
    <glyph glyph-name="eng" unicode="&#x14b;" horiz-adv-x="973" vert-adv-y="1720" 
d="M522 -205v167q29 -7 50 -7q67 0 81 66q6 29 6 107v421q0 108 -14 158q-12 43 -46 69q-36 27 -88 27q-85 0 -139 -70q-36 -47 -47 -124q-7 -48 -7 -136v-473h-201v942h189v-119q96 148 266 148q108 0 186 -62q78 -63 96 -180q6 -43 6 -127v-447q0 -186 -30 -250
q-28 -58 -85 -87q-58 -29 -129 -29q-28 0 -94 6z" />
    <glyph glyph-name="Obreve" unicode="&#x14e;" horiz-adv-x="1260" vert-adv-y="1720" 
d="M639 1396q231 0 384 -186q164 -202 164 -527q0 -284 -126 -479q-75 -116 -191 -178q-109 -59 -240 -59q-189 0 -328 119q-229 197 -229 594q0 332 160 525q158 191 406 191zM626 1204q-145 0 -235 -139q-93 -145 -93 -378q0 -230 84 -376q44 -77 124 -120q59 -32 127 -32
q93 0 169 61q83 66 126 207q34 112 34 254q0 236 -90 380q-89 143 -246 143zM358 1734h136q14 -60 36 -88q32 -39 99 -39q75 0 107 47q18 26 30 80h136q-9 -77 -31 -123q-68 -143 -241 -143q-115 0 -188 69q-68 65 -84 197z" />
    <glyph glyph-name="GID00545" horiz-adv-x="1260" vert-adv-y="1720" 
d="M632 1396q238 0 391 -186q164 -202 164 -527q0 -284 -126 -479q-75 -116 -191 -178q-109 -59 -238 -59q-279 0 -436 241q-123 189 -123 484q0 320 160 513q158 191 399 191zM630 1204q-150 0 -239 -139q-93 -145 -93 -371q0 -237 84 -383q44 -77 124 -120q59 -32 128 -32
q92 0 168 61q83 66 126 207q34 112 34 257q0 233 -90 377q-89 143 -242 143z" />
    <glyph glyph-name="GID00546" horiz-adv-x="1036" vert-adv-y="1720" 
d="M246 1734h136q14 -60 36 -88q32 -39 99 -39q75 0 107 47q18 26 30 80h136q-9 -77 -31 -123q-68 -143 -241 -143q-115 0 -188 69q-68 65 -84 197z" />
    <glyph glyph-name="obreve" unicode="&#x14f;" horiz-adv-x="986" vert-adv-y="1720" 
d="M502 971q186 0 303 -137q114 -133 114 -363q0 -243 -128 -380q-112 -120 -296 -120q-202 0 -317 143q-110 137 -110 356q0 212 103 348q117 153 331 153zM491 803q-97 0 -155 -85q-63 -92 -63 -246q0 -159 62 -249q58 -84 161 -84q94 0 149 74q69 92 69 259
q0 157 -60 245q-60 86 -163 86zM750 1365q-35 -273 -256 -273t-256 273h129q22 -138 127 -138t127 138h129z" />
    <glyph glyph-name="GID00548" horiz-adv-x="986" vert-adv-y="1720" 
d="M496 971q192 0 309 -137q114 -133 114 -363q0 -243 -128 -380q-112 -120 -295 -120q-203 0 -318 143q-110 137 -110 364q0 204 103 340q117 153 325 153zM494 803q-100 0 -158 -85q-63 -92 -63 -242q0 -163 62 -253q58 -84 161 -84q94 0 149 74q69 92 69 261
q0 156 -60 243q-60 86 -160 86z" />
    <glyph glyph-name="GID00549" horiz-adv-x="1036" vert-adv-y="1720" 
d="M774 1365q-35 -273 -256 -273t-256 273h129q22 -138 127 -138t127 138h129z" />
    <glyph glyph-name="Tbar" unicode="&#x166;" horiz-adv-x="1014" vert-adv-y="1720" 
d="M395 840h-152v129h152v203h-356v193h936v-193h-355v-203h151v-129h-151v-840h-225v840z" />
    <glyph glyph-name="tbar" unicode="&#x167;" horiz-adv-x="546" vert-adv-y="1720" 
d="M353 723h162v-156h-162v-273q0 -83 11 -105q19 -38 78 -38q31 0 73 14v-165q-51 -21 -137 -21q-146 0 -193 88q-29 53 -29 207v293h-138v156h138v63h-138v156h134v117l147 196h56v-313h160v-156h-162v-63z" />
    <glyph glyph-name="Utilde" unicode="&#x168;" horiz-adv-x="1176" vert-adv-y="1720" 
d="M109 1365h225v-781q0 -145 14 -212q44 -213 245 -213q162 0 217 139q33 84 33 286v781h225v-772q0 -171 -18 -256q-81 -370 -461 -370q-278 0 -400 205q-51 85 -68 201q-12 81 -12 224v768zM780 1713h116q-36 -232 -190 -232q-57 0 -162 61q-52 30 -78 30q-53 0 -71 -91
h-115q34 232 196 232q46 0 93 -23q16 -8 60 -35q48 -30 76 -30q53 0 75 88z" />
    <glyph glyph-name="GID00553" horiz-adv-x="1176" vert-adv-y="1720" 
d="M109 1365h225v-781q0 -145 14 -212q44 -213 245 -213q162 0 217 139q33 84 33 286v781h225v-772q0 -171 -18 -256q-81 -370 -461 -370q-278 0 -400 205q-51 85 -68 201q-12 81 -12 224v768z" />
    <glyph glyph-name="Ubreve" unicode="&#x16c;" horiz-adv-x="1176" vert-adv-y="1720" 
d="M109 1365h225v-781q0 -145 14 -212q44 -213 245 -213q162 0 217 139q33 84 33 286v781h225v-772q0 -171 -18 -256q-81 -370 -461 -370q-278 0 -400 205q-51 85 -68 201q-12 81 -12 224v768zM317 1734h136q14 -60 36 -88q32 -39 99 -39q75 0 107 47q18 26 30 80h136
q-9 -77 -31 -123q-68 -143 -241 -143q-115 0 -188 69q-68 65 -84 197z" />
    <glyph glyph-name="wcircumflex" unicode="&#x175;" horiz-adv-x="1243" vert-adv-y="1720" 
d="M271 0l-261 942h214l157 -688l140 688h202l146 -681l158 681h206l-260 -942h-205l-147 675l-143 -675h-207zM869 1092h-168l-84 153l-87 -153h-156l158 273h178z" />
    <glyph glyph-name="longs" unicode="&#x17f;" horiz-adv-x="537" vert-adv-y="1720" 
d="M153 0v1071q0 166 48 232q67 93 212 93q39 0 106 -13v-168q-43 13 -71 13q-62 0 -80 -45q-13 -30 -13 -116v-1067h-202z" />
    <glyph glyph-name="uni01F5" unicode="&#x1f5;" horiz-adv-x="998" vert-adv-y="1720" 
d="M99 -79h203q24 -127 172 -127q124 0 171 93q40 80 40 211v49q-82 -139 -250 -139t-266 126q-101 131 -101 347q0 223 104 357q104 133 273 133t247 -139v110h189v-763q0 -149 -16 -226q-66 -308 -395 -308q-337 0 -371 276zM476 801q-90 0 -141 -75q-62 -90 -62 -245
t71 -240q55 -65 134 -65q91 0 145 78q64 92 64 240q0 162 -73 245q-55 62 -138 62zM651 1365l-186 -273h-164l170 273h180z" />
    <glyph glyph-name="GID00558" horiz-adv-x="998" vert-adv-y="1720" 
d="M98 -79h203q24 -127 172 -127q124 0 171 93q40 80 40 211v49q-82 -139 -251 -139q-167 0 -265 126q-101 131 -101 347q0 223 104 357q104 133 273 133q162 0 248 -139v110h189v-763q0 -149 -16 -226q-66 -308 -396 -308q-337 0 -371 276zM478 801q-93 0 -144 -75
q-62 -90 -62 -242q0 -158 71 -243q55 -65 134 -65q91 0 145 78q64 93 64 242q0 160 -73 243q-55 62 -135 62z" />
    <glyph glyph-name="GID00559" vert-adv-y="1720" 
d="M757 1365l-186 -273h-164l170 273h180z" />
    <glyph glyph-name="Wgrave" unicode="&#x1e80;" horiz-adv-x="1536" vert-adv-y="1720" 
d="M316 0l-302 1365h228l196 -1055l218 1055h226l215 -1057l200 1057h224l-308 -1365h-229l-218 1055l-219 -1055h-231zM586 1734h187l169 -259h-171z" />
    <glyph glyph-name="GID00561" horiz-adv-x="1536" vert-adv-y="1720" 
d="M316 0l-302 1365h228l196 -1055l218 1055h226l215 -1057l200 1057h224l-308 -1365h-229l-218 1055l-219 -1055h-231z" />
    <glyph glyph-name="GID00562" vert-adv-y="1720" 
d="M264 1734h187l169 -259h-171z" />
    <glyph glyph-name="wgrave" unicode="&#x1e81;" horiz-adv-x="1243" vert-adv-y="1720" 
d="M271 0l-261 942h214l157 -688l140 688h202l146 -681l158 681h206l-260 -942h-205l-147 675l-143 -675h-207zM428 1365h180l170 -273h-165z" />
    <glyph glyph-name="GID00564" horiz-adv-x="1243" vert-adv-y="1720" 
d="M271 0l-261 942h214l157 -688l140 688h202l146 -681l158 681h206l-260 -942h-205l-147 675l-143 -675h-207z" />
    <glyph glyph-name="GID00565" vert-adv-y="1720" 
d="M268 1365h180l170 -273h-165z" />
    <glyph glyph-name="Wacute" unicode="&#x1e82;" horiz-adv-x="1536" vert-adv-y="1720" 
d="M316 0l-302 1365h228l196 -1055l218 1055h226l215 -1057l200 1057h224l-308 -1365h-229l-218 1055l-219 -1055h-231zM945 1734l-185 -259h-171l170 259h186z" />
    <glyph glyph-name="GID00567" horiz-adv-x="1036" vert-adv-y="1720" 
d="M765 1734l-185 -259h-171l170 259h186z" />
    <glyph glyph-name="wacute" unicode="&#x1e83;" horiz-adv-x="1243" vert-adv-y="1720" 
d="M271 0l-261 942h214l157 -688l140 688h202l146 -681l158 681h206l-260 -942h-205l-147 675l-143 -675h-207zM824 1365l-186 -273h-164l170 273h180z" />
    <glyph glyph-name="wdieresis" unicode="&#x1e85;" horiz-adv-x="1243" vert-adv-y="1720" 
d="M271 0l-261 942h214l157 -688l140 688h202l146 -681l158 681h206l-260 -942h-205l-147 675l-143 -675h-207zM880 1311v-205h-192v205h192zM555 1311v-205h-192v205h192z" />
    <glyph glyph-name="Ygrave" unicode="&#x1ef2;" horiz-adv-x="1040" vert-adv-y="1720" 
d="M410 0v545l-428 820h253l291 -597l288 597h245l-424 -822v-543h-225zM272 1734h187l169 -259h-171z" />
    <glyph glyph-name="GID00571" horiz-adv-x="1040" vert-adv-y="1720" 
d="M410 0v545l-428 820h253l291 -597l288 597h245l-424 -822v-543h-225z" />
    <glyph glyph-name="ygrave" unicode="&#x1ef3;" horiz-adv-x="850" vert-adv-y="1720" 
d="M89 -344v172q66 -13 104 -13q57 0 87 67q38 85 48 139l-322 921h219l209 -689l200 689h209l-306 -922q-72 -219 -118 -281q-70 -94 -195 -94q-54 0 -135 11zM180 1365h180l170 -273h-165z" />
    <glyph glyph-name="GID00573" horiz-adv-x="850" vert-adv-y="1720" 
d="M89 -344v172q71 -13 100 -13q61 0 91 67q38 85 48 139l-322 921h219l209 -689l200 689h209l-306 -922q-72 -219 -118 -281q-70 -94 -196 -94q-53 0 -134 11z" />
    <glyph glyph-name="jcircumflex" unicode="&#x135;" horiz-adv-x="440" vert-adv-y="1720" 
d="M-18 -349v166q29 -6 50 -6q67 0 81 66q6 29 6 107v958h201v-931q0 -186 -30 -250q-27 -57 -85 -87q-58 -29 -129 -29q-36 0 -77 4zM473 1092h-168l-84 153l-87 -153h-157l158 273h178z" />
    <glyph glyph-name="glyph576" horiz-adv-x="396" vert-adv-y="1720" 
 />
    </font>
</defs>
</svg>
