<?xml version="1.0" standalone="no"?>
<!DOCTYPE svg PUBLIC "-//W3C//DTD SVG 1.1//EN" "http://www.w3.org/Graphics/SVG/1.1/DTD/svg11.dtd" >
<svg xmlns="http://www.w3.org/2000/svg">
<metadata>
Created by FontForge 20120702 at Tue Nov 27 14:15:54 2012

URW Software, Copyright 2003 by URW
</metadata>
<defs>
<font id="Tele-GroteskUlt-Regular" horiz-adv-x="1024" vert-adv-y="2048" >
  <font-face 
    font-family="Tele-GroteskUlt"
    font-weight="800"
    font-stretch="normal"
    units-per-em="2048"
    panose-1="0 0 0 0 0 0 0 0 0 0"
    ascent="1679"
    descent="-369"
    x-height="942"
    cap-height="1365"
    bbox="-177 -512 2590 1816"
    underline-thickness="187"
    underline-position="-110"
    unicode-range="U+0020-FFFD"
  />
<missing-glyph horiz-adv-x="300" vert-adv-y="1720" 
d="M30 0v1365h240v-1365h-240zM240 30v1305h-180v-1305h180z" />
    <glyph glyph-name=".notdef" horiz-adv-x="300" vert-adv-y="1720" 
d="M30 0v1365h240v-1365h-240zM240 30v1305h-180v-1305h180z" />
    <glyph glyph-name="glyph1" horiz-adv-x="0" vert-adv-y="0" 
 />
    <glyph glyph-name="glyph2" horiz-adv-x="300" vert-adv-y="1720" 
 />
    <glyph glyph-name="space" unicode=" " horiz-adv-x="300" vert-adv-y="1720" 
 />
    <glyph glyph-name="exclam" unicode="!" horiz-adv-x="546" vert-adv-y="1720" 
d="M408 1365v-364l-67 -585h-135l-66 581v368h268zM423 294v-294h-300v294h300z" />
    <glyph glyph-name="quotedbl" unicode="&#x22;" horiz-adv-x="803" vert-adv-y="1720" 
d="M312 845h-201l-56 520h313zM693 845h-201l-56 520h313z" />
    <glyph glyph-name="numbersign" unicode="#" horiz-adv-x="1161" vert-adv-y="1720" 
d="M76 430v160h200l30 208h-178v160h200l48 339h195l-48 -339h187l48 339h195l-47 -339h180v-160h-203l-29 -208h180v-160h-203l-50 -362h-196l51 362h-187l-51 -362h-195l51 362h-178zM688 798h-187l-29 -208h187z" />
    <glyph glyph-name="dollar" unicode="$" horiz-adv-x="1056" vert-adv-y="1720" 
d="M445 1447h160v-98q138 -20 236 -94q118 -93 141 -250h-259q-15 98 -118 132v-321q410 -132 410 -424q0 -229 -218 -330q-81 -38 -192 -50v-94h-160v95q-159 21 -264 118q-123 119 -140 281h268q23 -132 136 -179v362q-105 39 -158 67q-207 112 -207 332q0 123 66 211
q74 99 210 133q34 8 89 15v94zM605 225q57 16 89 45q54 49 54 119q0 102 -143 167v-331zM445 1145q-123 -35 -123 -142q0 -60 47 -102q24 -20 76 -45v289z" />
    <glyph glyph-name="percent" unicode="%" horiz-adv-x="1801" vert-adv-y="1720" 
d="M383 1383q145 0 242 -106q109 -120 109 -321q0 -174 -82 -290q-99 -139 -274 -139q-177 0 -278 142q-80 113 -80 285q0 202 104 318q100 111 259 111zM376 1211q-71 0 -111 -67q-45 -76 -45 -187q0 -116 45 -191q40 -67 114 -67q69 0 107 62q48 78 48 196q0 112 -44 187
q-40 67 -114 67zM697 0h-179l588 1365h176zM1430 837q145 0 242 -106q109 -120 109 -321q0 -174 -82 -290q-99 -139 -274 -139q-177 0 -278 142q-80 114 -80 285q0 201 104 318q100 111 259 111zM1423 665q-71 0 -111 -67q-45 -76 -45 -187q0 -116 45 -191q40 -67 114 -67
q69 0 107 62q48 78 48 196q0 112 -44 187q-40 67 -114 67z" />
    <glyph glyph-name="ampersand" unicode="&#x26;" horiz-adv-x="1127" vert-adv-y="1720" 
d="M1114 0h-275l-37 51q-127 -80 -304 -80q-198 0 -321 103q-136 113 -136 292q0 108 57 209q43 76 136 151q15 12 52 40q-49 70 -67 101q-59 100 -59 208q0 158 123 251q91 68 223 68q151 0 246 -86q92 -84 92 -207q0 -155 -160 -298q-34 -32 -93 -78l227 -314
q22 70 25 156h234q-22 -210 -116 -355zM415 588q-97 -86 -97 -204q0 -100 60 -160q56 -56 146 -56q81 0 158 49zM468 898q4 4 9 8q123 94 123 200q0 43 -25 74q-27 33 -72 33q-39 0 -67 -28q-35 -36 -35 -105q0 -82 67 -182z" />
    <glyph glyph-name="quotesingle" unicode="'" horiz-adv-x="422" vert-adv-y="1720" 
d="M312 845h-201l-56 520h313z" />
    <glyph glyph-name="parenleft" unicode="(" horiz-adv-x="564" vert-adv-y="1720" 
d="M482 -355h-209q-59 105 -111 247q-109 294 -109 607q0 305 102 603q56 165 116 263h208q-9 -24 -48 -118q-66 -159 -103 -392q-26 -161 -26 -348q0 -471 180 -862z" />
    <glyph glyph-name="parenright" unicode=")" horiz-adv-x="564" vert-adv-y="1720" 
d="M82 -355q180 392 180 862q0 333 -93 639q-2 6 -84 219h207q69 -112 130 -303q89 -277 89 -563q0 -334 -126 -653q-46 -114 -95 -201h-208z" />
    <glyph glyph-name="asterisk" unicode="*" horiz-adv-x="819" vert-adv-y="1720" 
d="M760 1055l-233 -73l147 -196l-123 -93l-145 202l-144 -200l-124 93l154 194l-233 73l48 146l228 -83l-4 247h157l-8 -247l229 83z" />
    <glyph glyph-name="plus" unicode="+" vert-adv-y="1720" 
d="M41 783h374v348h195v-348h373v-187h-373v-348h-195v348h-374v187z" />
    <glyph glyph-name="comma" unicode="," horiz-adv-x="546" vert-adv-y="1720" 
d="M423 294v-228q0 -136 -37 -213q-34 -71 -119 -124q-64 -39 -144 -48v143q63 16 96 67q29 47 31 109h-127v294h300z" />
    <glyph glyph-name="hyphen" unicode="-" horiz-adv-x="453" vert-adv-y="1720" 
d="M453 633v-246h-453v246h453z" />
    <glyph glyph-name="period" unicode="." horiz-adv-x="546" vert-adv-y="1720" 
d="M423 294v-294h-300v294h300z" />
    <glyph glyph-name="slash" unicode="/" horiz-adv-x="768" vert-adv-y="1720" 
d="M179 -355h-227l530 1720h221z" />
    <glyph glyph-name="zero" unicode="0" horiz-adv-x="1000" vert-adv-y="1720" 
d="M507 1394q127 0 228 -84q112 -92 162 -298q35 -147 35 -329q0 -333 -108 -513q-118 -199 -320 -199q-229 0 -346 231q-90 176 -90 484q0 332 109 512q120 196 330 196zM497 1169q-160 0 -160 -486q0 -230 34 -346q41 -141 131 -141q161 0 161 488q0 229 -34 345
q-41 140 -132 140z" />
    <glyph glyph-name="one" unicode="1" horiz-adv-x="1000" vert-adv-y="1720" 
d="M381 0v960q-40 -37 -95 -52q-37 -9 -115 -10v206q140 2 205 80q44 53 68 181h206v-1365h-269z" />
    <glyph glyph-name="two" unicode="2" horiz-adv-x="1000" vert-adv-y="1720" 
d="M905 241v-241h-845q2 214 71 357q56 114 176 215q43 36 167 125q106 77 145 145q39 67 39 145q0 69 -36 113q-43 55 -119 55q-87 0 -128 -90q-19 -41 -24 -100h-266q11 171 105 288q116 143 314 143q193 0 307 -117q105 -107 105 -277q0 -182 -117 -309
q-72 -78 -231 -187q-129 -89 -175 -145q-44 -56 -50 -120h562z" />
    <glyph glyph-name="three" unicode="3" horiz-adv-x="1000" vert-adv-y="1720" 
d="M347 996h-261q5 154 81 253q111 145 329 145q181 0 289 -105q105 -103 105 -267q0 -127 -68 -218q-36 -48 -104 -78q80 -27 129 -84q83 -97 83 -247q0 -181 -120 -301q-123 -123 -329 -123q-191 0 -306 106q-117 108 -117 304h263q1 -64 25 -106q40 -70 134 -70
q79 0 123 56q46 58 46 152q0 96 -52 149q-47 48 -153 48h-40v197h63q68 0 114 51q47 52 47 143q0 79 -41 124q-39 44 -105 44q-130 0 -135 -173z" />
    <glyph glyph-name="four" unicode="4" horiz-adv-x="1000" vert-adv-y="1720" 
d="M796 0h-261v294h-475v250l486 821h250v-850h141v-221h-141v-294zM535 515v473l-252 -473h252z" />
    <glyph glyph-name="five" unicode="5" horiz-adv-x="1000" vert-adv-y="1720" 
d="M179 1365h661v-238h-450l-42 -281q83 69 196 69q159 0 262 -105q117 -119 117 -335q0 -232 -141 -377q-123 -127 -311 -127q-124 0 -227 52q-185 95 -195 319h269q5 -49 24 -78q43 -68 127 -68q95 0 141 90q36 70 36 167q0 104 -37 177q-42 85 -134 85q-64 0 -105 -44
q-22 -23 -46 -68h-240z" />
    <glyph glyph-name="six" unicode="6" horiz-adv-x="1000" vert-adv-y="1720" 
d="M909 1056h-261q-27 129 -123 129q-165 0 -191 -386q93 117 232 117q162 0 266 -123q110 -129 110 -336q0 -228 -135 -365q-119 -121 -288 -121q-137 0 -243 81q-210 159 -210 596q0 383 144 580q122 166 320 166q208 0 312 -153q52 -74 67 -185zM508 711q-74 0 -118 -87
q-39 -77 -39 -174q0 -94 39 -170q45 -86 123 -86q68 0 112 71q48 77 48 183q0 109 -44 183q-46 80 -121 80z" />
    <glyph glyph-name="seven" unicode="7" horiz-adv-x="1000" vert-adv-y="1720" 
d="M109 1365h783v-225q-97 -139 -144 -230q-128 -252 -177 -553q-27 -162 -36 -357h-280q2 169 58 397q77 307 221 570q54 97 97 148h-522v250z" />
    <glyph glyph-name="eight" unicode="8" horiz-adv-x="1000" vert-adv-y="1720" 
d="M281 732q-179 80 -179 301q0 173 126 272q115 89 274 89q171 0 288 -103q108 -94 108 -255q0 -126 -68 -216q-41 -55 -111 -88q224 -84 224 -345q0 -188 -122 -301q-122 -115 -322 -115q-196 0 -319 108t-123 298q0 170 100 277q49 52 124 78zM497 1189q-60 0 -96 -41
q-46 -52 -46 -141q0 -75 33 -131q37 -62 115 -62q58 0 93 40q49 56 49 153q0 88 -39 135t-109 47zM496 630q-82 0 -129 -75q-38 -63 -38 -150q0 -92 43 -156q47 -69 131 -69q82 0 126 70q42 66 42 151q0 96 -43 160q-46 69 -132 69z" />
    <glyph glyph-name="nine" unicode="9" horiz-adv-x="1000" vert-adv-y="1720" 
d="M91 309h261q27 -128 123 -128q103 0 151 153q32 101 40 233q-92 -117 -232 -117q-162 0 -267 123q-109 129 -109 337q0 227 133 363q117 121 284 121q138 0 246 -83q213 -162 213 -607q0 -377 -144 -570q-121 -163 -319 -163q-208 0 -313 153q-52 75 -67 185zM485 1171
q-66 0 -110 -70q-48 -76 -48 -184q0 -105 44 -182q45 -80 119 -80q77 0 120 88q39 77 39 172q0 97 -39 171q-45 85 -125 85z" />
    <glyph glyph-name="colon" unicode=":" horiz-adv-x="546" vert-adv-y="1720" 
d="M423 942v-294h-300v294h300zM423 294v-294h-300v294h300z" />
    <glyph glyph-name="semicolon" unicode=";" horiz-adv-x="546" vert-adv-y="1720" 
d="M423 294v-228q0 -136 -37 -213q-34 -71 -119 -124q-64 -39 -144 -48v143q63 16 96 67q29 47 31 109h-127v294h300zM423 942v-294h-300v294h300z" />
    <glyph glyph-name="less" unicode="&#x3c;" vert-adv-y="1720" 
d="M955 1277v-304l-564 -290l564 -291v-303l-887 467v256z" />
    <glyph glyph-name="equal" unicode="=" vert-adv-y="1720" 
d="M41 954h942v-187h-942v187zM41 612h942v-187h-942v187z" />
    <glyph glyph-name="greater" unicode="&#x3e;" vert-adv-y="1720" 
d="M69 1277l887 -466v-255l-887 -467v303l564 291l-564 290v304z" />
    <glyph glyph-name="question" unicode="?" horiz-adv-x="957" vert-adv-y="1720" 
d="M86 927l1 15q7 171 76 280q111 176 335 176q178 0 283 -110q106 -111 106 -282q0 -130 -62 -217q-49 -66 -126 -131q-46 -38 -63 -63q-38 -58 -39 -130q-2 -31 -2 -51h-234q1 9 1 16q1 155 35 235q21 43 65 90l69 69q60 59 77 106q13 39 13 80q0 61 -28 101
q-35 51 -98 51q-147 0 -156 -235h-253zM628 294v-294h-300v294h300z" />
    <glyph glyph-name="at" unicode="@" horiz-adv-x="1509" vert-adv-y="1720" 
d="M961 982h183l-80 -403q-6 -28 -6 -80q0 -24 21 -24q57 0 127 74q110 116 110 294q0 187 -130 303t-330 116q-253 0 -430 -187q-181 -192 -181 -480q0 -216 118 -348q130 -146 380 -146q197 0 362 73q15 7 105 50l53 -136q-62 -30 -82 -38q-194 -83 -444 -83
q-316 0 -491 167q-181 173 -181 457q0 232 123 436q114 189 315 286q168 83 351 83q251 0 425 -139q99 -79 151 -191q48 -104 48 -223q0 -174 -97 -317q-76 -111 -183 -159q-69 -31 -138 -31q-91 0 -147 66q-93 -76 -196 -76q-120 0 -194 84q-69 80 -69 207q0 164 102 281
q93 106 234 106q95 0 164 -61zM812 864q-34 0 -68 -22.5t-56 -60.5q-43 -70 -43 -156q0 -61 25 -106q26 -49 78 -49q80 0 128 90q38 71 38 163q0 60 -24 98q-26 43 -78 43z" />
    <glyph glyph-name="A" unicode="A" horiz-adv-x="1157" vert-adv-y="1720" 
d="M429 1365h300l432 -1365h-305l-85 305h-389l-86 -305h-300zM445 526h265l-132 471z" />
    <glyph glyph-name="B" unicode="B" horiz-adv-x="1146" vert-adv-y="1720" 
d="M106 0v1365h487q145 0 224 -27q114 -40 169 -130q49 -79 49 -176q0 -201 -196 -292q249 -84 249 -338q0 -222 -168 -333q-105 -69 -281 -69h-533zM399 813h131q108 0 154 33q62 46 62 131q0 93 -75 133q-40 22 -141 22h-131v-319zM399 233h158q123 0 174 41q64 51 64 148
q0 113 -85 159q-50 27 -165 27h-146v-375z" />
    <glyph glyph-name="C" unicode="C" horiz-adv-x="1200" vert-adv-y="1720" 
d="M866 529h293q-16 -217 -122 -363q-145 -199 -408 -199q-249 0 -395 171q-177 209 -177 541q0 326 171 530q157 187 408 187q269 0 419 -216q85 -123 96 -274h-290q-14 79 -43 129q-64 111 -186 111q-136 0 -208 -129q-74 -134 -74 -335q0 -204 77 -340q70 -125 202 -125
q114 0 175 99q46 76 62 213z" />
    <glyph glyph-name="D" unicode="D" horiz-adv-x="1217" vert-adv-y="1720" 
d="M106 0v1365h421q278 0 437 -148q195 -180 195 -534q0 -338 -184 -526q-100 -103 -231 -134q-93 -23 -218 -23h-420zM399 250h131q156 0 227 74q109 115 109 364q0 206 -92 323q-81 104 -252 104h-123v-865z" />
    <glyph glyph-name="E" unicode="E" horiz-adv-x="1065" vert-adv-y="1720" 
d="M106 0v1365h871v-250h-578v-292h528v-238h-528v-335h590v-250h-883z" />
    <glyph glyph-name="F" unicode="F" horiz-adv-x="975" vert-adv-y="1720" 
d="M106 0v1365h826v-250h-537v-318h465v-238h-465v-559h-289z" />
    <glyph glyph-name="G" unicode="G" horiz-adv-x="1251" vert-adv-y="1720" 
d="M1160 0h-215v154q-56 -72 -98 -106q-100 -81 -240 -81q-257 0 -406 207q-144 200 -144 501q0 302 151 504q162 218 431 218q229 0 377 -170q95 -110 120 -246q4 -22 9 -67h-285q-15 84 -48 134q-63 99 -177 99q-138 0 -212 -131q-73 -127 -73 -337q0 -224 82 -351
q75 -115 210 -115q124 0 194 105q50 75 59 198h-245v221h510v-737z" />
    <glyph glyph-name="H" unicode="H" horiz-adv-x="1234" vert-adv-y="1720" 
d="M106 0v1365h293v-519h435v519h293v-1365h-293v596h-435v-596h-293z" />
    <glyph glyph-name="I" unicode="I" horiz-adv-x="506" vert-adv-y="1720" 
d="M106 0v1365h293v-1365h-293z" />
    <glyph glyph-name="J" unicode="J" horiz-adv-x="634" vert-adv-y="1720" 
d="M0 -19v233q60 -15 100 -15q103 0 136 112q15 54 15 236v818h293v-846q0 -170 -22 -261q-70 -291 -393 -291q-58 0 -129 14z" />
    <glyph glyph-name="K" unicode="K" horiz-adv-x="1160" vert-adv-y="1720" 
d="M106 0v1365h293v-516l406 516h327l-465 -563l503 -802h-328l-360 576l-83 -100v-476h-293z" />
    <glyph glyph-name="L" unicode="L" horiz-adv-x="987" vert-adv-y="1720" 
d="M106 0v1365h293v-1111h536v-254h-829z" />
    <glyph glyph-name="M" unicode="M" horiz-adv-x="1484" vert-adv-y="1720" 
d="M106 0v1365h397l243 -935l237 935h394v-1365h-281v949l-233 -949h-238l-238 937v-937h-281z" />
    <glyph glyph-name="N" unicode="N" horiz-adv-x="1218" vert-adv-y="1720" 
d="M106 0v1365h296l428 -878v878h281v-1365h-293l-431 877v-877h-281z" />
    <glyph glyph-name="O" unicode="O" horiz-adv-x="1278" vert-adv-y="1720" 
d="M649 1396q236 0 393 -176q179 -199 179 -538q0 -290 -135 -485q-80 -115 -202 -176q-109 -54 -243 -54q-289 0 -452 235q-132 190 -132 478q0 338 171 532q162 184 421 184zM636 1146q-132 0 -206 -127q-80 -138 -80 -334q0 -205 79 -341q36 -62 106 -100q51 -27 108 -27
q83 0 150 58t104 184q31 106 31 225q0 200 -78 335q-74 127 -214 127z" />
    <glyph glyph-name="P" unicode="P" horiz-adv-x="1081" vert-adv-y="1720" 
d="M106 0v1365h433q162 0 247 -30q125 -46 194 -159q59 -98 59 -238q0 -235 -167 -360q-116 -88 -328 -88h-145v-490h-293zM399 728h142q117 0 162 55q43 53 43 141q0 100 -61 151q-47 40 -158 40h-128v-387z" />
    <glyph glyph-name="Q" unicode="Q" horiz-adv-x="1278" vert-adv-y="1720" 
d="M1195 15l-140 -138l-159 168q-130 -78 -271 -78q-178 0 -323 115q-245 193 -245 600q0 333 171 530q160 184 413 184q245 0 401 -176q179 -201 179 -537q0 -253 -117 -432q-24 -36 -60 -79zM707 525l156 -163q65 145 65 322q0 198 -78 335q-72 127 -210 127
q-136 0 -210 -127q-80 -137 -80 -335q0 -209 79 -350q36 -64 106 -103q51 -28 109 -28q39 0 86 19l-159 169z" />
    <glyph glyph-name="R" unicode="R" horiz-adv-x="1195" vert-adv-y="1720" 
d="M106 0v1365h525q206 0 319 -90q129 -103 129 -291q0 -155 -91 -261q-40 -46 -105 -78q83 -26 129 -104q30 -48 43 -142q6 -33 18 -205q8 -107 22 -144q8 -20 25 -50h-302q-14 33 -20 78q-3 25 -14 176q-11 142 -36 189q-30 66 -92 84q-31 9 -89 9h-168v-536h-293z
M399 757h161q133 0 183 56q43 49 43 136q0 105 -72 154q-43 29 -148 29h-167v-375z" />
    <glyph glyph-name="S" unicode="S" horiz-adv-x="1042" vert-adv-y="1720" 
d="M41 399h295q12 -80 37 -119q52 -80 150 -80q87 0 135 54q42 46 42 116q0 79 -67 134q-32 26 -81 47q-14 6 -101 37q-168 59 -243 118q-149 118 -149 309q0 164 104 267q116 114 321 114q256 0 384 -175q60 -82 79 -216h-286q-10 79 -50 115q-48 42 -129 42
q-69 0 -108 -33q-45 -37 -45 -105q0 -77 68 -124q50 -36 198 -84q173 -56 268 -131q138 -110 138 -296t-128 -302q-133 -120 -355 -120q-265 0 -395 199q-66 102 -82 233z" />
    <glyph glyph-name="T" unicode="T" horiz-adv-x="1026" vert-adv-y="1720" 
d="M366 0v1115h-331v250h957v-250h-333v-1115h-293z" />
    <glyph glyph-name="U" unicode="U" horiz-adv-x="1196" vert-adv-y="1720" 
d="M90 1365h281v-795q0 -195 54 -272q58 -81 178 -81q130 0 177 111q33 76 33 243v794h293v-779q0 -184 -26 -279q-45 -163 -162 -252q-116 -88 -321 -88q-294 0 -421 198q-55 87 -74 209q-12 78 -12 216v775z" />
    <glyph glyph-name="V" unicode="V" horiz-adv-x="1069" vert-adv-y="1720" 
d="M695 0h-326l-373 1365h308l235 -984l235 984h299z" />
    <glyph glyph-name="W" unicode="W" horiz-adv-x="1542" vert-adv-y="1720" 
d="M0 1365h294l162 -936l176 936h279l174 -938l165 938h292l-308 -1365h-293l-172 927l-169 -927h-296z" />
    <glyph glyph-name="X" unicode="X" horiz-adv-x="1091" vert-adv-y="1720" 
d="M15 1365h332l204 -415l207 415h316l-365 -651l399 -714h-339l-227 450l-233 -450h-325l402 714z" />
    <glyph glyph-name="Y" unicode="Y" horiz-adv-x="1131" vert-adv-y="1720" 
d="M-4 1365h326l246 -540l246 540h321l-423 -837v-528h-293v532z" />
    <glyph glyph-name="Z" unicode="Z" horiz-adv-x="1056" vert-adv-y="1720" 
d="M33 0v238l613 877h-569v250h924v-222l-620 -889h638v-254h-986z" />
    <glyph glyph-name="bracketleft" unicode="[" horiz-adv-x="580" vert-adv-y="1720" 
d="M519 1365v-197h-203v-1326h203v-197h-433v1720h433z" />
    <glyph glyph-name="backslash" unicode="\" horiz-adv-x="768" vert-adv-y="1720" 
d="M590 -355l-525 1720h222l529 -1720h-226z" />
    <glyph glyph-name="bracketright" unicode="]" horiz-adv-x="580" vert-adv-y="1720" 
d="M61 1365h433v-1720h-433v197h203v1326h-203v197z" />
    <glyph glyph-name="asciicircum" unicode="^" vert-adv-y="1720" 
d="M301 718h-270l311 655h339l311 -655h-270l-210 449z" />
    <glyph glyph-name="underscore" unicode="_" vert-adv-y="1720" 
d="M41 -109h942v-187h-942v187z" />
    <glyph glyph-name="grave" unicode="`" vert-adv-y="1720" 
d="M241 1365h221l183 -273h-205z" />
    <glyph glyph-name="a" unicode="a" horiz-adv-x="980" vert-adv-y="1720" 
d="M962 190v-178q-53 -24 -113 -24q-121 0 -184 102q-47 -49 -85 -71q-82 -48 -202 -48q-137 0 -218 64q-98 77 -98 212q0 148 111 234q82 64 238 81q68 7 207 11v75q0 147 -125 147q-117 0 -128 -143h-268q8 149 104 231q103 88 293 88q226 0 328 -108q53 -55 65 -147
q4 -35 4 -141v-315q0 -54 12 -67q13 -14 29 -14q10 0 30 11zM618 429q-98 -4 -153 -19q-122 -32 -122 -142q0 -49 27 -78q24 -26 69 -26q93 0 145 88q34 56 34 127v50z" />
    <glyph glyph-name="b" unicode="b" horiz-adv-x="1028" vert-adv-y="1720" 
d="M90 0v1365h281v-502q96 108 238 108q111 0 204 -69q170 -126 170 -420q0 -208 -92 -348q-107 -163 -293 -163q-148 0 -237 108v-79h-271zM530 758q-78 0 -124 -80q-45 -78 -45 -206q0 -114 36 -191q46 -97 138 -97q69 0 113 67q54 84 54 221q0 132 -48 211
q-45 75 -124 75z" />
    <glyph glyph-name="c" unicode="c" horiz-adv-x="942" vert-adv-y="1720" 
d="M908 611h-275q-25 164 -138 164q-81 0 -124 -82q-45 -85 -45 -224q0 -143 48 -229q41 -72 117 -72q84 0 124 95q18 41 24 99h271q-18 -143 -90 -238q-117 -153 -331 -153q-193 0 -313 125q-131 137 -131 369q0 246 141 386q121 120 309 120q220 0 334 -146
q68 -89 79 -214z" />
    <glyph glyph-name="d" unicode="d" horiz-adv-x="1028" vert-adv-y="1720" 
d="M938 0h-271v79q-90 -108 -237 -108q-186 0 -293 163q-92 139 -92 347q0 225 103 356q48 62 120 98q73 36 151 36q141 0 238 -108v502h281v-1365zM494 758q-76 0 -120 -75q-48 -80 -48 -210q0 -154 64 -236q42 -53 103 -53q92 0 137 97q37 78 37 191q0 129 -45 206
q-47 80 -128 80z" />
    <glyph glyph-name="e" unicode="e" horiz-adv-x="961" vert-adv-y="1720" 
d="M916 403h-591q12 -244 165 -244q103 0 146 134h266q-19 -83 -71 -156q-117 -166 -337 -166q-202 0 -321 129q-128 138 -128 366q0 212 116 353q125 152 323 152q159 0 270 -101q117 -108 149 -309q10 -65 13 -158zM635 571q-5 65 -23 110q-19 49 -59 79q-30 23 -69 23
q-87 0 -129 -95q-22 -48 -28 -117h308z" />
    <glyph glyph-name="f" unicode="f" horiz-adv-x="583" vert-adv-y="1720" 
d="M139 0v758h-121v184h121v84q0 106 12 160q47 211 309 211q12 0 120 -7v-204q-42 6 -73 6q-64 0 -79 -46q-8 -27 -8 -96v-108h149v-184h-149v-758h-281z" />
    <glyph glyph-name="g" unicode="g" horiz-adv-x="1006" vert-adv-y="1720" 
d="M72 -81h277q22 -104 134 -104q99 0 134 82q27 65 27 187v42q-87 -110 -228 -110q-167 0 -267 121q-105 129 -105 350t105 353q104 131 273 131q139 0 222 -113v84h271v-807q0 -237 -74 -344q-110 -160 -353 -160q-214 0 -322 101q-75 70 -94 187zM482 766q-71 0 -112 -71
q-45 -76 -45 -200q0 -148 59 -230q37 -52 96 -52q88 0 132 95q36 77 36 186q0 124 -43 196q-46 76 -123 76z" />
    <glyph glyph-name="h" unicode="h" horiz-adv-x="1002" vert-adv-y="1720" 
d="M90 0v1365h281v-510q96 116 243 116q173 0 253 -126q49 -78 49 -244v-601h-281v557q0 99 -18 138q-30 63 -98 63q-88 0 -128 -101q-20 -52 -20 -193v-464h-281z" />
    <glyph glyph-name="i" unicode="i" horiz-adv-x="469" vert-adv-y="1720" 
d="M94 1092v273h281v-273h-281zM94 0v942h281v-942h-281z" />
    <glyph glyph-name="j" unicode="j" horiz-adv-x="469" vert-adv-y="1720" 
d="M-35 -347v213q39 -4 52 -4q53 0 67 38q9 25 9 114v928h281v-965q0 -187 -79 -264q-70 -68 -219 -68q-46 0 -111 8zM93 1092v273h281v-273h-281z" />
    <glyph glyph-name="k" unicode="k" horiz-adv-x="948" vert-adv-y="1720" 
d="M90 0v1365h281v-703l252 280h300l-339 -367l366 -575h-296l-241 390l-42 -45v-345h-281z" />
    <glyph glyph-name="l" unicode="l" horiz-adv-x="469" vert-adv-y="1720" 
d="M94 0v1365h281v-1365h-281z" />
    <glyph glyph-name="m" unicode="m" horiz-adv-x="1487" vert-adv-y="1720" 
d="M90 0v942h271v-88q90 117 238 117q97 0 167 -52q42 -31 66 -82q94 134 267 134q111 0 190 -59q111 -82 111 -275v-637h-281v565q0 85 -13 123q-23 70 -91 70q-84 0 -116 -98q-14 -42 -14 -146v-514h-280v577q0 77 -13 116q-21 65 -86 65q-86 0 -120 -103
q-15 -46 -15 -141v-514h-281z" />
    <glyph glyph-name="n" unicode="n" horiz-adv-x="1002" vert-adv-y="1720" 
d="M90 0v942h271v-87q92 116 246 116q178 0 259 -126q50 -78 50 -244v-601h-281v557q0 98 -19 138q-29 63 -96 63q-89 0 -129 -101q-20 -52 -20 -193v-464h-281z" />
    <glyph glyph-name="o" unicode="o" horiz-adv-x="992" vert-adv-y="1720" 
d="M505 971q192 0 316 -133q126 -135 126 -366q0 -239 -134 -376q-122 -125 -316 -125q-206 0 -330 140q-122 136 -122 359q0 219 118 355q126 146 342 146zM493 774q-78 0 -123 -85q-44 -83 -44 -217q0 -140 44 -221q45 -83 127 -83q78 0 121 76q48 84 48 227
q0 137 -43 216q-46 87 -130 87z" />
    <glyph glyph-name="p" unicode="p" horiz-adv-x="1028" vert-adv-y="1720" 
d="M90 942h271v-79q89 108 237 108q186 0 293 -163q92 -140 92 -348q0 -223 -103 -355q-48 -62 -120 -97q-73 -37 -151 -37q-141 0 -238 108v-434h-281v1297zM533 758q-90 0 -135 -97q-37 -77 -37 -192q0 -126 45 -205q46 -80 126 -80q78 0 122 75q48 81 48 211
q0 153 -64 235q-42 53 -105 53z" />
    <glyph glyph-name="q" unicode="q" horiz-adv-x="1028" vert-adv-y="1720" 
d="M657 -355v434q-97 -108 -238 -108q-110 0 -204 69q-170 126 -170 421q0 208 92 347q107 163 293 163q147 0 237 -108v79h271v-1297h-281zM492 758q-68 0 -112 -67q-54 -83 -54 -223q0 -129 48 -209q44 -75 122 -75q81 0 126 80q45 79 45 204q0 116 -37 193
q-45 97 -138 97z" />
    <glyph glyph-name="r" unicode="r" horiz-adv-x="665" vert-adv-y="1720" 
d="M90 0v942h271v-120q93 149 234 149q33 0 68 -9v-244q-53 15 -89 15q-124 0 -175 -122q-28 -65 -28 -215v-396h-281z" />
    <glyph glyph-name="s" unicode="s" horiz-adv-x="892" vert-adv-y="1720" 
d="M61 284h260q17 -131 138 -131q53 0 83 26q31 27 31 72q0 63 -69 101q-30 17 -123 49q-157 54 -209 93q-102 76 -102 196q0 134 100 210q92 71 251 71q212 0 316 -131q47 -60 62 -144h-261q-26 90 -108 90q-89 0 -89 -83q0 -56 64 -90q28 -14 151 -54q118 -38 181 -86
q100 -75 100 -205q0 -135 -102 -217q-99 -80 -268 -80q-164 0 -256 63q-130 88 -150 250z" />
    <glyph glyph-name="t" unicode="t" horiz-adv-x="589" vert-adv-y="1720" 
d="M0 766v176h133v61l189 252h92v-313h163v-176h-163v-446q2 -74 8 -96q12 -44 77 -44q30 0 68 14v-201q-83 -18 -163 -18q-168 0 -229 91q-33 49 -40 142q-2 27 -2 122v436h-133z" />
    <glyph glyph-name="u" unicode="u" horiz-adv-x="1002" vert-adv-y="1720" 
d="M912 942v-942h-271v87q-92 -116 -246 -116q-178 0 -259 126q-50 79 -50 244v601h281v-557q0 -98 19 -138q29 -63 96 -63q89 0 128 101q21 53 21 193v464h281z" />
    <glyph glyph-name="v" unicode="v" horiz-adv-x="840" vert-adv-y="1720" 
d="M577 0h-308l-285 942h292l150 -600l150 600h281z" />
    <glyph glyph-name="w" unicode="w" horiz-adv-x="1303" vert-adv-y="1720" 
d="M536 0h-289l-263 942h294l126 -592l112 592h274l115 -588l126 588h283l-256 -942h-288l-119 582z" />
    <glyph glyph-name="x" unicode="x" horiz-adv-x="859" vert-adv-y="1720" 
d="M-3 942h312l120 -222l119 222h305l-272 -439l306 -503h-313l-147 273l-146 -273h-310l300 496z" />
    <glyph glyph-name="y" unicode="y" horiz-adv-x="871" vert-adv-y="1720" 
d="M-16 942h298l162 -606l155 606h289l-303 -957q-42 -130 -79 -194q-57 -96 -162 -128q-59 -18 -146 -18q-59 0 -119 10v215q49 -12 86 -12q122 0 122 110q0 42 -17 95z" />
    <glyph glyph-name="z" unicode="z" horiz-adv-x="837" vert-adv-y="1720" 
d="M33 0v194l427 545h-394v203h734v-187l-439 -552h468v-203h-796z" />
    <glyph glyph-name="braceleft" unicode="{" horiz-adv-x="581" vert-adv-y="1720" 
d="M548 1365v-197h-54q-91 1 -117 -27q-27 -26 -30 -70q-3 -23 -3 -59v-269q0 -113 -37 -168q-25 -36 -83 -71q53 -32 76 -62q42 -59 44 -179v-262q0 -78 11 -102q17 -38 59 -48q44 -11 77 -9h3h54v-197h-83q-186 -2 -256 49q-65 47 -84 129q-11 49 -11 111v318
q-1 95 -30 130q-34 39 -84 48v162q55 11 85 49q25 30 29 115v331q0 167 97 231q73 49 254 47h83z" />
    <glyph glyph-name="bar" unicode="|" vert-adv-y="1720" 
d="M359 1365h307v-1706h-307v1706z" />
    <glyph glyph-name="braceright" unicode="}" horiz-adv-x="580" vert-adv-y="1720" 
d="M33 -355v197h53h3q36 -3 84 11q39 9 55 55q7 14 8 93v262q0 91 21 137q17 39 43 64q16 16 56 40q-65 38 -89 81q-31 58 -31 158v269q-1 77 -11 98q-19 38 -58 48q-38 10 -81 10h-53v197h83q180 2 253 -47q97 -63 97 -231v-331q4 -85 29 -115q31 -38 86 -49v-162
q-50 -9 -84 -48q-31 -35 -31 -130v-318q0 -97 -25 -154q-26 -64 -96 -101q-64 -36 -229 -34h-83z" />
    <glyph glyph-name="asciitilde" unicode="~" horiz-adv-x="1365" vert-adv-y="1720" 
d="M339 1131l-149 124q40 98 87 161q89 118 216 118q59 0 153 -38q38 -15 138 -58q59 -26 102 -26q76 0 145 127l149 -124q-48 -112 -94 -169q-88 -112 -211 -112q-47 0 -128 33q-49 19 -148 61q-73 30 -116 30q-54 0 -93 -49q-23 -28 -51 -78z" />
    <glyph glyph-name="Adieresis" unicode="&#xc4;" horiz-adv-x="1157" vert-adv-y="1720" 
d="M429 1365h300l432 -1365h-305l-85 305h-389l-86 -305h-300zM445 526h265l-132 471zM868 1693v-246h-238v246h238zM526 1693v-246h-237v246h237z" />
    <glyph glyph-name="Aring" unicode="&#xc5;" horiz-adv-x="1157" vert-adv-y="1720" 
d="M429 1365h300l432 -1365h-305l-85 305h-389l-86 -305h-300zM445 526h265l-132 471zM581 1711q-36 0 -61 -26q-26 -26 -26 -64q0 -37 25 -63t59 -26q37 0 62 27q24 26 24 62q0 37 -25 64q-25 26 -58 26zM583 1816q81 0 140 -57t59 -138q0 -79 -58 -136q-60 -58 -144 -58
q-85 0 -144 57t-59 137q0 83 61 139q60 56 145 56z" />
    <glyph glyph-name="Ccedilla" unicode="&#xc7;" horiz-adv-x="1200" vert-adv-y="1720" 
d="M866 529h293q-16 -218 -122 -363q-145 -199 -404 -199q-8 0 -30 1l-27 -72q24 11 52 11q87 0 144 -44q50 -39 50 -107q0 -71 -53 -116q-57 -50 -157 -50q-108 0 -160 56q-24 25 -28 55h130q7 -31 52 -31q66 0 66 79q0 78 -67 78q-37 0 -48 -27h-126l66 181
q-115 27 -201 97q-115 94 -180 260q-60 154 -60 342q0 325 171 530q157 187 408 187q270 0 420 -216q85 -124 96 -275h-290q-14 79 -43 130q-65 111 -187 111q-136 0 -208 -130q-74 -133 -74 -335q0 -204 77 -340q71 -125 203 -125q114 0 175 99q46 76 62 213z" />
    <glyph glyph-name="Eacute" unicode="&#xc9;" horiz-adv-x="1065" vert-adv-y="1720" 
d="M106 0v1365h871v-250h-578v-292h528v-238h-528v-335h590v-250h-883zM817 1720l-198 -246h-233l184 246h247z" />
    <glyph glyph-name="Ntilde" unicode="&#xd1;" horiz-adv-x="1218" vert-adv-y="1720" 
d="M106 0v1365h296l428 -878v878h281v-1365h-293l-431 877v-877h-281zM917 1734q-37 -254 -204 -254q-34 0 -51 8l-63 29q-93 40 -107 40q-43 0 -59 -82h-134l2 15q12 86 54 146q63 90 141 90q44 0 118 -35q76 -36 105 -36q28 0 43 26q10 16 22 53h133z" />
    <glyph glyph-name="Odieresis" unicode="&#xd6;" horiz-adv-x="1278" vert-adv-y="1720" 
d="M649 1396q236 0 393 -176q179 -199 179 -538q0 -290 -135 -485q-80 -115 -202 -176q-109 -54 -243 -54q-289 0 -452 235q-132 190 -132 478q0 338 171 532q162 184 421 184zM636 1146q-132 0 -206 -127q-80 -138 -80 -334q0 -205 79 -341q36 -62 106 -100q51 -27 108 -27
q83 0 150 58t104 184q31 106 31 225q0 200 -78 335q-74 127 -214 127zM928 1693v-246h-238v246h238zM586 1693v-246h-237v246h237z" />
    <glyph glyph-name="Udieresis" unicode="&#xdc;" horiz-adv-x="1196" vert-adv-y="1720" 
d="M90 1365h281v-795q0 -195 54 -272q58 -81 178 -81q130 0 177 111q33 76 33 243v794h293v-779q0 -184 -26 -279q-45 -163 -162 -252q-116 -88 -321 -88q-294 0 -421 198q-55 87 -74 209q-12 78 -12 216v775zM888 1693v-246h-238v246h238zM546 1693v-246h-237v246h237z" />
    <glyph glyph-name="aacute" unicode="&#xe1;" horiz-adv-x="980" vert-adv-y="1720" 
d="M962 190v-178q-53 -24 -113 -24q-121 0 -184 102q-47 -49 -85 -71q-82 -48 -202 -48q-137 0 -218 64q-98 77 -98 212q0 148 111 234q82 64 238 81q68 7 207 11v75q0 147 -125 147q-117 0 -128 -143h-268q8 149 104 231q103 88 293 88q226 0 328 -108q53 -55 65 -147
q4 -35 4 -141v-315q0 -54 12 -67q13 -14 29 -14q10 0 30 11zM618 429q-98 -4 -153 -19q-122 -32 -122 -142q0 -49 27 -78q24 -26 69 -26q93 0 145 88q34 56 34 127v50zM762 1365l-199 -273h-205l184 273h220z" />
    <glyph glyph-name="agrave" unicode="&#xe0;" horiz-adv-x="980" vert-adv-y="1720" 
d="M962 190v-178q-53 -24 -113 -24q-121 0 -184 102q-47 -49 -85 -71q-82 -48 -202 -48q-137 0 -218 64q-98 77 -98 212q0 148 111 234q82 64 238 81q68 7 207 11v75q0 147 -125 147q-117 0 -128 -143h-268q8 149 104 231q103 88 293 88q226 0 328 -108q53 -55 65 -147
q4 -35 4 -141v-315q0 -54 12 -67q13 -14 29 -14q10 0 30 11zM618 429q-98 -4 -153 -19q-122 -32 -122 -142q0 -49 27 -78q24 -26 69 -26q93 0 145 88q34 56 34 127v50zM220 1365h221l183 -273h-205z" />
    <glyph glyph-name="acircumflex" unicode="&#xe2;" horiz-adv-x="980" vert-adv-y="1720" 
d="M962 190v-178q-53 -24 -113 -24q-121 0 -184 102q-47 -49 -85 -71q-82 -48 -202 -48q-137 0 -218 64q-98 77 -98 212q0 148 111 234q82 64 238 81q68 7 207 11v75q0 147 -125 147q-117 0 -128 -143h-268q8 149 104 231q103 88 293 88q226 0 328 -108q53 -55 65 -147
q4 -35 4 -141v-315q0 -54 12 -67q13 -14 29 -14q10 0 30 11zM618 429q-98 -4 -153 -19q-122 -32 -122 -142q0 -49 27 -78q24 -26 69 -26q93 0 145 88q34 56 34 127v50zM787 1092h-205l-95 147l-95 -147h-197l182 273h228z" />
    <glyph glyph-name="adieresis" unicode="&#xe4;" horiz-adv-x="980" vert-adv-y="1720" 
d="M962 190v-178q-53 -24 -113 -24q-121 0 -184 102q-47 -49 -85 -71q-82 -48 -202 -48q-137 0 -218 64q-98 77 -98 212q0 148 111 234q82 64 238 81q68 7 207 11v75q0 147 -125 147q-117 0 -128 -143h-268q8 149 104 231q103 88 293 88q226 0 328 -108q53 -55 65 -147
q4 -35 4 -141v-315q0 -54 12 -67q13 -14 29 -14q10 0 30 11zM618 429q-98 -4 -153 -19q-122 -32 -122 -142q0 -49 27 -78q24 -26 69 -26q93 0 145 88q34 56 34 127v50zM781 1324v-246h-238v246h238zM439 1324v-246h-237v246h237z" />
    <glyph glyph-name="atilde" unicode="&#xe3;" horiz-adv-x="980" vert-adv-y="1720" 
d="M962 190v-178q-53 -24 -113 -24q-121 0 -184 102q-47 -49 -85 -71q-82 -48 -202 -48q-137 0 -218 64q-98 77 -98 212q0 148 111 234q82 64 238 81q68 7 207 11v75q0 147 -125 147q-117 0 -128 -143h-268q8 149 104 231q103 88 293 88q226 0 328 -108q53 -55 65 -147
q4 -35 4 -141v-315q0 -54 12 -67q13 -14 29 -14q10 0 30 11zM618 429q-98 -4 -153 -19q-122 -32 -122 -142q0 -49 27 -78q24 -26 69 -26q93 0 145 88q34 56 34 127v50zM781 1359q-34 -254 -187 -254q-42 0 -91 22q-15 7 -76 42q-26 15 -45 15q-39 0 -54 -85h-126
q8 64 24 109q30 83 85 122q35 25 78 25q44 0 111 -35q72 -39 101 -39q31 0 54 78h126z" />
    <glyph glyph-name="aring" unicode="&#xe5;" horiz-adv-x="980" vert-adv-y="1720" 
d="M962 190v-178q-53 -24 -113 -24q-121 0 -184 102q-47 -49 -85 -71q-82 -48 -202 -48q-137 0 -218 64q-98 77 -98 212q0 148 111 234q82 64 238 81q68 7 207 11v75q0 147 -125 147q-117 0 -128 -143h-268q8 149 104 231q103 88 293 88q226 0 328 -108q53 -55 65 -147
q4 -35 4 -141v-315q0 -54 12 -67q13 -14 29 -14q10 0 30 11zM618 429q-98 -4 -153 -19q-122 -32 -122 -142q0 -49 27 -78q24 -26 69 -26q93 0 145 88q34 56 34 127v50zM490 1349q-34 0 -59 -26t-25 -65q0 -37 25 -64q24 -26 60 -26t61 27q24 27 24 63q0 38 -25 65
q-25 26 -61 26zM492 1465q82 0 141 -59q59 -60 59 -145q0 -83 -58 -142q-60 -61 -145 -61q-86 0 -145 59q-59 60 -59 144q0 87 61 146q60 58 146 58z" />
    <glyph glyph-name="ccedilla" unicode="&#xe7;" horiz-adv-x="942" vert-adv-y="1720" 
d="M639 362h271q-18 -173 -130 -282q-114 -110 -297 -109l-28 -79q23 12 57 12q82 0 133 -43q47 -41 47 -105q0 -70 -50 -116q-54 -50 -152 -50q-105 0 -156 56q-23 25 -27 55h126q7 -31 50 -31q67 0 67 77q0 36 -18 59q-18 21 -49 21q-37 0 -47 -27h-127l64 183
q-83 21 -146 68q-182 136 -182 414q0 246 141 386q121 120 309 120q220 0 334 -146q68 -89 79 -214h-275q-25 164 -138 164q-81 0 -124 -82q-45 -85 -45 -224q0 -143 48 -229q41 -72 117 -72q84 0 124 95q18 41 24 99z" />
    <glyph glyph-name="eacute" unicode="&#xe9;" horiz-adv-x="961" vert-adv-y="1720" 
d="M916 403h-591q12 -244 165 -244q103 0 146 134h266q-19 -83 -71 -156q-117 -166 -337 -166q-202 0 -321 129q-128 138 -128 366q0 212 116 353q125 152 323 152q159 0 270 -101q117 -108 149 -309q10 -65 13 -158zM635 571q-5 65 -23 110q-19 49 -59 79q-30 23 -69 23
q-87 0 -129 -95q-22 -48 -28 -117h308zM752 1365l-199 -273h-205l184 273h220z" />
    <glyph glyph-name="egrave" unicode="&#xe8;" horiz-adv-x="961" vert-adv-y="1720" 
d="M916 403h-591q12 -244 165 -244q103 0 146 134h266q-19 -83 -71 -156q-117 -166 -337 -166q-202 0 -321 129q-128 138 -128 366q0 212 116 353q125 152 323 152q159 0 270 -101q117 -108 149 -309q10 -65 13 -158zM635 571q-5 65 -23 110q-19 49 -59 79q-30 23 -69 23
q-87 0 -129 -95q-22 -48 -28 -117h308zM209 1365h221l183 -273h-205z" />
    <glyph glyph-name="ecircumflex" unicode="&#xea;" horiz-adv-x="961" vert-adv-y="1720" 
d="M916 403h-591q12 -244 165 -244q103 0 146 134h266q-19 -83 -71 -156q-117 -166 -337 -166q-202 0 -321 129q-128 138 -128 366q0 212 116 353q125 152 323 152q159 0 270 -101q117 -108 149 -309q10 -65 13 -158zM635 571q-5 65 -23 110q-19 49 -59 79q-30 23 -69 23
q-87 0 -129 -95q-22 -48 -28 -117h308zM776 1092h-205l-95 147l-95 -147h-197l182 273h228z" />
    <glyph glyph-name="edieresis" unicode="&#xeb;" horiz-adv-x="961" vert-adv-y="1720" 
d="M916 403h-591q12 -244 165 -244q103 0 146 134h266q-19 -83 -71 -156q-117 -166 -337 -166q-202 0 -321 129q-128 138 -128 366q0 212 116 353q125 152 323 152q159 0 270 -101q117 -108 149 -309q10 -65 13 -158zM635 571q-5 65 -23 110q-19 49 -59 79q-30 23 -69 23
q-87 0 -129 -95q-22 -48 -28 -117h308zM770 1324v-246h-238v246h238zM428 1324v-246h-237v246h237z" />
    <glyph glyph-name="iacute" unicode="&#xed;" horiz-adv-x="472" vert-adv-y="1720" 
d="M94 0v942h281v-942h-281zM506 1365l-199 -273h-205l184 273h220z" />
    <glyph glyph-name="igrave" unicode="&#xec;" horiz-adv-x="472" vert-adv-y="1720" 
d="M97 0v942h281v-942h-281zM-34 1365h221l183 -273h-205z" />
    <glyph glyph-name="icircumflex" unicode="&#xee;" horiz-adv-x="475" vert-adv-y="1720" 
d="M98 0v942h281v-942h-281zM534 1092h-205l-95 147l-95 -147h-197l182 273h228z" />
    <glyph glyph-name="idieresis" unicode="&#xef;" horiz-adv-x="475" vert-adv-y="1720" 
d="M97 0v942h281v-942h-281zM475 1324v-246h-187v246h187zM185 1324v-246h-185v246h185z" />
    <glyph glyph-name="ntilde" unicode="&#xf1;" horiz-adv-x="1002" vert-adv-y="1720" 
d="M90 0v942h271v-87q92 116 246 116q178 0 259 -126q50 -78 50 -244v-601h-281v557q0 98 -19 138q-29 63 -96 63q-89 0 -129 -101q-20 -52 -20 -193v-464h-281zM791 1359q-34 -254 -187 -254q-42 0 -91 22q-15 7 -76 42q-26 15 -45 15q-39 0 -54 -85h-126q8 64 24 109
q30 83 85 122q35 25 78 25q44 0 111 -35q72 -39 101 -39q31 0 54 78h126z" />
    <glyph glyph-name="oacute" unicode="&#xf3;" horiz-adv-x="992" vert-adv-y="1720" 
d="M505 971q192 0 316 -133q126 -135 126 -366q0 -239 -134 -376q-122 -125 -316 -125q-206 0 -330 140q-122 136 -122 359q0 219 118 355q126 146 342 146zM493 774q-78 0 -123 -85q-44 -83 -44 -217q0 -140 44 -221q45 -83 127 -83q78 0 121 76q48 84 48 227
q0 137 -43 216q-46 87 -130 87zM767 1365l-199 -273h-205l184 273h220z" />
    <glyph glyph-name="ograve" unicode="&#xf2;" horiz-adv-x="992" vert-adv-y="1720" 
d="M505 971q192 0 316 -133q126 -135 126 -366q0 -239 -134 -376q-122 -125 -316 -125q-206 0 -330 140q-122 136 -122 359q0 219 118 355q126 146 342 146zM493 774q-78 0 -123 -85q-44 -83 -44 -217q0 -140 44 -221q45 -83 127 -83q78 0 121 76q48 84 48 227
q0 137 -43 216q-46 87 -130 87zM225 1365h221l183 -273h-205z" />
    <glyph glyph-name="ocircumflex" unicode="&#xf4;" horiz-adv-x="992" vert-adv-y="1720" 
d="M505 971q192 0 316 -133q126 -135 126 -366q0 -239 -134 -376q-122 -125 -316 -125q-206 0 -330 140q-122 136 -122 359q0 219 118 355q126 146 342 146zM493 774q-78 0 -123 -85q-44 -83 -44 -217q0 -140 44 -221q45 -83 127 -83q78 0 121 76q48 84 48 227
q0 137 -43 216q-46 87 -130 87zM792 1092h-205l-95 147l-95 -147h-197l182 273h228z" />
    <glyph glyph-name="odieresis" unicode="&#xf6;" horiz-adv-x="992" vert-adv-y="1720" 
d="M505 971q192 0 316 -133q126 -135 126 -366q0 -239 -134 -376q-122 -125 -316 -125q-206 0 -330 140q-122 136 -122 359q0 219 118 355q126 146 342 146zM493 774q-78 0 -123 -85q-44 -83 -44 -217q0 -140 44 -221q45 -83 127 -83q78 0 121 76q48 84 48 227
q0 137 -43 216q-46 87 -130 87zM786 1324v-246h-238v246h238zM444 1324v-246h-237v246h237z" />
    <glyph glyph-name="otilde" unicode="&#xf5;" horiz-adv-x="992" vert-adv-y="1720" 
d="M505 971q192 0 316 -133q126 -135 126 -366q0 -239 -134 -376q-122 -125 -316 -125q-206 0 -330 140q-122 136 -122 359q0 219 118 355q126 146 342 146zM493 774q-78 0 -123 -85q-44 -83 -44 -217q0 -140 44 -221q45 -83 127 -83q78 0 121 76q48 84 48 227
q0 137 -43 216q-46 87 -130 87zM786 1359q-34 -254 -187 -254q-42 0 -91 22q-15 7 -76 42q-26 15 -45 15q-39 0 -54 -85h-126q8 64 24 109q30 83 85 122q35 25 78 25q44 0 111 -35q72 -39 101 -39q31 0 54 78h126z" />
    <glyph glyph-name="uacute" unicode="&#xfa;" horiz-adv-x="1002" vert-adv-y="1720" 
d="M912 942v-942h-271v87q-92 -116 -246 -116q-178 0 -259 126q-50 79 -50 244v601h281v-557q0 -98 19 -138q29 -63 96 -63q89 0 128 101q21 53 21 193v464h281zM772 1365l-199 -273h-205l184 273h220z" />
    <glyph glyph-name="ugrave" unicode="&#xf9;" horiz-adv-x="1002" vert-adv-y="1720" 
d="M912 942v-942h-271v87q-92 -116 -246 -116q-178 0 -259 126q-50 79 -50 244v601h281v-557q0 -98 19 -138q29 -63 96 -63q89 0 128 101q21 53 21 193v464h281zM230 1365h221l183 -273h-205z" />
    <glyph glyph-name="ucircumflex" unicode="&#xfb;" horiz-adv-x="1002" vert-adv-y="1720" 
d="M912 942v-942h-271v87q-92 -116 -246 -116q-178 0 -259 126q-50 79 -50 244v601h281v-557q0 -98 19 -138q29 -63 96 -63q89 0 128 101q21 53 21 193v464h281zM797 1092h-205l-95 147l-95 -147h-197l182 273h228z" />
    <glyph glyph-name="udieresis" unicode="&#xfc;" horiz-adv-x="1002" vert-adv-y="1720" 
d="M912 942v-942h-271v87q-92 -116 -246 -116q-178 0 -259 126q-50 79 -50 244v601h281v-557q0 -98 19 -138q29 -63 96 -63q89 0 128 101q21 53 21 193v464h281zM791 1324v-246h-238v246h238zM449 1324v-246h-237v246h237z" />
    <glyph glyph-name="dagger" unicode="&#x2020;" horiz-adv-x="993" vert-adv-y="1720" 
d="M912 992v-236h-298v-1106h-240v1106h-294v236h294v373h240v-373h298z" />
    <glyph glyph-name="degree" unicode="&#xb0;" vert-adv-y="1720" 
d="M518 1375q132 0 228 -101q87 -91 87 -219q0 -137 -96 -231q-93 -92 -223 -92q-143 0 -239 105q-83 91 -83 215q0 152 109 244q94 79 217 79zM509 1229q-62 0 -109 -46q-56 -55 -56 -129q0 -65 41 -115q50 -61 128 -61q66 0 116 49q53 52 53 124q0 73 -47 123
q-52 55 -126 55z" />
    <glyph glyph-name="cent" unicode="&#xa2;" horiz-adv-x="970" vert-adv-y="1720" 
d="M564 997v-614q55 23 88 92q22 47 28 106h257q-19 -173 -134 -283q-97 -89 -239 -105v-152h-132v153q-116 16 -199 75q-188 137 -188 415q0 198 93 328q106 149 294 173v139h132v-139q130 -15 220 -79q139 -103 151 -277h-262q-19 135 -109 168zM432 987
q-133 -73 -133 -300q0 -148 63 -239q22 -31 70 -59v598z" />
    <glyph glyph-name="sterling" unicode="&#xa3;" horiz-adv-x="921" vert-adv-y="1720" 
d="M18 533v199h147q-12 18 -33 48q-89 131 -89 261q0 161 125 262q109 89 278 89q262 0 360 -181q46 -86 49 -198h-253q-5 146 -155 146q-71 0 -107 -39q-39 -43 -39 -103q0 -76 77 -190q46 -68 62 -95h285v-199h-237q-7 -87 -53 -172q-26 -44 -126 -164q91 63 138 63
q29 0 81 -40q30 -23 58 -23q80 0 91 120h216q-9 -153 -64 -239q-68 -107 -197 -107q-68 0 -156 43q-69 33 -132 33q-77 0 -152 -41q-19 -10 -58 -33l-107 172q212 144 212 332q0 23 -4 56h-217z" />
    <glyph glyph-name="section" unicode="&#xa7;" horiz-adv-x="1010" vert-adv-y="1720" 
d="M860 1047h-225q-8 151 -119 151q-47 0 -78 -29q-35 -34 -35 -93q0 -46 22 -76q25 -33 127 -93q242 -142 311 -210q84 -81 84 -212q0 -88 -38 -165q-42 -83 -134 -130q89 -96 89 -218q0 -151 -105 -248q-101 -93 -263 -93q-249 0 -326 206q-27 72 -27 163h224q1 -6 2 -13
q13 -150 122 -150q66 0 99 57q19 32 19 81q0 53 -34 96q-41 50 -228 161q-182 109 -231 186q-53 84 -53 187q0 155 111 241q26 20 64 34q-70 83 -70 193q0 131 85 220q99 103 263 103q151 0 244 -91q97 -95 100 -258zM358 753q-73 -30 -73 -123q0 -48 27 -82
q32 -42 216 -159q46 -29 60 -40q41 -29 61 -39q25 12 41 37q33 49 33 101q0 33 -13 61q-16 31 -74 69q-16 10 -59 40q-55 37 -150 94q-52 32 -69 41z" />
    <glyph glyph-name="bullet" unicode="&#x2022;" horiz-adv-x="1365" vert-adv-y="1720" 
d="M689 978q113 0 196 -83q84 -83 84 -201t-84 -201q-82 -83 -200 -83t-200 83q-84 83 -84 200q0 121 84 202q85 83 204 83z" />
    <glyph glyph-name="paragraph" unicode="&#xb6;" horiz-adv-x="1184" vert-adv-y="1720" 
d="M463 -232v885q-19 -1 -28 -1q-130 0 -220 80q-109 96 -109 271q0 122 56 212q63 100 189 134q62 16 175 16h481v-115h-93v-1482h-161v1482h-129v-1482h-161z" />
    <glyph glyph-name="germandbls" unicode="&#xdf;" horiz-adv-x="1046" vert-adv-y="1720" 
d="M403 0h-281v758h-117v184h117q2 149 26 218q46 131 178 192q97 45 207 45q151 0 261 -86q105 -81 105 -210q0 -89 -69 -181q-39 -52 -49 -76q-11 -30 -11 -56q0 -41 28 -83q15 -21 64 -69q132 -129 132 -279q0 -117 -74 -218q-116 -159 -349 -159q-47 0 -98 8v221
q33 -10 61 -10q76 0 126 42q56 47 56 138q0 76 -39 136q-18 26 -62 72q-60 62 -79 96q-25 43 -25 91q0 74 66 168q57 82 57 143q0 53 -30 83q-31 31 -77 31q-69 0 -104 -78q-20 -44 -20 -184v-937z" />
    <glyph glyph-name="registered" unicode="&#xae;" horiz-adv-x="1412" vert-adv-y="1720" 
d="M702 1254q-136 0 -257 -84q-117 -81 -181 -220q-59 -127 -59 -268q0 -236 146 -404q145 -167 353 -167q212 0 359 171q143 166 143 398q0 239 -146 407q-146 167 -358 167zM716 1386q180 0 337 -113q144 -104 222 -273q68 -151 68 -319q0 -285 -183 -491
q-186 -210 -456 -210q-265 0 -449 205q-85 94 -134 218q-53 135 -53 277q0 204 99 379q92 162 249 250q138 77 300 77zM402 273v819h323q126 0 197 -55q81 -64 81 -180q0 -126 -97 -195q34 -20 56 -55q19 -30 27 -88q4 -23 11 -119q5 -68 16 -90q4 -7 22 -37h-211
q-13 30 -17 58q-2 14 -7 101q-7 102 -38 130q-21 21 -78 21h-85v-310h-200zM602 739h81q73 0 97 29q23 26 23 69q0 53 -36 77q-22 15 -80 15h-85v-190z" />
    <glyph glyph-name="copyright" unicode="&#xa9;" horiz-adv-x="1412" vert-adv-y="1720" 
d="M839 607h199q-7 -99 -35 -162q-85 -191 -293 -191q-152 0 -243 104q-108 125 -108 323q0 194 104 317q97 113 251 113q167 0 259 -131q54 -77 60 -181h-197q-24 140 -124 140q-73 0 -111 -68q-42 -75 -42 -188q0 -116 44 -191q38 -66 106 -66q76 0 107 75q16 40 23 106z
M702 1254q-136 0 -257 -84q-117 -81 -181 -220q-59 -127 -59 -268q0 -236 146 -404q145 -167 353 -167q212 0 359 171q143 166 143 398q0 239 -146 407q-146 167 -358 167zM716 1386q180 0 337 -113q144 -104 222 -273q68 -151 68 -319q0 -285 -183 -491
q-186 -210 -456 -210q-265 0 -449 205q-85 94 -134 218q-53 135 -53 277q0 204 99 379q92 162 249 250q138 77 300 77z" />
    <glyph glyph-name="trademark" unicode="&#x2122;" horiz-adv-x="1481" vert-adv-y="1720" 
d="M202 546v647h-195v172h592v-172h-197v-647h-200zM655 546v819h258l133 -502l129 502h257v-819h-193v453l-113 -453h-162l-116 450v-450h-193z" />
    <glyph glyph-name="acute" unicode="&#xb4;" vert-adv-y="1720" 
d="M783 1365l-199 -273h-205l184 273h220z" />
    <glyph glyph-name="dieresis" unicode="&#xa8;" vert-adv-y="1720" 
d="M802 1324v-246h-238v246h238zM460 1324v-246h-237v246h237z" />
    <glyph glyph-name="notequal" unicode="&#x2260;" vert-adv-y="1720" 
d="M357 235l-161 93l56 97h-211v187h319l89 155h-408v187h516l110 190l162 -93l-56 -97h210v-187h-318l-89 -155h407v-187h-515z" />
    <glyph glyph-name="AE" unicode="&#xc6;" horiz-adv-x="1610" vert-adv-y="1720" 
d="M720 305h-331l-114 -305h-287l545 1365h990v-250h-537v-292h487v-238h-487v-335h549v-250h-815v305zM720 526v596h-24l-224 -596h248z" />
    <glyph glyph-name="Oslash" unicode="&#xd8;" horiz-adv-x="1278" vert-adv-y="1720" 
d="M313 -33h-206l115 192q-165 198 -165 523q0 334 171 531q160 184 412 184q154 0 282 -76l46 76h203l-115 -192q165 -201 165 -523q0 -290 -135 -485q-80 -115 -202 -175q-109 -55 -243 -55q-153 0 -283 75zM779 1101q-64 46 -139 46q-136 0 -210 -127q-80 -138 -80 -335
q0 -136 42 -259zM502 265q71 -48 140 -48q84 0 151 58t104 184q31 106 31 227q0 136 -41 251z" />
    <glyph glyph-name="infinity" unicode="&#x221e;" horiz-adv-x="1365" vert-adv-y="1720" 
d="M687 564q-48 -59 -88 -96q-105 -96 -243 -96q-144 0 -236 98q-84 89 -84 228q0 142 91 231q91 90 228 90q177 0 323 -191q146 190 331 190q153 0 245 -106q75 -87 75 -216q0 -142 -88 -231q-91 -92 -231 -92q-130 0 -236 96q-41 36 -87 95zM781 697l10 -14l4 -6
q85 -125 186 -125q59 0 99 40q42 41 42 103q0 66 -46 107q-40 36 -96 36q-81 0 -152 -81q-17 -20 -33 -43zM583 695q-4 6 -9 13l-4 6q-85 126 -188 126q-59 0 -98 -39q-41 -41 -41 -106q0 -67 45 -107q40 -36 96 -36q82 0 153 82q10 12 46 61z" />
    <glyph glyph-name="plusminus" unicode="&#xb1;" vert-adv-y="1720" 
d="M41 870h374v347h195v-347h373v-187h-373v-348h-195v348h-374v187zM41 187h942v-187h-942v187z" />
    <glyph glyph-name="lessequal" unicode="&#x2264;" vert-adv-y="1720" 
d="M955 1318v-285l-554 -180l554 -178v-285l-887 336v256zM955 334v-267h-887v267h887z" />
    <glyph glyph-name="greaterequal" unicode="&#x2265;" vert-adv-y="1720" 
d="M68 1318l887 -336v-256l-887 -336v285l554 178l-554 180v285zM68 334h887v-267h-887v267z" />
    <glyph glyph-name="yen" unicode="&#xa5;" horiz-adv-x="1131" vert-adv-y="1720" 
d="M700 0h-268v227h-292v177h292v96h-292v177h292l-350 688h307l180 -396l180 396h301l-348 -688h289v-177h-291v-96h291v-177h-291v-227z" />
    <glyph glyph-name="mu" unicode="&#xb5;" horiz-adv-x="1002" vert-adv-y="1720" 
d="M367 -28v-327h-281v1297h281v-557q0 -98 19 -138q29 -63 96 -63q89 0 128 101q21 53 21 193v464h281v-942h-271v87q-93 -116 -240 -116q-12 0 -34 1z" />
    <glyph glyph-name="partialdiff" unicode="&#x2202;" horiz-adv-x="992" vert-adv-y="1720" 
d="M293 1297l132 97q138 -81 263 -229q112 -132 182 -311q77 -197 77 -386q0 -235 -134 -372q-122 -125 -316 -125q-206 0 -330 140q-122 136 -122 361q0 217 118 353q126 146 331 146q27 0 53 -9q-96 203 -254 335zM493 774q-78 0 -123 -85q-44 -83 -44 -217
q0 -140 44 -221q45 -83 127 -83q78 0 121 76q48 84 48 227q0 137 -43 216q-46 87 -130 87z" />
    <glyph glyph-name="summation" unicode="&#x2211;" horiz-adv-x="1365" vert-adv-y="1720" 
d="M1270 1536v-520h-261l-31 254h-585l496 -726l-494 -790h602l17 263h275v-529h-1220v306l478 750l-478 686v306h1201z" />
    <glyph glyph-name="product" unicode="&#x220f;" horiz-adv-x="1365" vert-adv-y="1720" 
d="M39 1536h1287v-232h-148v-1584h148v-232h-541v232h134v1584h-473v-1584h131v-232h-538v232h150v1584h-150v232z" />
    <glyph glyph-name="glyph155" horiz-adv-x="300" vert-adv-y="1720" 
 />
    <glyph glyph-name="integral" unicode="&#x222b;" vert-adv-y="1720" 
d="M99 -491l49 273q50 -20 86 -20q50 0 83 28q35 30 38 94q2 41 2 167v869q0 121 2 214q2 132 36 203q54 117 174 167q75 32 183 32q61 0 173 -21l-49 -273q-51 20 -89 20q-73 0 -102 -54q-18 -33 -18 -141v-1044q0 -205 -19 -283q-27 -107 -130 -179q-100 -71 -289 -71
q-54 0 -107 14q-13 3 -23 5z" />
    <glyph glyph-name="ordfeminine" unicode="&#xaa;" horiz-adv-x="578" vert-adv-y="1720" 
d="M581 692v-127q-41 -26 -82 -26q-68 0 -109 52q-66 -62 -167 -62q-85 0 -137 40q-63 49 -63 133q0 91 71 143q53 38 147 47q37 4 110 6v38q0 72 -60 72q-36 0 -51 -24q-10 -15 -12 -53h-185q9 206 248 206q139 0 204 -67q34 -35 41 -93q3 -21 3 -84v-182q0 -33 14 -33
q10 0 28 14zM351 794q-58 -4 -84 -13q-51 -17 -51 -66q0 -47 43 -47q47 0 74 44q18 30 18 68v14z" />
    <glyph glyph-name="ordmasculine" unicode="&#xba;" horiz-adv-x="585" vert-adv-y="1720" 
d="M298 1137q120 0 197 -81q78 -83 78 -223q0 -143 -83 -227q-76 -77 -196 -77q-128 0 -206 86q-75 83 -75 218q0 133 73 215q80 89 212 89zM291 996q-38 0 -61 -42q-24 -46 -24 -121q0 -78 24 -122q23 -41 64 -41q37 0 59 38q27 45 27 125q0 76 -24 120q-23 43 -65 43z" />
    <glyph glyph-name="Omega" unicode="&#x2126;" horiz-adv-x="1278" vert-adv-y="1720" 
d="M67 0v251h207q-217 181 -217 495q0 282 176 472q165 178 403 178q245 0 412 -181q172 -186 172 -468q0 -316 -217 -496h207v-251h-496v232q88 57 137 148q76 141 76 320q0 186 -82 317q-79 127 -203 127q-129 0 -211 -127q-81 -127 -81 -318q0 -221 103 -365
q43 -60 110 -102v-232h-496z" />
    <glyph glyph-name="ae" unicode="&#xe6;" horiz-adv-x="1504" vert-adv-y="1720" 
d="M1460 409h-591q12 -250 165 -250q103 0 146 134h266q-19 -83 -71 -156q-117 -166 -330 -166q-223 0 -331 199q-34 -54 -67 -89q-105 -110 -276 -110q-130 0 -211 64q-98 77 -98 212q0 147 111 233q82 64 238 81q68 7 207 11v76q0 147 -125 147q-117 0 -128 -143h-268
q8 149 104 231q103 88 287 88q186 0 287 -122q107 122 263 122q148 0 260 -100q117 -106 149 -306q10 -63 13 -156zM618 429q-98 -5 -153 -19q-122 -33 -122 -142q0 -49 27 -78q24 -26 69 -26q93 0 145 87q34 57 34 127v51zM1179 570q-5 65 -23 111q-19 49 -59 79
q-30 23 -69 23q-87 0 -129 -95q-22 -49 -28 -118h308z" />
    <glyph glyph-name="oslash" unicode="&#xf8;" horiz-adv-x="992" vert-adv-y="1720" 
d="M229 -29h-182l108 154q-110 138 -110 348q0 216 118 352q127 146 335 146q125 0 228 -57l41 57h178l-106 -153q108 -135 108 -346q0 -238 -134 -375q-122 -126 -315 -126q-126 0 -228 57zM407 204q45 -36 90 -36q78 0 121 76q48 84 48 228q0 54 -8 108zM587 736
q-44 38 -91 38q-81 0 -126 -85q-44 -83 -44 -215q0 -56 8 -114z" />
    <glyph glyph-name="questiondown" unicode="&#xbf;" horiz-adv-x="955" vert-adv-y="1720" 
d="M869 15q0 -8 -1 -22q-8 -157 -105 -252q-112 -110 -305 -110q-177 0 -283 98q-106 99 -106 255q0 120 63 199q48 61 126 120q44 34 61.5 56.5t29.5 61.5q11 34 12 96v11h233v-14q-2 -140 -36 -211q-21 -39 -65 -80q-20 -19 -68 -62q-54 -49 -67 -75q-23 -45 -23 -91
q0 -67 48 -104q30 -23 76 -23q149 0 157 147h253zM624 942v-294h-300v294h300z" />
    <glyph glyph-name="exclamdown" unicode="&#xa1;" horiz-adv-x="546" vert-adv-y="1720" 
d="M139 -355v409l67 472h135l66 -467v-414h-268zM423 942v-294h-300v294h300z" />
    <glyph glyph-name="logicalnot" unicode="&#xac;" vert-adv-y="1720" 
d="M657 0v327h-589v267h887v-594h-298z" />
    <glyph glyph-name="radical" unicode="&#x221a;" horiz-adv-x="1365" vert-adv-y="1720" 
d="M1365 1693v-239h-347l-376 -1454h-336l-126 528h-180v239h345l59 -222q15 -60 44 -290h16q9 59 28 164q34 188 43 222q13 61 67 268l204 784h559z" />
    <glyph glyph-name="florin" unicode="&#x192;" horiz-adv-x="637" vert-adv-y="1720" 
d="M164 758h-132v184h158l12 84q15 105 35 161q77 210 339 210q7 0 119 -7l-29 -204q-43 6 -72 6q-64 0 -85 -46q-13 -27 -22 -96l-16 -108h153v-184h-179l-137 -976h-281z" />
    <glyph glyph-name="approxequal" unicode="&#x2248;" vert-adv-y="1720" 
d="M166 713l-149 104q43 102 86 160q90 119 217 119q67 0 219 -67q130 -57 174 -57q54 0 95 42q24 25 50 68l149 -105q-50 -116 -97 -173q-86 -107 -204 -107q-51 0 -132 32q-38 16 -144 60q-76 32 -121 32q-74 0 -143 -108zM166 271l-149 105q43 102 86 159q90 119 217 119
q68 0 219 -65q129 -56 176 -56q75 0 143 107l149 -104q-51 -117 -97 -174q-86 -107 -204 -107q-51 0 -132 32q-34 14 -144 59q-76 32 -121 32q-74 0 -143 -107z" />
    <glyph glyph-name="Delta" unicode="&#x2206;" horiz-adv-x="1157" vert-adv-y="1720" 
d="M429 1365h300l432 -1365h-1165zM578 997l-220 -776h437z" />
    <glyph glyph-name="guillemotleft" unicode="&#xab;" horiz-adv-x="770" vert-adv-y="1720" 
d="M355 893v-249l-147 -140l147 -134v-243l-273 255v249zM668 890v-248l-145 -136l145 -134v-241l-272 254v248z" />
    <glyph glyph-name="guillemotright" unicode="&#xbb;" horiz-adv-x="770" vert-adv-y="1720" 
d="M414 893l274 -261v-249l-274 -256v242l147 135l-147 139v250zM102 890l270 -257v-248l-270 -254v240l144 135l-144 135v249z" />
    <glyph glyph-name="ellipsis" unicode="&#x2026;" horiz-adv-x="1630" vert-adv-y="1720" 
d="M423 294v-294h-300v294h300zM965 294v-294h-300v294h300zM1507 294v-294h-300v294h300z" />
    <glyph glyph-name="glyph172" horiz-adv-x="1000" vert-adv-y="1000" 
 />
    <glyph glyph-name="Agrave" unicode="&#xc0;" horiz-adv-x="1157" vert-adv-y="1720" 
d="M429 1365h300l432 -1365h-305l-85 305h-389l-86 -305h-300zM445 526h265l-132 471zM294 1720h248l183 -246h-232z" />
    <glyph glyph-name="Atilde" unicode="&#xc3;" horiz-adv-x="1157" vert-adv-y="1720" 
d="M429 1365h300l432 -1365h-305l-85 305h-389l-86 -305h-300zM445 526h265l-132 471zM887 1734q-37 -254 -204 -254q-34 0 -51 8l-63 29q-93 40 -107 40q-43 0 -59 -82h-134l2 15q12 86 54 146q63 90 141 90q44 0 118 -35q76 -36 105 -36q28 0 43 26q10 16 22 53h133z" />
    <glyph glyph-name="Otilde" unicode="&#xd5;" horiz-adv-x="1278" vert-adv-y="1720" 
d="M649 1396q236 0 393 -176q179 -199 179 -538q0 -290 -135 -485q-80 -115 -202 -176q-109 -54 -243 -54q-289 0 -452 235q-132 190 -132 478q0 338 171 532q162 184 421 184zM636 1146q-132 0 -206 -127q-80 -138 -80 -334q0 -205 79 -341q36 -62 106 -100q51 -27 108 -27
q83 0 150 58t104 184q31 106 31 225q0 200 -78 335q-74 127 -214 127zM948 1734q-37 -254 -204 -254q-34 0 -51 8l-63 29q-93 40 -107 40q-43 0 -59 -82h-134l2 15q12 86 54 146q63 90 141 90q44 0 118 -35q76 -36 105 -36q28 0 43 26q10 16 22 53h133z" />
    <glyph glyph-name="OE" unicode="&#x152;" horiz-adv-x="1780" vert-adv-y="1720" 
d="M1693 1365v-250h-551v-292h501v-238h-501v-335h562v-250h-814v111q-119 -144 -295 -144q-166 0 -305 115q-233 194 -233 601q0 334 163 530q78 93 191 143q92 41 190 41q168 0 289 -145v113h803zM623 1147q-126 0 -197 -127q-76 -138 -76 -334q0 -205 75 -342
q34 -62 101 -99q48 -28 103 -28q79 0 143 59q63 58 98 183q30 106 30 225q0 201 -74 335q-70 128 -203 128z" />
    <glyph glyph-name="oe" unicode="&#x153;" horiz-adv-x="1544" vert-adv-y="1720" 
d="M1498 403h-590q11 -244 165 -244q102 0 146 134h266q-20 -83 -71 -156q-118 -166 -329 -166q-194 0 -301 158q-106 -158 -296 -158q-197 0 -321 140q-122 136 -122 361q0 218 118 354q126 145 326 145q191 0 299 -162q105 162 288 162q149 0 260 -101q118 -107 150 -309
q10 -65 12 -158zM493 775q-78 0 -123 -85q-44 -83 -44 -217q0 -141 44 -222q45 -83 127 -83q78 0 121 76q48 84 48 228q0 137 -43 217q-46 86 -130 86zM1218 571q-6 65 -24 110q-19 49 -58 79q-30 23 -70 23q-86 0 -129 -95q-22 -48 -28 -117h309z" />
    <glyph glyph-name="endash" unicode="&#x2013;" horiz-adv-x="996" vert-adv-y="1720" 
d="M895 633v-246h-793v246h793z" />
    <glyph glyph-name="emdash" unicode="&#x2014;" horiz-adv-x="1487" vert-adv-y="1720" 
d="M1400 633v-246h-1310v246h1310z" />
    <glyph glyph-name="quotedblleft" unicode="&#x201c;" horiz-adv-x="942" vert-adv-y="1720" 
d="M123 772v229q0 136 37 212q34 71 119 124q64 39 144 49v-144q-63 -16 -96 -67q-29 -47 -31 -109h127v-294h-300zM519 772v229q0 136 37 212q34 72 119 124q64 39 144 49v-144q-63 -16 -96 -67q-29 -47 -31 -109h127v-294h-300z" />
    <glyph glyph-name="quotedblright" unicode="&#x201d;" horiz-adv-x="942" vert-adv-y="1720" 
d="M423 1365v-228q0 -136 -37 -213q-34 -71 -119 -124q-64 -39 -144 -49v144q63 16 96 67q29 47 31 109h-127v294h300zM819 1365v-228q0 -137 -37 -213q-34 -72 -119 -124q-64 -39 -144 -49v144q63 16 96 67q29 47 31 109h-127v294h300z" />
    <glyph glyph-name="quoteleft" unicode="&#x2018;" horiz-adv-x="546" vert-adv-y="1720" 
d="M123 772v229q0 136 37 212q34 71 119 124q64 39 144 49v-144q-63 -16 -96 -67q-29 -47 -31 -109h127v-294h-300z" />
    <glyph glyph-name="quoteright" unicode="&#x2019;" horiz-adv-x="546" vert-adv-y="1720" 
d="M423 1365v-228q0 -136 -37 -213q-34 -71 -119 -124q-64 -39 -144 -49v144q63 16 96 67q29 47 31 109h-127v294h300z" />
    <glyph glyph-name="divide" unicode="&#xf7;" vert-adv-y="1720" 
d="M612 1131v-229h-200v229h200zM612 477v-229h-200v229h200zM41 783h942v-187h-942v187z" />
    <glyph glyph-name="lozenge" unicode="&#x25ca;" horiz-adv-x="1365" vert-adv-y="1720" 
d="M683 1419l532 -736l-532 -736l-532 736zM683 1237l-404 -554l404 -555l403 555z" />
    <glyph glyph-name="ydieresis" unicode="&#xff;" horiz-adv-x="871" vert-adv-y="1720" 
d="M-16 942h298l162 -606l155 606h289l-303 -957q-42 -130 -79 -194q-57 -96 -162 -128q-59 -18 -146 -18q-59 0 -119 10v215q49 -12 86 -12q122 0 122 110q0 42 -17 95zM726 1324v-246h-238v246h238zM384 1324v-246h-237v246h237z" />
    <glyph glyph-name="Ydieresis" unicode="&#x178;" horiz-adv-x="1131" vert-adv-y="1720" 
d="M-4 1365h326l246 -540l246 540h321l-423 -837v-528h-293v532zM855 1693v-246h-238v246h238zM513 1693v-246h-237v246h237z" />
    <glyph glyph-name="fraction" unicode="&#x2044;" horiz-adv-x="402" vert-adv-y="1720" 
d="M-5 0h-172l588 1365h169z" />
    <glyph glyph-name="currency" unicode="&#xa4;" horiz-adv-x="1460" vert-adv-y="1720" 
d="M90 221l204 205q-78 129 -78 270q0 125 84 273l-211 208l158 158l213 -212q62 33 99 47q82 32 172 32q99 0 192 -41q26 -12 73 -37l212 209l156 -156l-206 -205q86 -141 86 -279q0 -120 -78 -266l205 -205l-156 -158l-204 204q-135 -86 -269 -86q-138 0 -291 86
l-205 -203zM728 946q-99 0 -172 -73q-73 -72 -73 -177q0 -103 73 -177q72 -73 175 -73t175 73q73 73 73 177q0 106 -73 177q-74 73 -178 73z" />
    <glyph glyph-name="guilsinglleft" unicode="&#x2039;" horiz-adv-x="455" vert-adv-y="1720" 
d="M353 891v-248l-144 -136l144 -136v-242l-271 252v252z" />
    <glyph glyph-name="guilsinglright" unicode="&#x203a;" horiz-adv-x="455" vert-adv-y="1720" 
d="M102 891l271 -257v-252l-271 -253v241l144 137l-144 136v248z" />
    <glyph glyph-name="fi" unicode="&#xf001;" horiz-adv-x="1052" vert-adv-y="1720" 
d="M139 0v758h-121v184h121v84q0 106 12 160q47 211 309 211q12 0 120 -7v-204q-42 6 -73 6q-64 0 -79 -46q-8 -27 -8 -96v-108h149v-184h-149v-758h-281zM676 1092v273h281v-273h-281zM676 0v942h281v-942h-281z" />
    <glyph glyph-name="fl" unicode="&#xf002;" horiz-adv-x="1052" vert-adv-y="1720" 
d="M139 0v758h-121v184h121v84q0 106 12 160q47 211 309 211q12 0 120 -7v-204q-42 6 -73 6q-64 0 -79 -46q-8 -27 -8 -96v-108h149v-184h-149v-758h-281zM676 0v1365h281v-1365h-281z" />
    <glyph glyph-name="daggerdbl" unicode="&#x2021;" horiz-adv-x="993" vert-adv-y="1720" 
d="M912 987v-230h-298v-494h298v-230h-298v-383h-240v383h-294v230h294v494h-294v230h294v378h240v-378h298z" />
    <glyph glyph-name="periodcentered" unicode="&#x2219;" horiz-adv-x="546" vert-adv-y="1720" 
d="M423 625v-294h-300v294h300z" />
    <glyph glyph-name="quotesinglbase" unicode="&#x201a;" horiz-adv-x="434" vert-adv-y="1720" 
d="M367 294v-228q0 -136 -37 -213q-34 -71 -119 -124q-64 -39 -144 -48v143q63 16 96 67q29 47 31 109h-127v294h300z" />
    <glyph glyph-name="quotedblbase" unicode="&#x201e;" horiz-adv-x="830" vert-adv-y="1720" 
d="M367 294v-228q0 -136 -37 -213q-34 -71 -119 -124q-64 -39 -144 -48v143q63 16 96 67q29 47 31 109h-127v294h300zM763 294v-228q0 -137 -37 -213q-34 -71 -119 -124q-64 -39 -144 -48v143q63 16 96 67q29 47 31 109h-127v294h300z" />
    <glyph glyph-name="perthousand" unicode="&#x2030;" horiz-adv-x="2610" vert-adv-y="1720" 
d="M383 1383q145 0 242 -106q109 -120 109 -321q0 -174 -82 -290q-99 -139 -274 -139q-177 0 -278 142q-80 113 -80 285q0 202 104 318q100 111 259 111zM376 1211q-71 0 -111 -67q-45 -76 -45 -187q0 -116 45 -191q40 -67 114 -67q69 0 107 62q48 78 48 196q0 112 -44 187
q-40 67 -114 67zM697 0h-179l588 1365h176zM1430 837q145 0 242 -106q109 -120 109 -321q0 -174 -82 -290q-99 -139 -274 -139q-177 0 -278 142q-80 114 -80 285q0 201 104 318q100 111 259 111zM1423 665q-71 0 -111 -67q-45 -76 -45 -187q0 -116 45 -191q40 -67 114 -67
q69 0 107 62q48 78 48 196q0 112 -44 187q-40 67 -114 67zM2239 837q145 0 242 -106q109 -120 109 -321q0 -174 -82 -290q-99 -139 -274 -139q-177 0 -278 142q-80 113 -80 285q0 202 104 318q100 111 259 111zM2232 665q-71 0 -111 -67q-45 -76 -45 -187q0 -116 45 -191
q40 -67 114 -67q69 0 107 62q48 78 48 196q0 112 -44 187q-40 67 -114 67z" />
    <glyph glyph-name="Acircumflex" unicode="&#xc2;" horiz-adv-x="1157" vert-adv-y="1720" 
d="M429 1365h300l432 -1365h-305l-85 305h-389l-86 -305h-300zM445 526h265l-132 471zM886 1475h-225l-86 121l-88 -121h-216l191 259h233z" />
    <glyph glyph-name="Ecircumflex" unicode="&#xca;" horiz-adv-x="1065" vert-adv-y="1720" 
d="M106 0v1365h871v-250h-578v-292h528v-238h-528v-335h590v-250h-883zM840 1475h-225l-86 121l-88 -121h-216l191 259h233z" />
    <glyph glyph-name="Aacute" unicode="&#xc1;" horiz-adv-x="1157" vert-adv-y="1720" 
d="M429 1365h300l432 -1365h-305l-85 305h-389l-86 -305h-300zM445 526h265l-132 471zM863 1720l-198 -246h-233l184 246h247z" />
    <glyph glyph-name="Edieresis" unicode="&#xcb;" horiz-adv-x="1065" vert-adv-y="1720" 
d="M106 0v1365h871v-250h-578v-292h528v-238h-528v-335h590v-250h-883zM822 1693v-246h-238v246h238zM480 1693v-246h-237v246h237z" />
    <glyph glyph-name="Egrave" unicode="&#xc8;" horiz-adv-x="1065" vert-adv-y="1720" 
d="M106 0v1365h871v-250h-578v-292h528v-238h-528v-335h590v-250h-883zM247 1720h248l183 -246h-232z" />
    <glyph glyph-name="Iacute" unicode="&#xcd;" horiz-adv-x="509" vert-adv-y="1720" 
d="M106 0v1365h293v-1365h-293zM537 1720l-198 -246h-233l184 246h247z" />
    <glyph glyph-name="Icircumflex" unicode="&#xce;" horiz-adv-x="512" vert-adv-y="1720" 
d="M110 0v1365h293v-1365h-293zM564 1475h-225l-86 121l-88 -121h-216l191 259h233z" />
    <glyph glyph-name="Idieresis" unicode="&#xcf;" horiz-adv-x="512" vert-adv-y="1720" 
d="M110 0v1365h293v-1365h-293zM512 1693v-246h-205v246h205zM204 1693v-246h-204v246h204z" />
    <glyph glyph-name="Igrave" unicode="&#xcc;" horiz-adv-x="509" vert-adv-y="1720" 
d="M110 0v1365h293v-1365h-293zM-29 1720h248l183 -246h-232z" />
    <glyph glyph-name="Oacute" unicode="&#xd3;" horiz-adv-x="1278" vert-adv-y="1720" 
d="M649 1396q236 0 393 -176q179 -199 179 -538q0 -290 -135 -485q-80 -115 -202 -176q-109 -54 -243 -54q-289 0 -452 235q-132 190 -132 478q0 338 171 532q162 184 421 184zM636 1146q-132 0 -206 -127q-80 -138 -80 -334q0 -205 79 -341q36 -62 106 -100q51 -27 108 -27
q83 0 150 58t104 184q31 106 31 225q0 200 -78 335q-74 127 -214 127zM923 1720l-198 -246h-233l184 246h247z" />
    <glyph glyph-name="Ocircumflex" unicode="&#xd4;" horiz-adv-x="1278" vert-adv-y="1720" 
d="M649 1396q236 0 393 -176q179 -199 179 -538q0 -290 -135 -485q-80 -115 -202 -176q-109 -54 -243 -54q-289 0 -452 235q-132 190 -132 478q0 338 171 532q162 184 421 184zM636 1146q-132 0 -206 -127q-80 -138 -80 -334q0 -205 79 -341q36 -62 106 -100q51 -27 108 -27
q83 0 150 58t104 184q31 106 31 225q0 200 -78 335q-74 127 -214 127zM946 1475h-225l-86 121l-88 -121h-216l191 259h233z" />
    <glyph glyph-name="Euro" unicode="&#x20ac;" horiz-adv-x="1214" vert-adv-y="1720" 
d="M193 460h-177l78 171h78q-1 34 -1 46l1 37v7h-144l78 171h85q11 55 30 109q71 201 223 307q124 86 302 86q213 0 393 -128l-94 -222q-80 63 -127 85q-83 40 -170 40q-169 0 -235 -137q-28 -59 -48 -140h506l-72 -171h-458q-1 -31 -1 -42q0 -19 2 -48h419l-72 -171h-320
q21 -78 49 -133q65 -131 227 -131q84 0 147 34q43 23 105 73l159 -155q-53 -45 -86 -69q-147 -108 -344 -108q-339 0 -486 336q-31 71 -47 153z" />
    <glyph glyph-name="Ograve" unicode="&#xd2;" horiz-adv-x="1278" vert-adv-y="1720" 
d="M649 1396q236 0 393 -176q179 -199 179 -538q0 -290 -135 -485q-80 -115 -202 -176q-109 -54 -243 -54q-289 0 -452 235q-132 190 -132 478q0 338 171 532q162 184 421 184zM636 1146q-132 0 -206 -127q-80 -138 -80 -334q0 -205 79 -341q36 -62 106 -100q51 -27 108 -27
q83 0 150 58t104 184q31 106 31 225q0 200 -78 335q-74 127 -214 127zM354 1720h248l183 -246h-232z" />
    <glyph glyph-name="Uacute" unicode="&#xda;" horiz-adv-x="1196" vert-adv-y="1720" 
d="M90 1365h281v-795q0 -195 54 -272q58 -81 178 -81q130 0 177 111q33 76 33 243v794h293v-779q0 -184 -26 -279q-45 -163 -162 -252q-116 -88 -321 -88q-294 0 -421 198q-55 87 -74 209q-12 78 -12 216v775zM883 1720l-198 -246h-233l184 246h247z" />
    <glyph glyph-name="Ucircumflex" unicode="&#xdb;" horiz-adv-x="1196" vert-adv-y="1720" 
d="M90 1365h281v-795q0 -195 54 -272q58 -81 178 -81q130 0 177 111q33 76 33 243v794h293v-779q0 -184 -26 -279q-45 -163 -162 -252q-116 -88 -321 -88q-294 0 -421 198q-55 87 -74 209q-12 78 -12 216v775zM906 1475h-225l-86 121l-88 -121h-216l191 259h233z" />
    <glyph glyph-name="Ugrave" unicode="&#xd9;" horiz-adv-x="1196" vert-adv-y="1720" 
d="M90 1365h281v-795q0 -195 54 -272q58 -81 178 -81q130 0 177 111q33 76 33 243v794h293v-779q0 -184 -26 -279q-45 -163 -162 -252q-116 -88 -321 -88q-294 0 -421 198q-55 87 -74 209q-12 78 -12 216v775zM313 1720h248l183 -246h-232z" />
    <glyph glyph-name="dotlessi" unicode="&#x131;" horiz-adv-x="469" vert-adv-y="1720" 
d="M94 0v942h281v-942h-281z" />
    <glyph glyph-name="circumflex" unicode="&#x2c6;" vert-adv-y="1720" 
d="M808 1092h-205l-95 147l-95 -147h-197l182 273h228z" />
    <glyph glyph-name="tilde" unicode="&#x2dc;" vert-adv-y="1720" 
d="M802 1359q-34 -254 -187 -254q-42 0 -91 22q-15 7 -76 42q-26 15 -45 15q-39 0 -54 -85h-126q8 64 24 109q30 83 85 122q35 25 78 25q44 0 111 -35q72 -39 101 -39q31 0 54 78h126z" />
    <glyph glyph-name="macron" unicode="&#x2c9;" vert-adv-y="1720" 
d="M788 1277v-146h-552v146h552z" />
    <glyph glyph-name="breve" unicode="&#x2d8;" vert-adv-y="1720" 
d="M378 1365q26 -120 134 -120q109 0 134 120h134q-3 -73 -22 -120q-62 -153 -246 -153q-201 0 -254 178q-11 36 -13 95h133z" />
    <glyph glyph-name="dotaccent" unicode="&#x2d9;" vert-adv-y="1720" 
d="M630 1324v-246h-237v246h237z" />
    <glyph glyph-name="ring" unicode="&#x2da;" vert-adv-y="1720" 
d="M511 1349q-34 0 -59 -26t-25 -65q0 -37 25 -64q24 -26 60 -26t61 27q24 27 24 63q0 38 -25 65q-25 26 -61 26zM513 1465q82 0 141 -59q59 -60 59 -145q0 -83 -58 -142q-60 -61 -145 -61q-86 0 -145 59q-59 60 -59 144q0 87 61 146q60 58 146 58z" />
    <glyph glyph-name="cedilla" unicode="&#xb8;" vert-adv-y="1720" 
d="M377 0h117l-40 -108q24 12 59 12q83 0 136 -43q48 -40 48 -105q0 -71 -52 -116q-56 -50 -154 -50q-108 0 -160 56q-23 25 -28 55h129q7 -31 52 -31q68 0 68 77q0 36 -19 58q-18 22 -49 22q-38 0 -49 -27h-129z" />
    <glyph glyph-name="hungarumlaut" unicode="&#x2dd;" vert-adv-y="1720" 
d="M578 1365l-199 -273h-205l184 273h220zM988 1365l-199 -273h-205l183 273h221z" />
    <glyph glyph-name="ogonek" unicode="&#x2db;" vert-adv-y="1720" 
d="M672 3q-94 -85 -94 -168q0 -51 34 -74q25 -17 59 -17q20 0 72 16v-119l-10 -3q-57 -19 -106 -19q-125 0 -180 83q-30 46 -30 107q0 30 14 56q28 54 78 115q19 23 29 23h134z" />
    <glyph glyph-name="caron" unicode="&#x2c7;" vert-adv-y="1720" 
d="M216 1365h205l95 -147l96 147h196l-182 -273h-228z" />
    <glyph glyph-name="uni00A0" unicode="&#xa0;" horiz-adv-x="300" vert-adv-y="1720" 
 />
    <glyph glyph-name="brokenbar" unicode="&#xa6;" vert-adv-y="1720" 
d="M359 1365h307v-719h-307v719zM359 314h307v-655h-307v655z" />
    <glyph glyph-name="sfthyphen" unicode="&#xad;" horiz-adv-x="453" vert-adv-y="1720" 
d="M453 633v-246h-453v246h453z" />
    <glyph glyph-name="macron" unicode="&#xaf;" vert-adv-y="1720" 
d="M41 1662h942v-187h-942v187z" />
    <glyph glyph-name="twosuperior" unicode="&#xb2;" horiz-adv-x="568" vert-adv-y="1720" 
d="M536 713v-167h-526q1 85 10 126q23 114 99 192q44 43 141 111q60 43 82 80q21 36 21 78q0 34 -18 56q-22 27 -58 27q-72 0 -79 -110h-184q6 117 66 189q73 88 196 88q119 0 190 -72q66 -66 66 -170q0 -110 -73 -189q-42 -45 -138 -110q-110 -73 -124 -129h329z" />
    <glyph glyph-name="threesuperior" unicode="&#xb3;" horiz-adv-x="585" vert-adv-y="1720" 
d="M215 1124h-181q2 107 51 169q70 89 205 89q112 0 180 -65q66 -63 66 -165q0 -113 -82 -170q106 -61 106 -193q0 -111 -75 -184q-77 -76 -203 -76q-119 0 -190 65q-71 64 -74 164v36h182q0 -102 80 -102q41 0 63 27q24 30 24 79q0 50 -27 77q-23 24 -81 24h-37v142h51
q33 0 57 26q24 25 24 73q0 84 -72 84q-65 0 -67 -100z" />
    <glyph glyph-name="periodcentered" unicode="&#xb7;" horiz-adv-x="546" vert-adv-y="1720" 
d="M423 625v-294h-300v294h300z" />
    <glyph glyph-name="onesuperior" unicode="&#xb9;" horiz-adv-x="435" vert-adv-y="1720" 
d="M134 546v550q-35 -30 -104 -30q-7 0 -20 1v146q92 2 124 42q33 43 40 110h146v-819h-186z" />
    <glyph glyph-name="onequarter" unicode="&#xbc;" horiz-adv-x="1377" vert-adv-y="1720" 
d="M134 546v550q-35 -30 -104 -30q-7 0 -20 1v146q92 2 124 42q33 43 40 110h146v-819h-186zM430 0h-172l588 1365h169zM1276 0h-181v171h-280v163l293 485h168v-492h84v-156h-84v-171zM1095 327v206l-112 -206h112z" />
    <glyph glyph-name="onehalf" unicode="&#xbd;" horiz-adv-x="1405" vert-adv-y="1720" 
d="M134 546v550q-35 -30 -104 -30q-7 0 -20 1v146q92 2 124 42q33 43 40 110h146v-819h-186zM430 0h-172l588 1365h169zM1373 167v-167h-526q1 85 10 127q23 114 99 191q43 43 141 112q61 43 82 80q21 36 21 78q0 34 -18 56q-22 27 -58 27q-72 0 -79 -111h-184q6 117 66 190
q72 88 196 88q119 0 190 -72q66 -66 66 -170q0 -112 -73 -190q-43 -46 -138 -110q-74 -51 -100 -81q-18 -23 -24 -48h329z" />
    <glyph glyph-name="threequarters" unicode="&#xbe;" horiz-adv-x="1582" vert-adv-y="1720" 
d="M635 0h-172l587 1365h169zM1481 0h-181v171h-280v163l293 485h168v-492h84v-156h-84v-171zM1300 327v206l-112 -206h112zM215 1124h-181q2 107 51 169q70 89 205 89q112 0 180 -65q66 -63 66 -165q0 -113 -82 -170q106 -61 106 -193q0 -111 -75 -184q-77 -76 -203 -76
q-119 0 -190 65q-71 64 -74 164v36h182q0 -102 80 -102q41 0 63 27q24 30 24 79q0 50 -27 77q-23 24 -81 24h-37v142h51q33 0 57 26q24 25 24 73q0 84 -72 84q-65 0 -67 -100z" />
    <glyph glyph-name="Eth" unicode="&#xd0;" horiz-adv-x="1217" vert-adv-y="1720" 
d="M0 585v238h107v542h421q277 0 437 -148q195 -180 195 -534q0 -338 -184 -526q-100 -103 -231 -134q-93 -23 -219 -23h-419v585h-107zM400 250h131q156 0 227 74q109 114 109 364q0 206 -92 323q-82 104 -253 104h-122v-292h223v-238h-223v-335z" />
    <glyph glyph-name="multiply" unicode="&#xd7;" vert-adv-y="1720" 
d="M779 1089l132 -133l-267 -267l267 -267l-132 -132l-267 267l-267 -267l-132 132l267 267l-267 267l132 133l267 -267z" />
    <glyph glyph-name="Yacute" unicode="&#xdd;" horiz-adv-x="1131" vert-adv-y="1720" 
d="M-4 1365h326l246 -540l246 540h321l-423 -837v-528h-293v532zM850 1720l-198 -246h-233l184 246h247z" />
    <glyph glyph-name="Thorn" unicode="&#xde;" horiz-adv-x="1070" vert-adv-y="1720" 
d="M106 0v1365h293v-232h113q162 0 246 -30q126 -46 195 -159q59 -98 59 -238q0 -235 -167 -360q-116 -88 -328 -88h-118v-258h-293zM399 496h115q117 0 162 55q43 53 43 141q0 100 -61 151q-47 40 -158 40h-101v-387z" />
    <glyph glyph-name="eth" unicode="&#xf0;" horiz-adv-x="992" vert-adv-y="1720" 
d="M293 1297l132 97q64 -37 130 -94l133 94l78 -111l-112 -78q86 -96 144 -199q149 -265 149 -538q0 -235 -134 -372q-122 -125 -316 -125q-206 0 -330 140q-122 136 -122 361q0 217 118 353q126 146 331 146q27 0 53 -9q-34 70 -66 122l-123 -86l-77 110l119 84
q-43 50 -107 105zM493 774q-78 0 -123 -85q-44 -83 -44 -217q0 -140 44 -221q45 -83 127 -83q78 0 121 76q48 84 48 227q0 137 -43 216q-46 87 -130 87z" />
    <glyph glyph-name="yacute" unicode="&#xfd;" horiz-adv-x="871" vert-adv-y="1720" 
d="M-16 942h298l162 -606l155 606h289l-303 -957q-42 -130 -79 -194q-57 -96 -162 -128q-59 -18 -146 -18q-59 0 -119 10v215q49 -12 86 -12q122 0 122 110q0 42 -17 95zM707 1365l-199 -273h-205l184 273h220z" />
    <glyph glyph-name="thorn" unicode="&#xfe;" horiz-adv-x="1028" vert-adv-y="1720" 
d="M90 1365h281v-502q86 108 228 108q185 0 292 -163q92 -140 92 -348q0 -223 -103 -355q-48 -62 -120 -97q-73 -37 -151 -37q-141 0 -238 108v-434h-281v1720zM533 758q-90 0 -135 -97q-37 -78 -37 -192q0 -126 45 -205q46 -80 126 -80q78 0 122 75q48 81 48 211
q0 153 -64 235q-42 53 -105 53z" />
    <glyph glyph-name="Amacron" unicode="&#x100;" horiz-adv-x="1157" vert-adv-y="1720" 
d="M429 1365h300l432 -1365h-305l-85 305h-389l-86 -305h-300zM445 526h265l-132 471zM872 1658v-157h-587v157h587z" />
    <glyph glyph-name="amacron" unicode="&#x101;" horiz-adv-x="980" vert-adv-y="1720" 
d="M962 190v-178q-53 -24 -113 -24q-121 0 -184 102q-47 -49 -85 -71q-82 -48 -202 -48q-137 0 -218 64q-98 77 -98 212q0 148 111 234q82 64 238 81q68 7 207 11v75q0 147 -125 147q-117 0 -128 -143h-268q8 149 104 231q103 88 293 88q226 0 328 -108q53 -55 65 -147
q4 -35 4 -141v-315q0 -54 12 -67q13 -14 29 -14q10 0 30 11zM618 429q-98 -4 -153 -19q-122 -32 -122 -142q0 -49 27 -78q24 -26 69 -26q93 0 145 88q34 56 34 127v50zM767 1277v-146h-552v146h552z" />
    <glyph glyph-name="Abreve" unicode="&#x102;" horiz-adv-x="1157" vert-adv-y="1720" 
d="M429 1365h300l432 -1365h-305l-85 305h-389l-86 -305h-300zM445 526h265l-132 471zM286 1720h139q28 -107 154 -107t153 107h139q-2 -68 -24 -112q-68 -141 -268 -141q-220 0 -278 165q-12 33 -15 88z" />
    <glyph glyph-name="abreve" unicode="&#x103;" horiz-adv-x="980" vert-adv-y="1720" 
d="M962 190v-178q-53 -24 -113 -24q-121 0 -184 102q-47 -49 -85 -71q-82 -48 -202 -48q-137 0 -218 64q-98 77 -98 212q0 148 111 234q82 64 238 81q68 7 207 11v75q0 147 -125 147q-117 0 -128 -143h-268q8 149 104 231q103 88 293 88q226 0 328 -108q53 -55 65 -147
q4 -35 4 -141v-315q0 -54 12 -67q13 -14 29 -14q10 0 30 11zM618 429q-98 -4 -153 -19q-122 -32 -122 -142q0 -49 27 -78q24 -26 69 -26q93 0 145 88q34 56 34 127v50zM357 1365q26 -120 134 -120q109 0 134 120h134q-3 -73 -22 -120q-62 -153 -246 -153q-201 0 -254 178
q-11 36 -13 95h133z" />
    <glyph glyph-name="Aogonek" unicode="&#x104;" horiz-adv-x="1157" vert-adv-y="1720" 
d="M1157 0q-90 -77 -90 -165q0 -50 34 -73q25 -17 59 -17q21 0 71 15v-119l-10 -3q-57 -19 -106 -19q-124 0 -180 83q-28 43 -28 97q0 91 81 168q7 7 35 33h-167l-85 305h-389l-86 -305h-300l433 1365h300l432 -1365h-4zM445 526h265l-132 471z" />
    <glyph glyph-name="aogonek" unicode="&#x105;" horiz-adv-x="980" vert-adv-y="1720" 
d="M934 1q-91 -83 -91 -166q0 -50 34 -73q25 -17 60 -17q21 0 70 15v-119l-10 -3q-57 -19 -106 -19q-124 0 -180 83q-28 43 -28 96q0 96 109 196q-83 18 -127 96q-47 -49 -85 -71q-82 -48 -202 -48q-137 0 -218 64q-98 78 -98 212q0 148 111 234q82 64 238 81q66 7 207 11
v75q0 147 -125 147q-117 0 -128 -143h-268q8 149 104 231q103 88 293 88q226 0 328 -108q53 -55 65 -147q4 -35 4 -141v-315q0 -54 12 -67q13 -14 29 -14q9 0 30 11v-178q-16 -7 -28 -11zM618 429q-98 -4 -152 -19q-57 -15 -88 -49q-35 -39 -35 -92q0 -49 27 -79
q24 -26 69 -26q93 0 145 88q34 57 34 127v50z" />
    <glyph glyph-name="Cacute" unicode="&#x106;" horiz-adv-x="1200" vert-adv-y="1720" 
d="M866 529h293q-16 -217 -122 -363q-145 -199 -408 -199q-249 0 -395 171q-177 209 -177 541q0 326 171 530q157 187 408 187q269 0 419 -216q85 -123 96 -274h-290q-14 79 -43 129q-64 111 -186 111q-136 0 -208 -129q-74 -134 -74 -335q0 -204 77 -340q70 -125 202 -125
q114 0 175 99q46 76 62 213zM884 1720l-198 -246h-233l184 246h247z" />
    <glyph glyph-name="cacute" unicode="&#x107;" horiz-adv-x="942" vert-adv-y="1720" 
d="M908 611h-275q-25 164 -138 164q-81 0 -124 -82q-45 -85 -45 -224q0 -143 48 -229q41 -72 117 -72q84 0 124 95q18 41 24 99h271q-18 -143 -90 -238q-117 -153 -331 -153q-193 0 -313 125q-131 137 -131 369q0 246 141 386q121 120 309 120q220 0 334 -146
q68 -89 79 -214zM743 1365l-199 -273h-205l184 273h220z" />
    <glyph glyph-name="Ccircumflex" unicode="&#x108;" horiz-adv-x="1200" vert-adv-y="1720" 
d="M866 529h293q-16 -217 -122 -363q-145 -199 -408 -199q-249 0 -395 171q-177 209 -177 541q0 326 171 530q157 187 408 187q269 0 419 -216q85 -123 96 -274h-290q-14 79 -43 129q-64 111 -186 111q-136 0 -208 -129q-74 -134 -74 -335q0 -204 77 -340q70 -125 202 -125
q114 0 175 99q46 76 62 213zM940 1475h-225l-86 121l-88 -121h-216l191 259h233z" />
    <glyph glyph-name="Cdotaccent" unicode="&#x10a;" horiz-adv-x="1200" vert-adv-y="1720" 
d="M866 529h293q-16 -217 -122 -363q-145 -199 -408 -199q-249 0 -395 171q-177 209 -177 541q0 326 171 530q157 187 408 187q269 0 419 -216q85 -123 96 -274h-290q-14 79 -43 129q-64 111 -186 111q-136 0 -208 -129q-74 -134 -74 -335q0 -204 77 -340q70 -125 202 -125
q114 0 175 99q46 76 62 213zM750 1693v-246h-237v246h237z" />
    <glyph glyph-name="cdotaccent" unicode="&#x10b;" horiz-adv-x="942" vert-adv-y="1720" 
d="M908 611h-275q-25 164 -138 164q-81 0 -124 -82q-45 -85 -45 -224q0 -143 48 -229q41 -72 117 -72q84 0 124 95q18 41 24 99h271q-18 -143 -90 -238q-117 -153 -331 -153q-193 0 -313 125q-131 137 -131 369q0 246 141 386q121 120 309 120q220 0 334 -146
q68 -89 79 -214zM610 1324v-246h-237v246h237z" />
    <glyph glyph-name="Ccaron" unicode="&#x10c;" horiz-adv-x="1200" vert-adv-y="1720" 
d="M866 529h293q-16 -217 -122 -363q-145 -199 -408 -199q-249 0 -395 171q-177 209 -177 541q0 326 171 530q157 187 408 187q269 0 419 -216q85 -123 96 -274h-290q-14 79 -43 129q-64 111 -186 111q-136 0 -208 -129q-74 -134 -74 -335q0 -204 77 -340q70 -125 202 -125
q114 0 175 99q46 76 62 213zM907 1734l-190 -259h-234l-191 259h215l89 -121l86 121h225z" />
    <glyph glyph-name="ccaron" unicode="&#x10d;" horiz-adv-x="942" vert-adv-y="1720" 
d="M908 611h-275q-25 164 -138 164q-81 0 -124 -82q-45 -85 -45 -224q0 -143 48 -229q41 -72 117 -72q84 0 124 95q18 41 24 99h271q-18 -143 -90 -238q-117 -153 -331 -153q-193 0 -313 125q-131 137 -131 369q0 246 141 386q121 120 309 120q220 0 334 -146
q68 -89 79 -214zM175 1365h205l95 -147l96 147h196l-182 -273h-228z" />
    <glyph glyph-name="Dcaron" unicode="&#x10e;" horiz-adv-x="1217" vert-adv-y="1720" 
d="M106 0v1365h421q278 0 437 -148q195 -180 195 -534q0 -338 -184 -526q-100 -103 -231 -134q-93 -23 -218 -23h-420zM399 250h131q156 0 227 74q109 115 109 364q0 206 -92 323q-81 104 -252 104h-123v-865zM916 1734l-190 -259h-234l-191 259h215l89 -121l86 121h225z
" />
    <glyph glyph-name="dcaron" unicode="&#x10f;" horiz-adv-x="1028" vert-adv-y="1720" 
d="M938 0h-271v79q-90 -108 -237 -108q-186 0 -293 163q-92 139 -92 347q0 225 103 356q48 62 120 98q73 36 151 36q141 0 238 -108v502h281v-1365zM494 758q-76 0 -120 -75q-48 -80 -48 -210q0 -154 64 -236q42 -53 103 -53q92 0 137 97q37 78 37 191q0 129 -45 206
q-47 80 -128 80zM1277 1365v-147q0 -107 -32 -155q-56 -76 -192 -78v89q51 5 75 18q34 20 40 81h-115v192h224z" />
    <glyph glyph-name="Dcroat" unicode="&#x110;" horiz-adv-x="1217" vert-adv-y="1720" 
d="M0 585v238h107v542h421q277 0 437 -148q195 -180 195 -530q0 -342 -184 -530q-101 -103 -231 -134q-93 -23 -219 -23h-419v585h-107zM400 250h131q156 0 227 74q109 115 109 364q0 206 -92 323q-82 104 -253 104h-122v-292h223v-238h-223v-335z" />
    <glyph glyph-name="dcroat" unicode="&#x111;" horiz-adv-x="1028" vert-adv-y="1720" 
d="M938 0h-271v79q-91 -108 -238 -108q-186 0 -293 163q-92 140 -92 348q0 223 103 355q49 61 121 97q72 37 151 37q140 0 238 -108v205h-221v146h221v151h281v-151h76v-146h-76v-1068zM495 758q-77 0 -122 -75q-48 -80 -48 -205q0 -159 65 -241q41 -53 103 -53q92 0 137 97
q37 78 37 192q0 128 -45 205q-47 80 -127 80z" />
    <glyph glyph-name="Emacron" unicode="&#x112;" horiz-adv-x="1065" vert-adv-y="1720" 
d="M106 0v1365h871v-250h-578v-292h528v-238h-528v-335h590v-250h-883zM826 1658v-157h-587v157h587z" />
    <glyph glyph-name="emacron" unicode="&#x113;" horiz-adv-x="961" vert-adv-y="1720" 
d="M916 403h-591q12 -244 165 -244q103 0 146 134h266q-19 -83 -71 -156q-117 -166 -337 -166q-202 0 -321 129q-128 138 -128 366q0 212 116 353q125 152 323 152q159 0 270 -101q117 -108 149 -309q10 -65 13 -158zM635 571q-5 65 -23 110q-19 49 -59 79q-30 23 -69 23
q-87 0 -129 -95q-22 -48 -28 -117h308zM756 1277v-146h-552v146h552z" />
    <glyph glyph-name="Ebreve" unicode="&#x114;" horiz-adv-x="1065" vert-adv-y="1720" 
d="M106 0v1365h871v-250h-578v-292h528v-238h-528v-335h590v-250h-883zM260 1720h139q28 -107 154 -107t153 107h139q-2 -68 -24 -112q-68 -141 -268 -141q-220 0 -278 165q-12 33 -15 88z" />
    <glyph glyph-name="ebreve" unicode="&#x115;" horiz-adv-x="961" vert-adv-y="1720" 
d="M916 403h-591q12 -244 165 -244q103 0 146 134h266q-19 -83 -71 -156q-117 -166 -337 -166q-202 0 -321 129q-128 138 -128 366q0 212 116 353q125 152 323 152q159 0 270 -101q117 -108 149 -309q10 -65 13 -158zM635 571q-5 65 -23 110q-19 49 -59 79q-30 23 -69 23
q-87 0 -129 -95q-22 -48 -28 -117h308zM353 1365q26 -120 134 -120q109 0 134 120h134q-3 -73 -22 -120q-62 -153 -246 -153q-201 0 -254 178q-11 36 -13 95h133z" />
    <glyph glyph-name="Edotaccent" unicode="&#x116;" horiz-adv-x="1065" vert-adv-y="1720" 
d="M106 0v1365h871v-250h-578v-292h528v-238h-528v-335h590v-250h-883zM651 1693v-246h-237v246h237z" />
    <glyph glyph-name="edotaccent" unicode="&#x117;" horiz-adv-x="961" vert-adv-y="1720" 
d="M916 403h-591q12 -244 165 -244q103 0 146 134h266q-19 -83 -71 -156q-117 -166 -337 -166q-202 0 -321 129q-128 138 -128 366q0 212 116 353q125 152 323 152q159 0 270 -101q117 -108 149 -309q10 -65 13 -158zM635 571q-5 65 -23 110q-19 49 -59 79q-30 23 -69 23
q-87 0 -129 -95q-22 -48 -28 -117h308zM599 1324v-246h-237v246h237z" />
    <glyph glyph-name="Eogonek" unicode="&#x118;" horiz-adv-x="1065" vert-adv-y="1720" 
d="M981 0q-92 -77 -92 -165q0 -90 95 -90q21 0 71 15v-119l-10 -3q-57 -19 -106 -19q-125 0 -181 83q-28 43 -28 97q0 92 81 168q1 1 36 33h-741v1365h871v-250h-578v-292h528v-238h-528v-335h590v-250h-8z" />
    <glyph glyph-name="eogonek" unicode="&#x119;" horiz-adv-x="961" vert-adv-y="1720" 
d="M649 -4q-86 -78 -86 -161q0 -51 34 -74q25 -17 60 -17q20 0 70 16v-119l-10 -3q-57 -19 -106 -19q-124 0 -180 83q-28 43 -28 96q0 89 84 173q-145 0 -256 78q-91 64 -139 175q-48 110 -48 242q0 212 116 352q125 153 324 153q158 0 269 -102q118 -106 150 -308
q10 -65 12 -158h-590q11 -244 164 -244q104 0 147 134h266q-16 -77 -71 -156q-72 -101 -182 -141zM635 571q-6 65 -24 110q-19 48 -58 79q-31 23 -70 23q-86 0 -129 -95q-22 -48 -28 -117h309z" />
    <glyph glyph-name="Ecaron" unicode="&#x11a;" horiz-adv-x="1065" vert-adv-y="1720" 
d="M106 0v1365h871v-250h-578v-292h528v-238h-528v-335h590v-250h-883zM840 1734l-190 -259h-234l-191 259h215l89 -121l86 121h225z" />
    <glyph glyph-name="ecaron" unicode="&#x11b;" horiz-adv-x="961" vert-adv-y="1720" 
d="M916 403h-591q12 -244 165 -244q103 0 146 134h266q-19 -83 -71 -156q-117 -166 -337 -166q-202 0 -321 129q-128 138 -128 366q0 212 116 353q125 152 323 152q159 0 270 -101q117 -108 149 -309q10 -65 13 -158zM635 571q-5 65 -23 110q-19 49 -59 79q-30 23 -69 23
q-87 0 -129 -95q-22 -48 -28 -117h308zM184 1365h205l95 -147l96 147h196l-182 -273h-228z" />
    <glyph glyph-name="Gcircumflex" unicode="&#x11c;" horiz-adv-x="1251" vert-adv-y="1720" 
d="M1160 0h-215v154q-56 -72 -98 -106q-100 -81 -240 -81q-257 0 -406 207q-144 200 -144 501q0 302 151 504q162 218 431 218q229 0 377 -170q95 -110 120 -246q4 -22 9 -67h-285q-15 84 -48 134q-63 99 -177 99q-138 0 -212 -131q-73 -127 -73 -337q0 -224 82 -351
q75 -115 210 -115q124 0 194 105q50 75 59 198h-245v221h510v-737zM940 1475h-225l-86 121l-88 -121h-216l191 259h233z" />
    <glyph glyph-name="gcircumflex" unicode="&#x11d;" horiz-adv-x="1006" vert-adv-y="1720" 
d="M72 -81h277q22 -104 134 -104q99 0 134 82q27 65 27 187v42q-87 -110 -228 -110q-167 0 -267 121q-105 129 -105 350t105 353q104 131 273 131q139 0 222 -113v84h271v-807q0 -237 -74 -344q-110 -160 -353 -160q-214 0 -322 101q-75 70 -94 187zM482 766q-71 0 -112 -71
q-45 -76 -45 -200q0 -148 59 -230q37 -52 96 -52q88 0 132 95q36 77 36 186q0 124 -43 196q-46 76 -123 76zM797 1092h-205l-95 147l-95 -147h-197l182 273h228z" />
    <glyph glyph-name="Gbreve" unicode="&#x11e;" horiz-adv-x="1251" vert-adv-y="1720" 
d="M1160 0h-215v154q-56 -72 -98 -106q-100 -81 -240 -81q-257 0 -406 207q-144 200 -144 501q0 302 151 504q162 218 431 218q229 0 377 -170q95 -110 120 -246q4 -22 9 -67h-285q-15 84 -48 134q-63 99 -177 99q-138 0 -212 -131q-73 -127 -73 -337q0 -224 82 -351
q75 -115 210 -115q124 0 194 105q50 75 59 198h-245v221h510v-737zM332 1720h139q28 -107 154 -107t153 107h139q-2 -68 -24 -112q-68 -141 -268 -141q-220 0 -278 165q-12 33 -15 88z" />
    <glyph glyph-name="gbreve" unicode="&#x11f;" horiz-adv-x="1006" vert-adv-y="1720" 
d="M72 -81h277q22 -104 134 -104q99 0 134 82q27 65 27 187v42q-87 -110 -228 -110q-167 0 -267 121q-105 129 -105 350t105 353q104 131 273 131q139 0 222 -113v84h271v-807q0 -237 -74 -344q-110 -160 -353 -160q-214 0 -322 101q-75 70 -94 187zM482 766q-71 0 -112 -71
q-45 -76 -45 -200q0 -148 59 -230q37 -52 96 -52q88 0 132 95q36 77 36 186q0 124 -43 196q-46 76 -123 76zM368 1365q26 -120 134 -120q109 0 134 120h134q-3 -73 -22 -120q-62 -153 -246 -153q-201 0 -254 178q-11 36 -13 95h133z" />
    <glyph glyph-name="Gdotaccent" unicode="&#x120;" horiz-adv-x="1251" vert-adv-y="1720" 
d="M1160 0h-215v154q-56 -72 -98 -106q-100 -81 -240 -81q-257 0 -406 207q-144 200 -144 501q0 302 151 504q162 218 431 218q229 0 377 -170q95 -110 120 -246q4 -22 9 -67h-285q-15 84 -48 134q-63 99 -177 99q-138 0 -212 -131q-73 -127 -73 -337q0 -224 82 -351
q75 -115 210 -115q124 0 194 105q50 75 59 198h-245v221h510v-737zM752 1693v-246h-237v246h237z" />
    <glyph glyph-name="gdotaccent" unicode="&#x121;" horiz-adv-x="1006" vert-adv-y="1720" 
d="M72 -81h277q22 -104 134 -104q99 0 134 82q27 65 27 187v42q-87 -110 -228 -110q-167 0 -267 121q-105 129 -105 350t105 353q104 131 273 131q139 0 222 -113v84h271v-807q0 -237 -74 -344q-110 -160 -353 -160q-214 0 -322 101q-75 70 -94 187zM482 766q-71 0 -112 -71
q-45 -76 -45 -200q0 -148 59 -230q37 -52 96 -52q88 0 132 95q36 77 36 186q0 124 -43 196q-46 76 -123 76zM620 1324v-246h-237v246h237z" />
    <glyph glyph-name="Gcommaaccent" unicode="&#x122;" horiz-adv-x="1251" vert-adv-y="1720" 
d="M1160 0h-215v154q-56 -72 -98 -106q-100 -81 -240 -81q-257 0 -406 207q-144 200 -144 501q0 302 151 504q162 218 431 218q229 0 377 -170q95 -110 120 -246q4 -22 9 -67h-285q-15 84 -48 134q-63 99 -177 99q-138 0 -212 -131q-73 -127 -73 -337q0 -224 82 -351
q75 -115 210 -115q124 0 194 105q50 75 59 198h-245v221h510v-737zM738 -95v-147q0 -107 -32 -155q-56 -76 -192 -78v89q51 5 75 18q34 20 40 81h-115v192h224z" />
    <glyph glyph-name="gcommaaccent" unicode="&#x123;" horiz-adv-x="1006" vert-adv-y="1720" 
d="M72 -81h277q22 -104 134 -104q99 0 134 82q27 65 27 187v42q-87 -110 -228 -110q-167 0 -267 121q-105 129 -105 350t105 353q104 131 273 131q139 0 222 -113v84h271v-807q0 -237 -74 -344q-110 -160 -353 -160q-214 0 -322 101q-75 70 -94 187zM482 766q-71 0 -112 -71
q-45 -76 -45 -200q0 -148 59 -230q37 -52 96 -52q88 0 132 95q36 77 36 186q0 124 -43 196q-46 76 -123 76zM334 1079v147q0 107 32 155q56 76 192 78v-89q-51 -5 -75 -18q-34 -20 -40 -81h115v-192h-224z" />
    <glyph glyph-name="Hcircumflex" unicode="&#x124;" horiz-adv-x="1234" vert-adv-y="1720" 
d="M106 0v1365h293v-519h435v519h293v-1365h-293v596h-435v-596h-293zM920 1475h-225l-86 121l-88 -121h-216l191 259h233z" />
    <glyph glyph-name="Imacron" unicode="&#x12a;" horiz-adv-x="587" vert-adv-y="1720" 
d="M147 0v1365h293v-1365h-293zM587 1658v-157h-587v157h587z" />
    <glyph glyph-name="imacron" unicode="&#x12b;" horiz-adv-x="552" vert-adv-y="1720" 
d="M136 0v942h281v-942h-281zM552 1277v-146h-552v146h552z" />
    <glyph glyph-name="ibreve" unicode="&#x12d;" horiz-adv-x="475" vert-adv-y="1720" 
d="M136 0v942h281v-942h-281zM142 1365q26 -120 134 -120q109 0 134 120h134q-3 -73 -22 -120q-62 -153 -246 -153q-201 0 -254 178q-11 36 -13 95h133z" />
    <glyph glyph-name="Iogonek" unicode="&#x12e;" horiz-adv-x="506" vert-adv-y="1720" 
d="M396 0q-91 -79 -91 -165q0 -90 94 -90q21 0 71 15v-119l-10 -3q-57 -19 -106 -19q-125 0 -181 83q-28 43 -28 97q0 92 81 168q5 5 36 33h-156v1365h293v-1365h-3z" />
    <glyph glyph-name="iogonek" unicode="&#x12f;" horiz-adv-x="469" vert-adv-y="1720" 
d="M446 -240v-119l-10 -3q-57 -19 -106 -19q-124 0 -181 83q-28 43 -28 97q0 92 81 168q1 1 36 33h-144v942h281v-942q-21 -14 -35 -30q-59 -65 -59 -133q0 -92 94 -92q21 0 71 15zM94 1092v273h281v-273h-281z" />
    <glyph glyph-name="Idot" unicode="&#x130;" horiz-adv-x="506" vert-adv-y="1720" 
d="M106 0v1365h293v-1365h-293zM371 1693v-246h-237v246h237z" />
    <glyph glyph-name="Kcommaaccent" unicode="&#x136;" horiz-adv-x="1160" vert-adv-y="1720" 
d="M106 0v1365h293v-516l406 516h327l-465 -563l503 -802h-328l-360 576l-83 -100v-476h-293zM710 -95v-147q0 -107 -32 -155q-56 -76 -192 -78v89q51 5 75 18q34 20 40 81h-115v192h224z" />
    <glyph glyph-name="kcommaaccent" unicode="&#x137;" horiz-adv-x="948" vert-adv-y="1720" 
d="M90 0v1365h281v-703l252 280h300l-339 -367l366 -575h-296l-241 390l-42 -45v-345h-281zM574 -95v-147q0 -107 -32 -155q-56 -76 -192 -78v89q51 5 75 18q34 20 40 81h-115v192h224z" />
    <glyph glyph-name="Lacute" unicode="&#x139;" horiz-adv-x="987" vert-adv-y="1720" 
d="M106 0v1365h293v-1111h536v-254h-829zM778 1720l-198 -246h-233l184 246h247z" />
    <glyph glyph-name="lacute" unicode="&#x13a;" horiz-adv-x="475" vert-adv-y="1720" 
d="M106 0v1365h293v-1365h-293zM537 1720l-198 -246h-233l184 246h247z" />
    <glyph glyph-name="Lcommaaccent" unicode="&#x13b;" horiz-adv-x="987" vert-adv-y="1720" 
d="M106 0v1365h293v-1111h536v-254h-829zM623 -95v-147q0 -107 -32 -155q-56 -76 -192 -78v89q51 5 75 18q34 20 40 81h-115v192h224z" />
    <glyph glyph-name="lcommaaccent" unicode="&#x13c;" horiz-adv-x="469" vert-adv-y="1720" 
d="M94 0v1365h281v-1365h-281zM349 -95v-147q0 -107 -32 -155q-56 -76 -192 -78v89q51 5 75 18q34 20 40 81h-115v192h224z" />
    <glyph glyph-name="Lcaron" unicode="&#x13d;" horiz-adv-x="987" vert-adv-y="1720" 
d="M106 0v1365h293v-1111h536v-254h-829zM828 1365v-147q0 -107 -32 -155q-56 -76 -192 -78v89q51 5 75 18q34 20 40 81h-115v192h224z" />
    <glyph glyph-name="lcaron" unicode="&#x13e;" horiz-adv-x="469" vert-adv-y="1720" 
d="M94 0v1365h281v-1365h-281zM709 1365v-147q0 -107 -32 -155q-56 -76 -192 -78v89q51 5 75 18q34 20 40 81h-115v192h224z" />
    <glyph glyph-name="Lslash" unicode="&#x141;" horiz-adv-x="987" vert-adv-y="1720" 
d="M0 385v234l106 79v667h293v-468l195 141v-234l-195 -141v-409h537v-254h-830v464z" />
    <glyph glyph-name="lslash" unicode="&#x142;" horiz-adv-x="486" vert-adv-y="1720" 
d="M0 425v224l102 92v624h281v-390l103 91v-224l-103 -91v-751h-281v517z" />
    <glyph glyph-name="Nacute" unicode="&#x143;" horiz-adv-x="1218" vert-adv-y="1720" 
d="M106 0v1365h296l428 -878v878h281v-1365h-293l-431 877v-877h-281zM893 1720l-198 -246h-233l184 246h247z" />
    <glyph glyph-name="nacute" unicode="&#x144;" horiz-adv-x="1002" vert-adv-y="1720" 
d="M90 0v942h271v-87q92 116 246 116q178 0 259 -126q50 -78 50 -244v-601h-281v557q0 98 -19 138q-29 63 -96 63q-89 0 -129 -101q-20 -52 -20 -193v-464h-281zM772 1365l-199 -273h-205l184 273h220z" />
    <glyph glyph-name="Ncommaaccent" unicode="&#x145;" horiz-adv-x="1218" vert-adv-y="1720" 
d="M106 0v1365h296l428 -878v878h281v-1365h-293l-431 877v-877h-281zM738 -95v-147q0 -107 -32 -155q-56 -76 -192 -78v89q51 5 75 18q34 20 40 81h-115v192h224z" />
    <glyph glyph-name="ncommaaccent" unicode="&#x146;" horiz-adv-x="1002" vert-adv-y="1720" 
d="M90 0v942h271v-87q92 116 246 116q178 0 259 -126q50 -78 50 -244v-601h-281v557q0 98 -19 138q-29 63 -96 63q-89 0 -129 -101q-20 -52 -20 -193v-464h-281zM617 -95v-147q0 -107 -32 -155q-56 -76 -192 -78v89q51 5 75 18q34 20 40 81h-115v192h224z" />
    <glyph glyph-name="Ncaron" unicode="&#x147;" horiz-adv-x="1218" vert-adv-y="1720" 
d="M106 0v1365h296l428 -878v878h281v-1365h-293l-431 877v-877h-281zM916 1734l-190 -259h-234l-191 259h215l89 -121l86 121h225z" />
    <glyph glyph-name="ncaron" unicode="&#x148;" horiz-adv-x="1002" vert-adv-y="1720" 
d="M90 0v942h271v-87q92 116 246 116q178 0 259 -126q50 -78 50 -244v-601h-281v557q0 98 -19 138q-29 63 -96 63q-89 0 -129 -101q-20 -52 -20 -193v-464h-281zM205 1365h205l95 -147l96 147h196l-182 -273h-228z" />
    <glyph glyph-name="Omacron" unicode="&#x14c;" horiz-adv-x="1278" vert-adv-y="1720" 
d="M649 1396q236 0 393 -176q179 -199 179 -538q0 -290 -135 -485q-80 -115 -202 -176q-109 -54 -243 -54q-289 0 -452 235q-132 190 -132 478q0 338 171 532q162 184 421 184zM636 1146q-132 0 -206 -127q-80 -138 -80 -334q0 -205 79 -341q36 -62 106 -100q51 -27 108 -27
q83 0 150 58t104 184q31 106 31 225q0 200 -78 335q-74 127 -214 127zM932 1658v-157h-587v157h587z" />
    <glyph glyph-name="omacron" unicode="&#x14d;" horiz-adv-x="992" vert-adv-y="1720" 
d="M505 971q192 0 316 -133q126 -135 126 -366q0 -239 -134 -376q-122 -125 -316 -125q-206 0 -330 140q-122 136 -122 359q0 219 118 355q126 146 342 146zM493 774q-78 0 -123 -85q-44 -83 -44 -217q0 -140 44 -221q45 -83 127 -83q78 0 121 76q48 84 48 227
q0 137 -43 216q-46 87 -130 87zM772 1277v-146h-552v146h552z" />
    <glyph glyph-name="Ohungarumlaut" unicode="&#x150;" horiz-adv-x="1278" vert-adv-y="1720" 
d="M649 1396q236 0 393 -176q179 -199 179 -538q0 -290 -135 -485q-80 -115 -202 -176q-109 -54 -243 -54q-289 0 -452 235q-132 190 -132 478q0 338 171 532q162 184 421 184zM636 1146q-132 0 -206 -127q-80 -138 -80 -334q0 -205 79 -341q36 -62 106 -100q51 -27 108 -27
q83 0 150 58t104 184q31 106 31 225q0 200 -78 335q-74 127 -214 127zM719 1720l-198 -246h-233l184 246h247zM1129 1720l-199 -246h-232l183 246h248z" />
    <glyph glyph-name="ohungarumlaut" unicode="&#x151;" horiz-adv-x="1001" vert-adv-y="1720" 
d="M505 971q192 0 316 -133q126 -135 126 -366q0 -239 -134 -376q-122 -125 -316 -125q-206 0 -330 140q-122 136 -122 359q0 219 118 355q126 146 342 146zM493 774q-78 0 -123 -85q-44 -83 -44 -217q0 -140 44 -221q45 -83 127 -83q78 0 121 76q48 84 48 227
q0 137 -43 216q-46 87 -130 87zM562 1365l-199 -273h-205l184 273h220zM972 1365l-199 -273h-205l183 273h221z" />
    <glyph glyph-name="Racute" unicode="&#x154;" horiz-adv-x="1195" vert-adv-y="1720" 
d="M106 0v1365h525q206 0 319 -90q129 -103 129 -291q0 -155 -91 -261q-40 -46 -105 -78q83 -26 129 -104q30 -48 43 -142q6 -33 18 -205q8 -107 22 -144q8 -20 25 -50h-302q-14 33 -20 78q-3 25 -14 176q-11 142 -36 189q-30 66 -92 84q-31 9 -89 9h-168v-536h-293z
M399 757h161q133 0 183 56q43 49 43 136q0 105 -72 154q-43 29 -148 29h-167v-375zM882 1720l-198 -246h-233l184 246h247z" />
    <glyph glyph-name="racute" unicode="&#x155;" horiz-adv-x="665" vert-adv-y="1720" 
d="M90 0v942h271v-120q93 149 234 149q33 0 68 -9v-244q-53 15 -89 15q-124 0 -175 -122q-28 -65 -28 -215v-396h-281zM604 1365l-199 -273h-205l184 273h220z" />
    <glyph glyph-name="Rcommaaccent" unicode="&#x156;" horiz-adv-x="1195" vert-adv-y="1720" 
d="M106 0v1365h525q206 0 319 -90q129 -103 129 -291q0 -155 -91 -261q-40 -46 -105 -78q83 -26 129 -104q30 -48 43 -142q6 -33 18 -205q8 -107 22 -144q8 -20 25 -50h-302q-14 33 -20 78q-3 25 -14 176q-11 142 -36 189q-30 66 -92 84q-31 9 -89 9h-168v-536h-293z
M399 757h161q133 0 183 56q43 49 43 136q0 105 -72 154q-43 29 -148 29h-167v-375zM708 -95v-147q0 -107 -32 -155q-56 -76 -192 -78v89q51 5 75 18q34 20 40 81h-115v192h224z" />
    <glyph glyph-name="rcommaaccent" unicode="&#x157;" horiz-adv-x="665" vert-adv-y="1720" 
d="M90 0v942h271v-120q93 149 234 149q33 0 68 -9v-244q-53 15 -89 15q-124 0 -175 -122q-28 -65 -28 -215v-396h-281zM345 -95v-147q0 -107 -32 -155q-56 -76 -192 -78v89q51 5 75 18q34 20 40 81h-115v192h224z" />
    <glyph glyph-name="Rcaron" unicode="&#x158;" horiz-adv-x="1195" vert-adv-y="1720" 
d="M106 0v1365h525q206 0 319 -90q129 -103 129 -291q0 -155 -91 -261q-40 -46 -105 -78q83 -26 129 -104q30 -48 43 -142q6 -33 18 -205q8 -107 22 -144q8 -20 25 -50h-302q-14 33 -20 78q-3 25 -14 176q-11 142 -36 189q-30 66 -92 84q-31 9 -89 9h-168v-536h-293z
M399 757h161q133 0 183 56q43 49 43 136q0 105 -72 154q-43 29 -148 29h-167v-375zM905 1734l-190 -259h-234l-191 259h215l89 -121l86 121h225z" />
    <glyph glyph-name="rcaron" unicode="&#x159;" horiz-adv-x="710" vert-adv-y="1720" 
d="M136 0v942h271v-120q93 149 234 149q33 0 68 -9v-244q-53 15 -89 15q-124 0 -175 -122q-28 -65 -28 -215v-396h-281zM83 1365h205l95 -147l96 147h196l-182 -273h-228z" />
    <glyph glyph-name="Sacute" unicode="&#x15a;" horiz-adv-x="1062" vert-adv-y="1720" 
d="M41 399h295q12 -80 37 -119q52 -80 150 -80q87 0 135 54q42 46 42 116q0 79 -67 134q-32 26 -81 47q-14 6 -101 37q-168 59 -243 118q-149 118 -149 309q0 164 104 267q116 114 321 114q256 0 384 -175q60 -82 79 -216h-286q-10 79 -50 115q-48 42 -129 42
q-69 0 -108 -33q-45 -37 -45 -105q0 -77 68 -124q50 -36 198 -84q173 -56 268 -131q138 -110 138 -296t-128 -302q-133 -120 -355 -120q-265 0 -395 199q-66 102 -82 233zM816 1720l-198 -246h-233l184 246h247z" />
    <glyph glyph-name="sacute" unicode="&#x15b;" horiz-adv-x="892" vert-adv-y="1720" 
d="M61 284h260q17 -131 138 -131q53 0 83 26q31 27 31 72q0 63 -69 101q-30 17 -123 49q-157 54 -209 93q-102 76 -102 196q0 134 100 210q92 71 251 71q212 0 316 -131q47 -60 62 -144h-261q-26 90 -108 90q-89 0 -89 -83q0 -56 64 -90q28 -14 151 -54q118 -38 181 -86
q100 -75 100 -205q0 -135 -102 -217q-99 -80 -268 -80q-164 0 -256 63q-130 88 -150 250zM717 1365l-199 -273h-205l184 273h220z" />
    <glyph glyph-name="Scircumflex" unicode="&#x15c;" horiz-adv-x="1062" vert-adv-y="1720" 
d="M41 399h295q12 -80 37 -119q52 -80 150 -80q87 0 135 54q42 46 42 116q0 79 -67 134q-32 26 -81 47q-14 6 -101 37q-168 59 -243 118q-149 118 -149 309q0 164 104 267q116 114 321 114q256 0 384 -175q60 -82 79 -216h-286q-10 79 -50 115q-48 42 -129 42
q-69 0 -108 -33q-45 -37 -45 -105q0 -77 68 -124q50 -36 198 -84q173 -56 268 -131q138 -110 138 -296t-128 -302q-133 -120 -355 -120q-265 0 -395 199q-66 102 -82 233zM800 1475h-225l-86 121l-88 -121h-216l191 259h233z" />
    <glyph glyph-name="scircumflex" unicode="&#x15d;" horiz-adv-x="892" vert-adv-y="1720" 
d="M61 284h260q17 -131 138 -131q53 0 83 26q31 27 31 72q0 63 -69 101q-30 17 -123 49q-157 54 -209 93q-102 76 -102 196q0 134 100 210q92 71 251 71q212 0 316 -131q47 -60 62 -144h-261q-26 90 -108 90q-89 0 -89 -83q0 -56 64 -90q28 -14 151 -54q118 -38 181 -86
q100 -75 100 -205q0 -135 -102 -217q-99 -80 -268 -80q-164 0 -256 63q-130 88 -150 250zM742 1092h-205l-95 147l-95 -147h-197l182 273h228z" />
    <glyph glyph-name="Scedilla" unicode="&#x15e;" horiz-adv-x="1062" vert-adv-y="1720" 
d="M41 412h295q14 -85 41 -128q57 -85 164 -85q89 0 137 54q42 46 42 116q0 79 -67 134q-33 26 -81 47q-12 5 -101 37q-168 60 -242 119q-149 117 -149 309q0 164 104 267q115 114 321 114q255 0 384 -175q60 -82 79 -216h-287q-10 79 -50 115q-47 42 -128 42
q-69 0 -108 -33q-45 -37 -45 -105q0 -77 68 -125q49 -35 198 -83q172 -56 267 -132q138 -110 138 -296q0 -145 -83 -252q-129 -167 -404 -169l-27 -71q23 10 53 10q89 0 147 -44q50 -38 50 -106q0 -71 -54 -116q-58 -50 -160 -50q-110 0 -163 56q-24 25 -29 55h133
q8 -31 52 -31q68 0 68 78q0 79 -68 79q-38 0 -48 -27h-129l66 177q-144 25 -242 125q-126 132 -142 310z" />
    <glyph glyph-name="scedilla" unicode="&#x15f;" horiz-adv-x="892" vert-adv-y="1720" 
d="M61 278h260q17 -131 137 -131q54 0 84 28q31 29 31 76q0 64 -69 102q-30 17 -123 49q-158 54 -209 92q-102 77 -102 196q0 134 100 210q92 71 252 71q211 0 315 -127q47 -59 62 -141h-261q-26 90 -107 90q-90 0 -90 -90q0 -55 64 -89q27 -15 151 -54q117 -38 181 -86
q100 -75 100 -205q0 -106 -67 -184q-99 -115 -312 -114l-29 -79q24 12 58 12q84 0 136 -43q48 -40 48 -105q0 -71 -51 -116q-57 -50 -155 -50q-108 0 -159 56q-24 25 -28 55h128q8 -31 52 -31q68 0 68 77q0 36 -19 59q-18 21 -49 21q-38 0 -48 -27h-129l64 182
q-105 19 -177 85q-96 90 -107 211z" />
    <glyph glyph-name="Scaron" unicode="&#x160;" horiz-adv-x="1062" vert-adv-y="1720" 
d="M41 399h295q12 -80 37 -119q52 -80 150 -80q87 0 135 54q42 46 42 116q0 79 -67 134q-32 26 -81 47q-14 6 -101 37q-168 59 -243 118q-149 118 -149 309q0 164 104 267q116 114 321 114q256 0 384 -175q60 -82 79 -216h-286q-10 79 -50 115q-48 42 -129 42
q-69 0 -108 -33q-45 -37 -45 -105q0 -77 68 -124q50 -36 198 -84q173 -56 268 -131q138 -110 138 -296t-128 -302q-133 -120 -355 -120q-265 0 -395 199q-66 102 -82 233zM839 1734l-190 -259h-234l-191 259h215l89 -121l86 121h225z" />
    <glyph glyph-name="scaron" unicode="&#x161;" horiz-adv-x="892" vert-adv-y="1720" 
d="M61 284h260q17 -131 138 -131q53 0 83 26q31 27 31 72q0 63 -69 101q-30 17 -123 49q-157 54 -209 93q-102 76 -102 196q0 134 100 210q92 71 251 71q212 0 316 -131q47 -60 62 -144h-261q-26 90 -108 90q-89 0 -89 -83q0 -56 64 -90q28 -14 151 -54q118 -38 181 -86
q100 -75 100 -205q0 -135 -102 -217q-99 -80 -268 -80q-164 0 -256 63q-130 88 -150 250zM150 1365h205l95 -147l96 147h196l-182 -273h-228z" />
    <glyph glyph-name="Tcommaaccent" unicode="&#x162;" horiz-adv-x="1026" vert-adv-y="1720" 
d="M366 0v1115h-331v250h957v-250h-333v-1115h-293zM628 -95v-147q0 -107 -32 -155q-56 -76 -192 -78v89q51 5 75 18q34 20 40 81h-115v192h224z" />
    <glyph glyph-name="tcommaaccent" unicode="&#x163;" horiz-adv-x="589" vert-adv-y="1720" 
d="M0 766v176h133v61l189 252h92v-313h163v-176h-163v-446q2 -74 8 -96q12 -44 77 -44q30 0 68 14v-201q-83 -18 -163 -18q-168 0 -229 91q-33 49 -40 142q-2 27 -2 122v436h-133zM414 -95v-147q0 -107 -32 -155q-56 -76 -192 -78v89q51 5 75 18q34 20 40 81h-115v192h224z
" />
    <glyph glyph-name="Tcaron" unicode="&#x164;" horiz-adv-x="1026" vert-adv-y="1720" 
d="M366 0v1115h-331v250h957v-250h-333v-1115h-293zM821 1734l-190 -259h-234l-191 259h215l89 -121l86 121h225z" />
    <glyph glyph-name="tcaron" unicode="&#x165;" horiz-adv-x="589" vert-adv-y="1720" 
d="M0 766v176h133v61l189 252h92v-313h163v-176h-163v-446q2 -74 8 -96q12 -44 77 -44q30 0 68 14v-201q-83 -18 -163 -18q-168 0 -229 91q-33 49 -40 142q-2 27 -2 122v436h-133zM812 1384v-147q0 -107 -32 -155q-56 -76 -192 -78v89q51 5 75 18q34 20 40 81h-115v192h224z
" />
    <glyph glyph-name="utilde" unicode="&#x169;" horiz-adv-x="1002" vert-adv-y="1720" 
d="M912 942v-942h-271v87q-92 -116 -246 -116q-178 0 -259 126q-50 79 -50 244v601h281v-557q0 -98 19 -138q29 -63 96 -63q89 0 128 101q21 53 21 193v464h281zM791 1359q-34 -254 -187 -254q-42 0 -91 22q-15 7 -76 42q-26 15 -45 15q-39 0 -54 -85h-126q8 64 24 109
q30 83 85 122q35 25 78 25q44 0 111 -35q72 -39 101 -39q31 0 54 78h126z" />
    <glyph glyph-name="Umacron" unicode="&#x16a;" horiz-adv-x="1196" vert-adv-y="1720" 
d="M90 1365h281v-795q0 -195 54 -272q58 -81 178 -81q130 0 177 111q33 76 33 243v794h293v-779q0 -184 -26 -279q-45 -163 -162 -252q-116 -88 -321 -88q-294 0 -421 198q-55 87 -74 209q-12 78 -12 216v775zM891 1658v-157h-587v157h587z" />
    <glyph glyph-name="umacron" unicode="&#x16b;" horiz-adv-x="1002" vert-adv-y="1720" 
d="M912 942v-942h-271v87q-92 -116 -246 -116q-178 0 -259 126q-50 79 -50 244v601h281v-557q0 -98 19 -138q29 -63 96 -63q89 0 128 101q21 53 21 193v464h281zM777 1277v-146h-552v146h552z" />
    <glyph glyph-name="ubreve" unicode="&#x16d;" horiz-adv-x="1002" vert-adv-y="1720" 
d="M912 942v-942h-271v87q-92 -116 -246 -116q-178 0 -259 126q-50 79 -50 244v601h281v-557q0 -98 19 -138q29 -63 96 -63q89 0 128 101q21 53 21 193v464h281zM367 1365q26 -120 134 -120q109 0 134 120h134q-3 -73 -22 -120q-62 -153 -246 -153q-201 0 -254 178
q-11 36 -13 95h133z" />
    <glyph glyph-name="Uring" unicode="&#x16e;" horiz-adv-x="1196" vert-adv-y="1720" 
d="M90 1365h281v-795q0 -195 54 -272q58 -81 178 -81q130 0 177 111q33 76 33 243v794h293v-779q0 -184 -26 -279q-45 -163 -162 -252q-116 -88 -321 -88q-294 0 -421 198q-55 87 -74 209q-12 78 -12 216v775zM600 1711q-36 0 -61 -26q-26 -26 -26 -64q0 -37 25 -63t59 -26
q37 0 62 27q24 26 24 62q0 37 -25 64q-25 26 -58 26zM602 1816q81 0 140 -57t59 -138q0 -79 -58 -136q-60 -58 -144 -58q-85 0 -144 57t-59 137q0 83 61 139q60 56 145 56z" />
    <glyph glyph-name="uring" unicode="&#x16f;" horiz-adv-x="1002" vert-adv-y="1720" 
d="M912 942v-942h-271v87q-92 -116 -246 -116q-178 0 -259 126q-50 79 -50 244v601h281v-557q0 -98 19 -138q29 -63 96 -63q89 0 128 101q21 53 21 193v464h281zM500 1349q-34 0 -59 -26t-25 -65q0 -37 25 -64q24 -26 60 -26t61 27q24 27 24 63q0 38 -25 65q-25 26 -61 26z
M502 1465q82 0 141 -59q59 -60 59 -145q0 -83 -58 -142q-60 -61 -145 -61q-86 0 -145 59q-59 60 -59 144q0 87 61 146q60 58 146 58z" />
    <glyph glyph-name="Uhungarumlaut" unicode="&#x170;" horiz-adv-x="1196" vert-adv-y="1720" 
d="M90 1365h281v-795q0 -195 54 -272q58 -81 178 -81q130 0 177 111q33 76 33 243v794h293v-779q0 -184 -26 -279q-45 -163 -162 -252q-116 -88 -321 -88q-294 0 -421 198q-55 87 -74 209q-12 78 -12 216v775zM678 1720l-198 -246h-233l184 246h247zM1088 1720l-199 -246
h-232l183 246h248z" />
    <glyph glyph-name="uhungarumlaut" unicode="&#x171;" horiz-adv-x="1010" vert-adv-y="1720" 
d="M912 942v-942h-271v87q-92 -116 -246 -116q-178 0 -259 126q-50 79 -50 244v601h281v-557q0 -98 19 -138q29 -63 96 -63q89 0 128 101q21 53 21 193v464h281zM567 1365l-199 -273h-205l184 273h220zM977 1365l-199 -273h-205l183 273h221z" />
    <glyph glyph-name="Uogonek" unicode="&#x172;" horiz-adv-x="1196" vert-adv-y="1720" 
d="M822 2q-93 -81 -93 -167q0 -50 34 -73q25 -17 60 -17q21 0 71 15v-119l-10 -3q-57 -19 -106 -19q-124 0 -180 83q-28 42 -28 95q0 94 82 172q-32 -2 -56 -2q-293 0 -420 198q-55 87 -74 209q-12 78 -12 216v775h281v-795q0 -195 54 -272q58 -81 178 -81q130 0 177 111
q33 76 33 243v794h293v-779q-1 -191 -26 -279q-43 -157 -156 -247q-47 -37 -102 -58z" />
    <glyph glyph-name="uogonek" unicode="&#x173;" horiz-adv-x="1002" vert-adv-y="1720" 
d="M981 -240v-119l-10 -3q-57 -19 -106 -19q-125 0 -181 83q-28 43 -28 97q0 92 81 168q1 1 36 33h-132v87q-92 -116 -246 -116q-178 0 -259 126q-50 79 -50 244v601h281v-557q0 -98 19 -138q29 -63 96 -63q89 0 129 101q20 53 20 193v464h281v-942q-96 -71 -96 -166
q0 -49 34 -72q24 -17 60 -17q21 0 71 15z" />
    <glyph glyph-name="Wcircumflex" unicode="&#x174;" horiz-adv-x="1542" vert-adv-y="1720" 
d="M0 1365h294l162 -936l176 936h279l174 -938l165 938h292l-308 -1365h-293l-172 927l-169 -927h-296zM1085 1475h-225l-86 121l-88 -121h-216l191 259h233z" />
    <glyph glyph-name="Ycircumflex" unicode="&#x176;" horiz-adv-x="1131" vert-adv-y="1720" 
d="M-4 1365h326l246 -540l246 540h321l-423 -837v-528h-293v532zM880 1475h-225l-86 121l-88 -121h-216l191 259h233z" />
    <glyph glyph-name="ycircumflex" unicode="&#x177;" horiz-adv-x="871" vert-adv-y="1720" 
d="M-16 942h298l162 -606l155 606h289l-303 -957q-42 -130 -79 -194q-57 -96 -162 -128q-59 -18 -146 -18q-59 0 -119 10v215q49 -12 86 -12q122 0 122 110q0 42 -17 95zM732 1092h-205l-95 147l-95 -147h-197l182 273h228z" />
    <glyph glyph-name="Zacute" unicode="&#x179;" horiz-adv-x="1056" vert-adv-y="1720" 
d="M33 0v238l613 877h-569v250h924v-222l-620 -889h638v-254h-986zM813 1720l-198 -246h-233l184 246h247z" />
    <glyph glyph-name="zacute" unicode="&#x17a;" horiz-adv-x="837" vert-adv-y="1720" 
d="M33 0v194l427 545h-394v203h734v-187l-439 -552h468v-203h-796zM690 1365l-199 -273h-205l184 273h220z" />
    <glyph glyph-name="Zdotaccent" unicode="&#x17b;" horiz-adv-x="1056" vert-adv-y="1720" 
d="M33 0v238l613 877h-569v250h924v-222l-620 -889h638v-254h-986zM647 1693v-246h-237v246h237z" />
    <glyph glyph-name="zdotaccent" unicode="&#x17c;" horiz-adv-x="837" vert-adv-y="1720" 
d="M33 0v194l427 545h-394v203h734v-187l-439 -552h468v-203h-796zM537 1324v-246h-237v246h237z" />
    <glyph glyph-name="Zcaron" unicode="&#x17d;" horiz-adv-x="1056" vert-adv-y="1720" 
d="M33 0v238l613 877h-569v250h924v-222l-620 -889h638v-254h-986zM836 1734l-190 -259h-234l-191 259h215l89 -121l86 121h225z" />
    <glyph glyph-name="zcaron" unicode="&#x17e;" horiz-adv-x="837" vert-adv-y="1720" 
d="M33 0v194l427 545h-394v203h734v-187l-439 -552h468v-203h-796zM123 1365h205l95 -147l96 147h196l-182 -273h-228z" />
    <glyph glyph-name="uni01CD" unicode="&#x1cd;" horiz-adv-x="1157" vert-adv-y="1720" 
d="M429 1365h300l432 -1365h-305l-85 305h-389l-86 -305h-300zM445 526h265l-132 471zM890 1734l-190 -259h-234l-191 259h215l89 -121l86 121h225z" />
    <glyph glyph-name="uni01CE" unicode="&#x1ce;" horiz-adv-x="980" vert-adv-y="1720" 
d="M962 190v-178q-53 -24 -113 -24q-121 0 -184 102q-47 -49 -85 -71q-82 -48 -202 -48q-137 0 -218 64q-98 77 -98 212q0 148 111 234q82 64 238 81q68 7 207 11v75q0 147 -125 147q-117 0 -128 -143h-268q8 149 104 231q103 88 293 88q226 0 328 -108q53 -55 65 -147
q4 -35 4 -141v-315q0 -54 12 -67q13 -14 29 -14q10 0 30 11zM618 429q-98 -4 -153 -19q-122 -32 -122 -142q0 -49 27 -78q24 -26 69 -26q93 0 145 88q34 56 34 127v50zM204 1365h205l95 -147l96 147h196l-182 -273h-228z" />
    <glyph glyph-name="Ucaron" unicode="&#x1d3;" horiz-adv-x="1196" vert-adv-y="1720" 
d="M90 1365h281v-795q0 -195 54 -272q58 -81 178 -81q130 0 177 111q33 76 33 243v794h293v-779q0 -184 -26 -279q-45 -163 -162 -252q-116 -88 -321 -88q-294 0 -421 198q-55 87 -74 209q-12 78 -12 216v775zM906 1734l-190 -259h-234l-191 259h215l89 -121l86 121h225z
" />
    <glyph glyph-name="ucaron" unicode="&#x1d4;" horiz-adv-x="1002" vert-adv-y="1720" 
d="M912 942v-942h-271v87q-92 -116 -246 -116q-178 0 -259 126q-50 79 -50 244v601h281v-557q0 -98 19 -138q29 -63 96 -63q89 0 128 101q21 53 21 193v464h281zM205 1365h205l95 -147l96 147h196l-182 -273h-228z" />
    <glyph glyph-name="Gcaron" unicode="&#x1e6;" horiz-adv-x="1251" vert-adv-y="1720" 
d="M1160 0h-215v154q-56 -72 -98 -106q-100 -81 -240 -81q-257 0 -406 207q-144 200 -144 501q0 302 151 504q162 218 431 218q229 0 377 -170q95 -110 120 -246q4 -22 9 -67h-285q-15 84 -48 134q-63 99 -177 99q-138 0 -212 -131q-73 -127 -73 -337q0 -224 82 -351
q75 -115 210 -115q124 0 194 105q50 75 59 198h-245v221h510v-737zM950 1734l-190 -259h-234l-191 259h215l89 -121l86 121h225z" />
    <glyph glyph-name="gcaron" unicode="&#x1e7;" horiz-adv-x="1006" vert-adv-y="1720" 
d="M72 -81h277q22 -104 134 -104q99 0 134 82q27 65 27 187v42q-87 -110 -228 -110q-167 0 -267 121q-105 129 -105 350t105 353q104 131 273 131q139 0 222 -113v84h271v-807q0 -237 -74 -344q-110 -160 -353 -160q-214 0 -322 101q-75 70 -94 187zM482 766q-71 0 -112 -71
q-45 -76 -45 -200q0 -148 59 -230q37 -52 96 -52q88 0 132 95q36 77 36 186q0 124 -43 196q-46 76 -123 76zM175 1365h205l95 -147l96 147h196l-182 -273h-228z" />
    <glyph glyph-name="afii57929" unicode="&#x2bc;" horiz-adv-x="546" vert-adv-y="1720" 
d="M423 1365v-228q0 -136 -37 -213q-34 -71 -119 -124q-64 -39 -144 -49v144q63 16 96 67q29 47 31 109h-127v294h300z" />
    <glyph glyph-name="semicolon" unicode="&#x37e;" horiz-adv-x="546" vert-adv-y="1720" 
d="M423 294v-228q0 -136 -37 -213q-34 -71 -119 -124q-64 -39 -144 -48v143q63 16 96 67q29 47 31 109h-127v294h300zM423 942v-294h-300v294h300z" />
    <glyph glyph-name="anoteleia" unicode="&#x387;" horiz-adv-x="546" vert-adv-y="1720" 
d="M423 625v-294h-300v294h300z" />
    <glyph glyph-name="Wdieresis" unicode="&#x1e84;" horiz-adv-x="1542" vert-adv-y="1720" 
d="M0 1365h294l162 -936l176 936h279l174 -938l165 938h292l-308 -1365h-293l-172 927l-169 -927h-296zM1058 1693v-246h-238v246h238zM716 1693v-246h-237v246h237z" />
    <glyph glyph-name="hyphen" unicode="&#x2010;" horiz-adv-x="453" vert-adv-y="1720" 
d="M453 633v-246h-453v246h453z" />
    <glyph glyph-name="nbhyphen" unicode="&#x2011;" horiz-adv-x="453" vert-adv-y="1720" 
d="M453 633v-246h-453v246h453z" />
    <glyph glyph-name="figuredash" unicode="&#x2012;" horiz-adv-x="996" vert-adv-y="1720" 
d="M895 633v-246h-793v246h793z" />
    <glyph glyph-name="afii00208" unicode="&#x2015;" horiz-adv-x="1487" vert-adv-y="1720" 
d="M1400 633v-246h-1310v246h1310z" />
    <glyph glyph-name="quotereversed" unicode="&#x201b;" horiz-adv-x="300" vert-adv-y="1720" 
 />
    <glyph glyph-name="radicalex" unicode="&#x203e;" vert-adv-y="1720" 
d="M41 1662h942v-187h-942v187z" />
    <glyph glyph-name="fourinferior" unicode="&#x2084;" horiz-adv-x="578" vert-adv-y="1720" 
d="M477 0h-181v171h-281v163l294 485h168v-492h83v-156h-83v-171zM296 327v206l-113 -206h113z" />
    <glyph glyph-name="franc" unicode="&#x20a3;" horiz-adv-x="1415" vert-adv-y="1720" 
d="M106 0v1365h819v-236h-537v-264h343v-224h-343v-641h-282zM840 0v865h271v-119q93 148 233 148q32 0 68 -9v-244q-54 15 -89 15q-123 0 -174 -122q-28 -66 -28 -214v-320h-281z" />
    <glyph glyph-name="estimated" unicode="&#x212e;" horiz-adv-x="961" vert-adv-y="1720" 
d="M916 403h-591q12 -244 165 -244q103 0 146 134h266q-19 -83 -71 -156q-117 -166 -337 -166q-202 0 -321 129q-128 138 -128 366q0 212 116 353q125 152 323 152q159 0 270 -101q117 -108 149 -309q10 -65 13 -158zM635 571q-5 65 -23 110q-19 49 -59 79q-30 23 -69 23
q-87 0 -129 -95q-22 -48 -28 -117h308z" />
    <glyph glyph-name="minus" unicode="&#x2212;" vert-adv-y="1720" 
d="M41 783h942v-187h-942v187z" />
    <glyph glyph-name="fraction" unicode="&#x2215;" horiz-adv-x="402" vert-adv-y="1720" 
d="M-5 0h-172l588 1365h169z" />
    <glyph glyph-name="dotmath" unicode="&#x22c5;" horiz-adv-x="546" vert-adv-y="1720" 
d="M423 625v-294h-300v294h300z" />
    <glyph glyph-name="fi" unicode="&#xea01;" horiz-adv-x="1052" vert-adv-y="1720" 
d="M139 0v758h-121v184h121v84q0 106 12 160q47 211 309 211q12 0 120 -7v-204q-42 6 -73 6q-64 0 -79 -46q-8 -27 -8 -96v-108h149v-184h-149v-758h-281zM676 1092v273h281v-273h-281zM676 0v942h281v-942h-281z" />
    <glyph glyph-name="fl" unicode="&#xea02;" horiz-adv-x="1052" vert-adv-y="1720" 
d="M139 0v758h-121v184h121v84q0 106 12 160q47 211 309 211q12 0 120 -7v-204q-42 6 -73 6q-64 0 -79 -46q-8 -27 -8 -96v-108h149v-184h-149v-758h-281zM676 0v1365h281v-1365h-281z" />
    <glyph glyph-name="uniEA11" unicode="&#xea11;" vert-adv-y="1720" 
d="M802 1693v-246h-238v246h238zM460 1693v-246h-237v246h237z" />
    <glyph glyph-name="uniEA12" unicode="&#xea12;" vert-adv-y="1720" 
d="M630 1693v-246h-237v246h237z" />
    <glyph glyph-name="uniEA13" unicode="&#xea13;" vert-adv-y="1720" 
d="M514 1711q-36 0 -61 -26q-26 -26 -26 -64q0 -37 25 -63t59 -26q37 0 62 27q24 26 24 62q0 37 -25 64q-25 26 -58 26zM516 1816q81 0 140 -57t59 -138q0 -79 -58 -136q-60 -58 -144 -58q-85 0 -144 57t-59 137q0 83 61 139q60 56 145 56z" />
    <glyph glyph-name="uniEA14" unicode="&#xea14;" vert-adv-y="1720" 
d="M797 1720l-198 -246h-233l184 246h247z" />
    <glyph glyph-name="uniEA15" unicode="&#xea15;" vert-adv-y="1720" 
d="M227 1720h248l183 -246h-232z" />
    <glyph glyph-name="uniEA16" unicode="&#xea16;" vert-adv-y="1720" 
d="M820 1475h-225l-86 121l-88 -121h-216l191 259h233z" />
    <glyph glyph-name="uniEA17" unicode="&#xea17;" vert-adv-y="1720" 
d="M820 1734l-190 -259h-234l-191 259h215l89 -121l86 121h225z" />
    <glyph glyph-name="uniEA18" unicode="&#xea18;" vert-adv-y="1720" 
d="M220 1720h139q28 -107 154 -107t153 107h139q-2 -68 -24 -112q-68 -141 -268 -141q-220 0 -278 165q-12 33 -15 88z" />
    <glyph glyph-name="uniEA19" unicode="&#xea19;" vert-adv-y="1720" 
d="M821 1734q-37 -254 -204 -254q-34 0 -51 8l-63 29q-93 40 -107 40q-43 0 -59 -82h-134l2 15q12 86 54 146q63 90 141 90q44 0 118 -35q76 -36 105 -36q28 0 43 26q10 16 22 53h133z" />
    <glyph glyph-name="uniEA1A" unicode="&#xea1a;" vert-adv-y="1720" 
d="M592 1720l-198 -246h-233l184 246h247zM1002 1720l-199 -246h-232l183 246h248z" />
    <glyph glyph-name="uniEA1B" unicode="&#xea1b;" vert-adv-y="1720" 
d="M387 0h113l-40 -104q25 11 54 11q88 0 147 -44q50 -39 50 -107q0 -71 -54 -116q-58 -50 -160 -50q-110 0 -163 56q-24 25 -29 55h133q7 -31 52 -31q68 0 68 79t-69 79q-37 0 -48 -28h-129z" />
    <glyph glyph-name="uniEA1C" unicode="&#xea1c;" vert-adv-y="1720" 
d="M927 3q-94 -86 -94 -168q0 -90 94 -90q21 0 71 15v-119l-10 -3q-57 -19 -106 -19q-125 0 -181 83q-28 43 -28 97q0 98 120 204h134z" />
    <glyph glyph-name="uniEA1D" unicode="&#xea1d;" vert-adv-y="1720" 
d="M805 1658v-157h-587v157h587z" />
    <glyph glyph-name="uniEA3F" unicode="&#xea3f;" vert-adv-y="1720" 
d="M626 1365v-147q0 -107 -32 -155q-56 -76 -192 -78v89q51 5 75 18q34 20 40 81h-115v192h224z" />
    <glyph glyph-name="Hochkomma" unicode="&#xea4f;" horiz-adv-x="1019" vert-adv-y="1720" 
d="M340 1079v147q0 107 32 155q56 76 192 78v-89q-51 -5 -75 -18q-34 -20 -40 -81h115v-192h-224z" />
    <glyph glyph-name="uniEA66" unicode="&#xea66;" vert-adv-y="1720" 
d="M626 -95v-147q0 -107 -32 -155q-56 -76 -192 -78v89q51 5 75 18q34 20 40 81h-115v192h224z" />
    <glyph glyph-name="uniEA67" unicode="&#xea67;" vert-adv-y="1720" 
d="M626 1365v-147q0 -107 -32 -155q-56 -76 -192 -78v89q51 5 75 18q34 20 40 81h-115v192h224z" />
    <glyph glyph-name="uniEA68" unicode="&#xea68;" vert-adv-y="1720" 
d="M768 1693v-246h-205v246h205zM460 1693v-246h-204v246h204z" />
    <glyph glyph-name="Unterkomma" unicode="&#xea69;" vert-adv-y="1720" 
d="M626 -95v-147q0 -107 -32 -155q-56 -76 -192 -78v89q51 5 75 18q34 20 40 81h-115v192h224z" />
    <glyph glyph-name="uniEA6A" unicode="&#xea6a;" vert-adv-y="1720" 
d="M749 1324v-246h-187v246h187zM459 1324v-246h-185v246h185z" />
    <glyph glyph-name="hp1089" unicode="&#xefed;" vert-adv-y="1720" 
d="M630 1693v-246h-237v246h237z" />
    <glyph glyph-name="hp1087" unicode="&#xefee;" vert-adv-y="1720" 
d="M220 1720h139q28 -107 154 -107t153 107h139q-2 -68 -24 -112q-68 -141 -268 -141q-220 0 -278 165q-12 33 -15 88z" />
    <glyph glyph-name="hp1085" unicode="&#xefef;" vert-adv-y="1720" 
d="M805 1658v-157h-587v157h587z" />
    <glyph glyph-name="hp1045" unicode="&#xeff0;" vert-adv-y="1720" 
d="M592 1720l-198 -246h-233l184 246h247zM1002 1720l-199 -246h-232l183 246h248z" />
    <glyph glyph-name="hp1030" unicode="&#xeff1;" vert-adv-y="1720" 
d="M927 3q-94 -86 -94 -168q0 -90 94 -90q21 0 71 15v-119l-10 -3q-57 -19 -106 -19q-125 0 -181 83q-28 43 -28 97q0 98 120 204h134z" />
    <glyph glyph-name="hp0330" unicode="&#xeff2;" vert-adv-y="1720" 
d="M387 0h113l-40 -104q25 11 54 11q88 0 147 -44q50 -39 50 -107q0 -71 -54 -116q-58 -50 -160 -50q-110 0 -163 56q-24 25 -29 55h133q7 -31 52 -31q68 0 68 79t-69 79q-37 0 -48 -28h-129z" />
    <glyph glyph-name="hp0323" unicode="&#xeff3;" vert-adv-y="1720" 
d="M514 1711q-36 0 -61 -26q-26 -26 -26 -64q0 -37 25 -63t59 -26q37 0 62 27q24 26 24 62q0 37 -25 64q-25 26 -58 26zM516 1816q81 0 140 -57t59 -138q0 -79 -58 -136q-60 -58 -144 -58q-85 0 -144 57t-59 137q0 83 61 139q60 56 145 56z" />
    <glyph glyph-name="hp0322" unicode="&#xeff4;" vert-adv-y="1720" 
d="M820 1734l-190 -259h-234l-191 259h215l89 -121l86 121h225z" />
    <glyph glyph-name="hp0321" unicode="&#xeff5;" vert-adv-y="1720" 
d="M821 1734q-37 -254 -204 -254q-34 0 -51 8l-63 29q-93 40 -107 40q-43 0 -59 -82h-134l2 15q12 86 54 146q63 90 141 90q44 0 118 -35q76 -36 105 -36q28 0 43 26q10 16 22 53h133z" />
    <glyph glyph-name="hp0320" unicode="&#xeff6;" vert-adv-y="1720" 
d="M802 1693v-246h-238v246h238zM460 1693v-246h-237v246h237z" />
    <glyph glyph-name="hp0319" unicode="&#xeff7;" vert-adv-y="1720" 
d="M820 1475h-225l-86 121l-88 -121h-216l191 259h233z" />
    <glyph glyph-name="hp0318" unicode="&#xeff8;" vert-adv-y="1720" 
d="M227 1720h248l183 -246h-232z" />
    <glyph glyph-name="hp0317" unicode="&#xeff9;" vert-adv-y="1720" 
d="M797 1720l-198 -246h-233l184 246h247z" />
    <glyph glyph-name="afii10017" unicode="&#x410;" horiz-adv-x="1157" vert-adv-y="1720" 
d="M429 1365h300l432 -1365h-305l-85 305h-389l-86 -305h-300zM445 526h265l-132 471z" />
    <glyph glyph-name="afii10018" unicode="&#x411;" horiz-adv-x="1081" vert-adv-y="1720" 
d="M399 1111v-236h145q139 0 227 -33q134 -50 207 -173q61 -103 61 -242q0 -222 -148 -339q-70 -56 -170 -75q-66 -13 -182 -13h-433v1365h829v-254h-536zM399 637v-387h128q83 0 122 17q97 43 97 174q0 99 -53 152q-44 44 -152 44h-142z" />
    <glyph glyph-name="afii10019" unicode="&#x412;" horiz-adv-x="1146" vert-adv-y="1720" 
d="M106 0v1365h487q145 0 224 -27q114 -40 169 -130q49 -79 49 -176q0 -201 -196 -292q249 -84 249 -338q0 -222 -168 -333q-105 -69 -281 -69h-533zM399 813h131q108 0 154 33q62 46 62 131q0 93 -75 133q-40 22 -141 22h-131v-319zM399 233h158q123 0 174 41q64 51 64 148
q0 113 -85 159q-50 27 -165 27h-146v-375z" />
    <glyph glyph-name="afii10020" unicode="&#x413;" horiz-adv-x="977" vert-adv-y="1720" 
d="M106 1365h829v-254h-536v-1111h-293v1365z" />
    <glyph glyph-name="afii10021" unicode="&#x414;" horiz-adv-x="1258" vert-adv-y="1720" 
d="M1142 250h109v-455h-293v205h-679v-205h-293v455h49q54 0 87 33q29 28 43 81q5 23 13 89l104 912h860v-1115zM849 250v865h-306l-78 -666q-16 -134 -56 -199h440z" />
    <glyph glyph-name="afii10022" unicode="&#x415;" horiz-adv-x="1065" vert-adv-y="1720" 
d="M106 0v1365h871v-250h-578v-292h528v-238h-528v-335h590v-250h-883z" />
    <glyph glyph-name="afii10024" unicode="&#x416;" horiz-adv-x="1854" vert-adv-y="1720" 
d="M784 0v601h-52l-440 -601h-306l505 703l-456 662h305l397 -571h47v571h286v-571h46l397 571h306l-456 -662l505 -703h-306l-440 601h-52v-601h-286z" />
    <glyph glyph-name="afii10025" unicode="&#x417;" horiz-adv-x="1146" vert-adv-y="1720" 
d="M416 585v238h154q87 0 141 35q72 47 72 131q0 72 -50 113q-54 44 -143 44q-209 0 -252 -240h-289q12 172 120 307q146 183 444 183q201 0 327 -93q136 -101 136 -286q0 -151 -106 -240q-65 -55 -148 -70q255 -69 255 -312q0 -174 -128 -296q-138 -132 -361 -132
q-305 0 -450 236q-83 136 -97 326h292q21 -181 94 -253q61 -59 150 -59q95 0 151 54t56 139q0 175 -226 175h-142z" />
    <glyph glyph-name="afii10026" unicode="&#x418;" horiz-adv-x="1218" vert-adv-y="1720" 
d="M106 1365h281v-809l443 716v93h281v-1365h-281v810l-443 -723v-87h-281v1365z" />
    <glyph glyph-name="afii10028" unicode="&#x41a;" horiz-adv-x="1191" vert-adv-y="1720" 
d="M105 0v1365h286v-571h46l397 571h306l-456 -662l505 -703h-306l-440 601h-52v-601h-286z" />
    <glyph glyph-name="afii10029" unicode="&#x41b;" horiz-adv-x="1213" vert-adv-y="1720" 
d="M508 1115l-78 -711q-17 -152 -46 -222q-67 -163 -225 -197q-53 -11 -159 -11v231q56 4 88 33q28 27 42 82q6 25 13 89l104 956h860v-1365h-293v1115h-306z" />
    <glyph glyph-name="afii10030" unicode="&#x41c;" horiz-adv-x="1484" vert-adv-y="1720" 
d="M106 0v1365h397l243 -935l237 935h394v-1365h-281v949l-233 -949h-238l-238 937v-937h-281z" />
    <glyph glyph-name="afii10031" unicode="&#x41d;" horiz-adv-x="1234" vert-adv-y="1720" 
d="M106 0v1365h293v-519h435v519h293v-1365h-293v596h-435v-596h-293z" />
    <glyph glyph-name="afii10032" unicode="&#x41e;" horiz-adv-x="1278" vert-adv-y="1720" 
d="M649 1396q236 0 393 -176q179 -199 179 -538q0 -290 -135 -485q-80 -115 -202 -176q-109 -54 -243 -54q-289 0 -452 235q-132 190 -132 478q0 338 171 532q162 184 421 184zM636 1146q-132 0 -206 -127q-80 -138 -80 -334q0 -205 79 -341q36 -62 106 -100q51 -27 108 -27
q83 0 150 58t104 184q31 106 31 225q0 200 -78 335q-74 127 -214 127z" />
    <glyph glyph-name="afii10033" unicode="&#x41f;" horiz-adv-x="1234" vert-adv-y="1720" 
d="M1127 1365v-1365h-293v1115h-435v-1115h-293v1365h1021z" />
    <glyph glyph-name="afii10034" unicode="&#x420;" horiz-adv-x="1081" vert-adv-y="1720" 
d="M106 0v1365h433q162 0 247 -30q125 -46 194 -159q59 -98 59 -238q0 -235 -167 -360q-116 -88 -328 -88h-145v-490h-293zM399 728h142q117 0 162 55q43 53 43 141q0 100 -61 151q-47 40 -158 40h-128v-387z" />
    <glyph glyph-name="afii10035" unicode="&#x421;" horiz-adv-x="1200" vert-adv-y="1720" 
d="M866 529h293q-16 -217 -122 -363q-145 -199 -408 -199q-249 0 -395 171q-177 209 -177 541q0 326 171 530q157 187 408 187q269 0 419 -216q85 -123 96 -274h-290q-14 79 -43 129q-64 111 -186 111q-136 0 -208 -129q-74 -134 -74 -335q0 -204 77 -340q70 -125 202 -125
q114 0 175 99q46 76 62 213z" />
    <glyph glyph-name="afii10036" unicode="&#x422;" horiz-adv-x="1026" vert-adv-y="1720" 
d="M366 0v1115h-331v250h957v-250h-333v-1115h-293z" />
    <glyph glyph-name="afii10037" unicode="&#x423;" horiz-adv-x="1109" vert-adv-y="1720" 
d="M150 -19v233q60 -15 100 -15q75 0 119 65q20 28 49 91l-418 1010h326l240 -713l240 713h320l-439 -1089q-66 -164 -148 -232q-91 -77 -261 -77q-57 0 -128 14z" />
    <glyph glyph-name="afii10038" unicode="&#x424;" horiz-adv-x="1645" vert-adv-y="1720" 
d="M968 1365v-149q209 -12 339 -78q140 -71 211 -196q64 -113 64 -260q0 -202 -120 -338q-155 -177 -494 -197v-147h-293v147q-209 13 -339 79q-140 71 -211 196q-64 113 -64 260q0 202 120 338q155 176 494 196v149h293zM675 398v568q-321 -25 -321 -284t321 -284zM968 398
q321 25 321 284t-321 284v-568z" />
    <glyph glyph-name="afii10039" unicode="&#x425;" horiz-adv-x="1091" vert-adv-y="1720" 
d="M15 1365h332l204 -415l207 415h316l-365 -651l399 -714h-339l-227 450l-233 -450h-325l402 714z" />
    <glyph glyph-name="afii10040" unicode="&#x426;" horiz-adv-x="1244" vert-adv-y="1720" 
d="M1127 250h109v-455h-293v205h-837v1365h293v-1115h435v1115h293v-1115z" />
    <glyph glyph-name="afii10041" unicode="&#x427;" horiz-adv-x="1254" vert-adv-y="1720" 
d="M854 467q-104 -58 -256 -58q-206 0 -345 101q-129 94 -155 269q-8 51 -8 136v450h281v-484q0 -111 60 -163q70 -59 203 -59q157 0 200 110q20 50 20 143v453h293v-1365h-293v467z" />
    <glyph glyph-name="afii10042" unicode="&#x428;" horiz-adv-x="1744" vert-adv-y="1720" 
d="M1637 0h-1531v1365h293v-1115h326v1115h293v-1115h326v1115h293v-1365z" />
    <glyph glyph-name="afii10043" unicode="&#x429;" horiz-adv-x="1753" vert-adv-y="1720" 
d="M1637 250h109v-455h-293v205h-1347v1365h293v-1115h326v1115h293v-1115h326v1115h293v-1115z" />
    <glyph glyph-name="afii10046" unicode="&#x42c;" horiz-adv-x="1081" vert-adv-y="1720" 
d="M106 1365h293v-490h145q139 0 227 -33q134 -49 207 -173q61 -103 61 -242q0 -222 -148 -339q-70 -56 -170 -75q-66 -13 -182 -13h-433v1365zM399 637v-387h128q83 0 122 17q97 43 97 174q0 99 -53 152q-44 44 -152 44h-142z" />
    <glyph glyph-name="afii10045" unicode="&#x42b;" horiz-adv-x="1518" vert-adv-y="1720" 
d="M106 1365h293v-490h145q139 0 227 -33q134 -49 207 -173q61 -103 61 -242q0 -222 -148 -339q-70 -56 -170 -75q-66 -13 -182 -13h-433v1365zM399 637v-387h128q83 0 122 17q97 43 97 174q0 99 -53 152q-44 44 -152 44h-142zM1118 0v1365h293v-1365h-293z" />
    <glyph glyph-name="afii10044" unicode="&#x42a;" horiz-adv-x="1238" vert-adv-y="1720" 
d="M264 1111h-250v254h543v-490h145q139 0 227 -33q134 -49 207 -173q61 -103 61 -242q0 -222 -148 -339q-70 -56 -170 -75q-66 -13 -182 -13h-433v1111zM557 637v-387h128q83 0 122 17q97 43 97 174q0 99 -53 152q-44 44 -152 44h-142z" />
    <glyph glyph-name="afii10047" unicode="&#x42d;" horiz-adv-x="1200" vert-adv-y="1720" 
d="M839 823q-53 323 -271 323q-122 0 -186 -111q-30 -50 -44 -129h-289q12 172 120 307q148 183 395 183q251 0 408 -187q171 -204 171 -530q0 -332 -178 -541q-145 -171 -394 -171q-287 0 -433 236q-83 136 -97 326h292q16 -137 63 -213q61 -99 174 -99q169 0 242 215
q25 73 33 153h-429v238h423z" />
    <glyph glyph-name="afii10048" unicode="&#x42e;" horiz-adv-x="1754" vert-adv-y="1720" 
d="M545 846q27 168 93 277q84 140 221 212q117 61 258 61q245 0 401 -176q179 -200 179 -537q0 -291 -135 -486q-80 -115 -202 -176q-109 -54 -243 -54q-225 0 -381 151q-175 170 -200 478h-137v-596h-293v1365h293v-519h146zM1116 1146q-136 0 -210 -127q-80 -138 -80 -328
q0 -210 79 -347q36 -62 106 -100q51 -27 108 -27q83 0 150 58t104 184q31 106 31 227q0 199 -78 333q-74 127 -210 127z" />
    <glyph glyph-name="afii10049" unicode="&#x42f;" horiz-adv-x="1195" vert-adv-y="1720" 
d="M1088 0h-293v536h-168q-81 0 -120 -22q-66 -38 -86 -169q-7 -44 -21 -229q-5 -69 -24 -116h-302q20 35 28 60q12 43 19 134q14 201 28 260q37 148 162 191q-74 37 -119 96q-77 102 -77 243q0 206 151 307q111 74 297 74h525v-1365zM795 757v375h-167q-112 0 -157 -36
q-63 -50 -63 -147q0 -95 51 -144q50 -48 175 -48h161z" />
    <glyph glyph-name="afii10050" unicode="&#x490;" horiz-adv-x="977" vert-adv-y="1720" 
d="M935 1488v-377h-536v-1111h-293v1365h536v123h293z" />
    <glyph glyph-name="afii10051" unicode="&#x402;" horiz-adv-x="1260" vert-adv-y="1720" 
d="M563 855q95 116 248 116q171 0 266 -126q116 -155 116 -421q0 -156 -39 -287q-95 -315 -369 -315q-53 0 -125 18v213q47 -14 75 -14q93 0 140 122q37 98 37 240q0 153 -41 253q-44 108 -142 108q-166 0 -166 -256v-506h-293v1115h-235v250h957v-250h-429v-260z" />
    <glyph glyph-name="afii10053" unicode="&#x404;" horiz-adv-x="1200" vert-adv-y="1720" 
d="M361 823h423v-238h-429q9 -98 44 -184q74 -184 231 -184q114 0 175 99q46 76 62 213h292q-16 -217 -122 -363q-145 -199 -408 -199q-249 0 -395 171q-177 209 -177 541q0 326 171 530q157 187 408 187q270 0 419 -216q86 -123 96 -274h-289q-14 79 -43 129
q-65 111 -187 111q-218 0 -271 -323z" />
    <glyph glyph-name="afii10054" unicode="&#x405;" horiz-adv-x="1042" vert-adv-y="1720" 
d="M41 399h295q12 -80 37 -119q52 -80 150 -80q87 0 135 54q42 46 42 116q0 79 -67 134q-32 26 -81 47q-14 6 -101 37q-168 59 -243 118q-149 118 -149 309q0 164 104 267q116 114 321 114q256 0 384 -175q60 -82 79 -216h-286q-10 79 -50 115q-48 42 -129 42
q-69 0 -108 -33q-45 -37 -45 -105q0 -77 68 -124q50 -36 198 -84q173 -56 268 -131q138 -110 138 -296t-128 -302q-133 -120 -355 -120q-265 0 -395 199q-66 102 -82 233z" />
    <glyph glyph-name="afii10055" unicode="&#x406;" horiz-adv-x="506" vert-adv-y="1720" 
d="M106 0v1365h293v-1365h-293z" />
    <glyph glyph-name="uni04C0" unicode="&#x4c0;" horiz-adv-x="506" vert-adv-y="1720" 
d="M106 0v1365h293v-1365h-293z" />
    <glyph glyph-name="afii10057" unicode="&#x408;" horiz-adv-x="634" vert-adv-y="1720" 
d="M0 -19v233q60 -15 100 -15q103 0 136 112q15 54 15 236v818h293v-846q0 -170 -22 -261q-70 -291 -393 -291q-58 0 -129 14z" />
    <glyph glyph-name="afii10058" unicode="&#x409;" horiz-adv-x="1706" vert-adv-y="1720" 
d="M1079 1365v-490h118q139 0 226 -33q135 -50 208 -173q61 -103 61 -242q0 -222 -148 -339q-70 -56 -170 -75q-66 -13 -182 -13h-406v1115h-279l-78 -711q-16 -151 -45 -222q-67 -163 -225 -197q-53 -11 -159 -11v232q56 3 88 33q28 27 42 81q6 25 13 89l104 956h832z
M1079 637v-387h101q83 0 122 17q97 43 97 174q0 99 -53 152q-44 44 -152 44h-115z" />
    <glyph glyph-name="afii10059" unicode="&#x40a;" horiz-adv-x="1727" vert-adv-y="1720" 
d="M807 861v504h293v-504h118q139 0 226 -32q135 -49 208 -170q61 -102 61 -239q0 -218 -148 -334q-71 -55 -170 -74q-66 -12 -182 -12h-406v617h-408v-617h-293v1365h293v-504h408zM1100 617v-367h101q83 0 122 16q97 42 97 168q0 92 -53 142q-45 41 -152 41h-115z" />
    <glyph glyph-name="afii10060" unicode="&#x40b;" horiz-adv-x="1189" vert-adv-y="1720" 
d="M563 855q95 116 244 116q172 0 252 -126q49 -78 49 -244v-601h-281v557q0 99 -18 138q-30 63 -97 63t-107 -59q-35 -53 -40 -141q-2 -37 -2 -90v-468h-293v1115h-235v250h957v-250h-429v-260z" />
    <glyph glyph-name="afii10145" unicode="&#x40f;" horiz-adv-x="1234" vert-adv-y="1720" 
d="M470 0h-364v1365h293v-1115h435v1115h293v-1365h-364v-205h-293v205z" />
    <glyph glyph-name="afii61352" unicode="&#x2116;" horiz-adv-x="1782" vert-adv-y="1720" 
d="M106 0v1365h296l428 -878v878h281v-1365h-293l-431 877v-877h-281zM1483 979q127 0 205 -84q80 -85 80 -236q0 -147 -85 -234q-77 -79 -200 -79q-130 0 -209 88q-77 87 -77 229q0 138 75 224q80 92 211 92zM1482 792q-34 0 -53 -36t-19 -93q0 -60 19 -94q19 -36 54 -36
q33 0 52 33q20 36 20 96q0 59 -18 93q-20 37 -55 37zM1197 278h571v-211h-571v211z" />
    <glyph glyph-name="afii10023" unicode="&#x401;" horiz-adv-x="1065" vert-adv-y="1720" 
d="M106 0v1365h871v-250h-578v-292h528v-238h-528v-335h590v-250h-883zM822 1693v-246h-238v246h238zM480 1693v-246h-237v246h237z" />
    <glyph glyph-name="glyph444" vert-adv-y="1720" 
d="M802 1693v-246h-238v246h238zM460 1693v-246h-237v246h237z" />
    <glyph glyph-name="afii10027" unicode="&#x419;" horiz-adv-x="1218" vert-adv-y="1720" 
d="M106 1365h281v-809l443 716v93h281v-1365h-281v810l-443 -723v-87h-281v1365zM325 1720h139q28 -107 154 -107t153 107h139q-2 -68 -24 -112q-68 -141 -268 -141q-220 0 -278 164q-12 34 -15 89z" />
    <glyph glyph-name="glyph446" vert-adv-y="1720" 
d="M220 1720h139q28 -107 154 -107t153 107h139q-2 -68 -24 -112q-68 -141 -268 -141q-220 0 -278 164q-12 34 -15 89z" />
    <glyph glyph-name="afii10052" unicode="&#x403;" horiz-adv-x="977" vert-adv-y="1720" 
d="M106 1365h829v-254h-536v-1111h-293v1365zM816 1720l-198 -246h-233l184 246h247z" />
    <glyph glyph-name="glyph448" vert-adv-y="1720" 
d="M797 1720l-198 -246h-233l184 246h247z" />
    <glyph glyph-name="afii10056" unicode="&#x407;" horiz-adv-x="512" vert-adv-y="1720" 
d="M110 0v1365h293v-1365h-293zM512 1693v-246h-205v246h205zM204 1693v-246h-204v246h204z" />
    <glyph glyph-name="glyph450" vert-adv-y="1720" 
d="M768 1693v-246h-205v246h205zM460 1693v-246h-204v246h204z" />
    <glyph glyph-name="afii10061" unicode="&#x40c;" horiz-adv-x="1188" vert-adv-y="1720" 
d="M105 0v1365h286v-571h46l397 571h306l-456 -662l505 -703h-306l-440 601h-52v-601h-286zM880 1720l-198 -246h-233l184 246h247z" />
    <glyph glyph-name="afii10062" unicode="&#x40e;" horiz-adv-x="1109" vert-adv-y="1720" 
d="M150 -19v233q60 -15 100 -15q75 0 119 65q20 28 49 91l-418 1010h326l240 -713l240 713h320l-439 -1089q-66 -164 -148 -232q-91 -77 -261 -77q-57 0 -128 14zM281 1720h139q28 -107 154 -107t153 107h139q-2 -68 -24 -112q-68 -141 -268 -141q-220 0 -278 164
q-12 34 -15 89z" />
    <glyph glyph-name="afii10065" unicode="&#x430;" horiz-adv-x="980" vert-adv-y="1720" 
d="M962 190v-178q-53 -24 -113 -24q-121 0 -184 102q-47 -49 -85 -71q-82 -48 -202 -48q-137 0 -218 64q-98 77 -98 212q0 148 111 234q82 64 238 81q68 7 207 11v75q0 147 -125 147q-117 0 -128 -143h-268q8 149 104 231q103 88 293 88q226 0 328 -108q53 -55 65 -147
q4 -35 4 -141v-315q0 -54 12 -67q13 -14 29 -14q10 0 30 11zM618 429q-98 -4 -153 -19q-122 -32 -122 -142q0 -49 27 -78q24 -26 69 -26q93 0 145 88q34 56 34 127v50z" />
    <glyph glyph-name="afii10066" unicode="&#x431;" horiz-adv-x="995" vert-adv-y="1720" 
d="M609 1403h205v-58l1 -36q0 -134 -41 -180q-39 -45 -176 -70q-110 -19 -148 -37q-36 -16 -76 -69q65 19 131 19q214 0 340 -161q104 -134 104 -340q0 -214 -110 -347q-126 -153 -339 -153q-225 0 -346 162q-100 135 -100 368q0 331 118 529q106 179 351 218q61 10 73 25
q13 16 13 83v47zM498 774q-74 0 -117 -72q-53 -87 -53 -226q0 -140 46 -227q42 -81 124 -81q75 0 118 71q53 86 53 233q0 146 -54 231q-45 71 -117 71z" />
    <glyph glyph-name="afii10067" unicode="&#x432;" horiz-adv-x="928" vert-adv-y="1720" 
d="M90 0v942h498q99 0 165 -36q103 -57 103 -192q0 -154 -153 -204q185 -55 185 -237q0 -151 -120 -227q-73 -46 -213 -46h-465zM367 399v-202h119q129 0 129 101t-129 101h-119zM367 745v-156h119q46 0 71 22q26 21 26 58q0 76 -97 76h-119z" />
    <glyph glyph-name="afii10068" unicode="&#x433;" horiz-adv-x="734" vert-adv-y="1720" 
d="M371 739v-739h-281v942h630v-203h-349z" />
    <glyph glyph-name="afii10069" unicode="&#x434;" horiz-adv-x="1050" vert-adv-y="1720" 
d="M947 203h96v-408h-281v205h-488v-205h-281v408h35q99 0 113 130l67 609h739v-739zM666 203v536h-209l-49 -420q-8 -66 -32 -116h290z" />
    <glyph glyph-name="afii10070" unicode="&#x435;" horiz-adv-x="961" vert-adv-y="1720" 
d="M916 403h-591q12 -244 165 -244q103 0 146 134h266q-19 -83 -71 -156q-117 -166 -337 -166q-202 0 -321 129q-128 138 -128 366q0 212 116 353q125 152 323 152q159 0 270 -101q117 -108 149 -309q10 -65 13 -158zM635 571q-5 65 -23 110q-19 49 -59 79q-30 23 -69 23
q-87 0 -129 -95q-22 -48 -28 -117h308z" />
    <glyph glyph-name="afii10072" unicode="&#x436;" horiz-adv-x="1479" vert-adv-y="1720" 
d="M605 404h-43l-312 -404h-254l381 500l-355 442h254l282 -358h47v358h274v-358h43l284 359h254l-357 -443l380 -500h-254l-310 404h-40v-404h-274v404z" />
    <glyph glyph-name="afii10073" unicode="&#x437;" horiz-adv-x="904" vert-adv-y="1720" 
d="M413 582h62q51 0 77 24q30 27 30 68q0 50 -37 78q-30 22 -82 22q-128 0 -153 -163h-275q15 179 142 277q108 83 292 83q141 0 232 -44q74 -36 112 -99q36 -59 36 -124q0 -93 -65 -157q-38 -38 -103 -55q71 -22 107 -50q82 -64 82 -176q0 -133 -104 -215
q-100 -80 -281 -80q-179 0 -278 71q-148 106 -174 320h270q21 -195 168 -195q61 0 95 28q37 32 37 84q0 56 -48 81q-34 19 -87 19h-55v203z" />
    <glyph glyph-name="afii10074" unicode="&#x438;" horiz-adv-x="1006" vert-adv-y="1720" 
d="M371 0h-281v942h281v-449l264 366v83h281v-942h-281v449l-264 -364v-85z" />
    <glyph glyph-name="afii10076" unicode="&#x43a;" horiz-adv-x="958" vert-adv-y="1720" 
d="M86 0v942h274v-358h43l284 359h254l-357 -443l380 -500h-254l-310 404h-40v-404h-274z" />
    <glyph glyph-name="afii10077" unicode="&#x43b;" horiz-adv-x="1016" vert-adv-y="1720" 
d="M437 739l-50 -429q-25 -213 -159 -287q-74 -41 -221 -40v212q63 0 91 49q17 29 25 100l65 598h738v-942h-281v739h-208z" />
    <glyph glyph-name="afii10078" unicode="&#x43c;" horiz-adv-x="1224" vert-adv-y="1720" 
d="M703 0h-183l-161 570v-570h-269v942h354l168 -620l168 620h354v-942h-269v570z" />
    <glyph glyph-name="afii10079" unicode="&#x43d;" horiz-adv-x="1006" vert-adv-y="1720" 
d="M371 393v-393h-281v942h281v-346h264v346h281v-942h-281v393h-264z" />
    <glyph glyph-name="afii10080" unicode="&#x43e;" horiz-adv-x="992" vert-adv-y="1720" 
d="M505 971q192 0 316 -133q126 -135 126 -366q0 -239 -134 -376q-122 -125 -316 -125q-206 0 -330 140q-122 136 -122 359q0 219 118 355q126 146 342 146zM493 774q-78 0 -123 -85q-44 -83 -44 -217q0 -140 44 -221q45 -83 127 -83q78 0 121 76q48 84 48 227
q0 137 -43 216q-46 87 -130 87z" />
    <glyph glyph-name="afii10081" unicode="&#x43f;" horiz-adv-x="1006" vert-adv-y="1720" 
d="M916 942v-942h-281v739h-264v-739h-281v942h826z" />
    <glyph glyph-name="afii10082" unicode="&#x440;" horiz-adv-x="1028" vert-adv-y="1720" 
d="M90 942h271v-79q89 108 237 108q186 0 293 -163q92 -140 92 -348q0 -223 -103 -355q-48 -62 -120 -97q-73 -37 -151 -37q-141 0 -238 108v-434h-281v1297zM533 758q-90 0 -135 -97q-37 -77 -37 -192q0 -126 45 -205q46 -80 126 -80q78 0 122 75q48 81 48 211
q0 153 -64 235q-42 53 -105 53z" />
    <glyph glyph-name="afii10083" unicode="&#x441;" horiz-adv-x="942" vert-adv-y="1720" 
d="M908 611h-275q-25 164 -138 164q-81 0 -124 -82q-45 -85 -45 -224q0 -143 48 -229q41 -72 117 -72q84 0 124 95q18 41 24 99h271q-18 -143 -90 -238q-117 -153 -331 -153q-193 0 -313 125q-131 137 -131 369q0 246 141 386q121 120 309 120q220 0 334 -146
q68 -89 79 -214z" />
    <glyph glyph-name="afii10084" unicode="&#x442;" horiz-adv-x="691" vert-adv-y="1720" 
d="M486 766v-766h-281v766h-205v176h691v-176h-205z" />
    <glyph glyph-name="afii10085" unicode="&#x443;" horiz-adv-x="871" vert-adv-y="1720" 
d="M-16 942h298l162 -606l155 606h289l-303 -957q-42 -130 -79 -194q-57 -96 -162 -128q-59 -18 -146 -18q-59 0 -119 10v215q49 -12 86 -12q122 0 122 110q0 42 -17 95z" />
    <glyph glyph-name="afii10086" unicode="&#x444;" horiz-adv-x="1339" vert-adv-y="1720" 
d="M807 1365v-469q61 75 165 75q148 0 238 -143q89 -142 89 -357q0 -220 -92 -364q-88 -137 -236 -137q-101 0 -164 77v-402h-274v402q-64 -77 -166 -77q-146 0 -234 137q-92 144 -92 364q0 215 89 357q90 143 239 143q100 0 164 -75v469h274zM426 774q-41 0 -68 -52
q-40 -77 -40 -251q0 -303 112 -303q103 0 103 301q0 305 -107 305zM914 774q-107 0 -107 -305q0 -301 103 -301q112 0 112 303q0 190 -47 263q-25 40 -61 40z" />
    <glyph glyph-name="afii10087" unicode="&#x445;" horiz-adv-x="859" vert-adv-y="1720" 
d="M-3 942h312l120 -222l119 222h305l-272 -439l306 -503h-313l-147 273l-146 -273h-310l300 496z" />
    <glyph glyph-name="afii10088" unicode="&#x446;" horiz-adv-x="1018" vert-adv-y="1720" 
d="M916 203h95v-408h-281v205h-640v942h281v-739h264v739h281v-739z" />
    <glyph glyph-name="afii10091" unicode="&#x449;" horiz-adv-x="1372" vert-adv-y="1720" 
d="M1270 203h95v-408h-281v205h-994v942h281v-739h168v739h281v-739h169v739h281v-739z" />
    <glyph glyph-name="afii10092" unicode="&#x44a;" horiz-adv-x="1019" vert-adv-y="1720" 
d="M7 942h500v-334h124q361 0 361 -297q0 -155 -106 -239q-69 -55 -169 -68q-30 -4 -94 -4h-393v739h-223v203zM507 411v-214h69q143 0 143 107t-143 107h-69z" />
    <glyph glyph-name="afii10093" unicode="&#x44b;" horiz-adv-x="1274" vert-adv-y="1720" 
d="M90 0v942h277v-335h124q361 0 361 -297q0 -154 -106 -238q-69 -55 -169 -68q-30 -4 -94 -4h-393zM906 0v942h277v-942h-277zM367 411v-214h69q142 0 142 107t-142 107h-69z" />
    <glyph glyph-name="afii10094" unicode="&#x44c;" horiz-adv-x="879" vert-adv-y="1720" 
d="M90 0v942h277v-334h124q361 0 361 -297q0 -155 -106 -239q-69 -55 -169 -68q-30 -4 -94 -4h-393zM367 411v-214h70q142 0 142 107t-142 107h-70z" />
    <glyph glyph-name="afii10095" unicode="&#x44d;" horiz-adv-x="942" vert-adv-y="1720" 
d="M608 582q-36 193 -160 193q-113 0 -138 -164h-275q12 142 98 236q113 124 315 124q188 0 309 -120q141 -140 141 -386q0 -232 -131 -369q-120 -125 -314 -125q-231 0 -347 177q-58 88 -73 214h270q8 -65 29 -110q41 -84 120 -84q98 0 141 129q13 40 18 82h-198v203h195z
" />
    <glyph glyph-name="afii10096" unicode="&#x44e;" horiz-adv-x="1403" vert-adv-y="1720" 
d="M460 393h-89v-393h-281v942h281v-346h96q17 92 63 169q60 101 162 155q95 51 218 51q199 0 322 -133q126 -135 126 -365q0 -239 -134 -377q-122 -125 -316 -125q-160 0 -273 86q-148 113 -175 336zM906 774q-80 0 -125 -85q-44 -83 -44 -217q0 -140 44 -221
q45 -83 127 -83q78 0 121 76q48 84 48 224t-42 219q-47 87 -129 87z" />
    <glyph glyph-name="afii10097" unicode="&#x44f;" horiz-adv-x="916" vert-adv-y="1720" 
d="M258 442q-194 48 -194 231q0 133 106 207q69 48 169 59q30 3 94 3h393v-942h-277v335h-46q-77 0 -110 -22q-35 -24 -47 -78q-6 -30 -11 -96q-7 -114 -25 -139h-283q24 25 33 68q7 33 17 162q7 93 31 133q40 69 150 79zM549 532v213h-70q-142 0 -142 -106q0 -107 142 -107
h70z" />
    <glyph glyph-name="afii10098" unicode="&#x491;" horiz-adv-x="734" vert-adv-y="1720" 
d="M720 1051v-312h-349v-739h-281v942h349v109h281z" />
    <glyph glyph-name="afii10099" unicode="&#x452;" horiz-adv-x="1007" vert-adv-y="1720" 
d="M371 0h-281v1131h-109v146h109v88h281v-88h162v-146h-162v-276q83 116 222 116q157 0 245 -126q108 -155 108 -422q0 -154 -37 -285q-88 -316 -346 -316q-50 0 -122 18v213q47 -14 72 -14q82 0 121 122q31 97 31 240q0 152 -35 252q-37 108 -120 108q-139 0 -139 -255
v-506z" />
    <glyph glyph-name="afii10101" unicode="&#x454;" horiz-adv-x="942" vert-adv-y="1720" 
d="M335 582h195v-203h-198q6 -53 25 -101q43 -110 134 -110q84 0 125 95q17 41 23 99h271q-18 -143 -90 -238q-116 -153 -330 -153q-194 0 -314 125q-131 137 -131 369q0 246 141 386q121 120 309 120q220 0 334 -146q68 -89 79 -214h-275q-25 164 -138 164
q-124 0 -160 -193z" />
    <glyph glyph-name="afii10102" unicode="&#x455;" horiz-adv-x="892" vert-adv-y="1720" 
d="M61 284h260q17 -131 138 -131q53 0 83 26q31 27 31 72q0 63 -69 101q-30 17 -123 49q-157 54 -209 93q-102 76 -102 196q0 134 100 210q92 71 251 71q212 0 316 -131q47 -60 62 -144h-261q-26 90 -108 90q-89 0 -89 -83q0 -56 64 -90q28 -14 151 -54q118 -38 181 -86
q100 -75 100 -205q0 -135 -102 -217q-99 -80 -268 -80q-164 0 -256 63q-130 88 -150 250z" />
    <glyph glyph-name="afii10103" unicode="&#x456;" horiz-adv-x="469" vert-adv-y="1720" 
d="M94 1092v273h281v-273h-281zM94 0v942h281v-942h-281z" />
    <glyph glyph-name="afii10105" unicode="&#x458;" horiz-adv-x="469" vert-adv-y="1720" 
d="M-35 -347v213q39 -4 52 -4q53 0 67 38q9 25 9 114v928h281v-965q0 -187 -79 -264q-70 -68 -219 -68q-46 0 -111 8zM93 1092v273h281v-273h-281z" />
    <glyph glyph-name="afii10106" unicode="&#x459;" horiz-adv-x="1352" vert-adv-y="1720" 
d="M618 0v739h-181l-50 -429q-25 -213 -159 -287q-74 -41 -221 -40v212q63 0 91 49q17 29 25 100l65 598h707v-335h97q360 0 360 -297q0 -154 -106 -238q-68 -55 -169 -68q-29 -4 -94 -4h-365zM895 410v-213h42q142 0 142 106q0 107 -142 107h-42z" />
    <glyph glyph-name="afii10107" unicode="&#x45a;" horiz-adv-x="1342" vert-adv-y="1720" 
d="M608 411h-237v-411h-281v942h281v-340h237v340h277v-340h97q360 0 360 -294q0 -153 -106 -237q-69 -54 -169 -67q-29 -4 -93 -4h-366v411zM885 411v-214h42q142 0 142 107t-142 107h-42z" />
    <glyph glyph-name="afii10108" unicode="&#x45b;" horiz-adv-x="1002" vert-adv-y="1720" 
d="M90 1131h-109v146h109v88h281v-88h162v-146h-162v-276q96 116 244 116q172 0 252 -127q49 -77 49 -243v-601h-281v557q0 99 -18 138q-30 63 -98 63q-89 0 -128 -101q-20 -52 -20 -193v-464h-281v1131z" />
    <glyph glyph-name="afii10193" unicode="&#x45f;" horiz-adv-x="1006" vert-adv-y="1720" 
d="M363 0h-273v942h281v-739h264v739h281v-942h-272v-205h-281v205z" />
    <glyph glyph-name="afii10089" unicode="&#x447;" horiz-adv-x="1025" vert-adv-y="1720" 
d="M349 942v-288q0 -72 26 -101q39 -45 123 -45q115 0 145 105q11 40 11 126v203h281v-942h-281v344q-85 -49 -230 -49q-207 0 -298 106q-58 68 -58 209v332h281z" />
    <glyph glyph-name="afii10090" unicode="&#x448;" horiz-adv-x="1360" vert-adv-y="1720" 
d="M1270 0h-1180v942h281v-739h168v739h281v-739h169v739h281v-942z" />
    <glyph glyph-name="afii10071" unicode="&#x451;" horiz-adv-x="961" vert-adv-y="1720" 
d="M916 403h-591q12 -244 165 -244q103 0 146 134h266q-19 -83 -71 -156q-117 -166 -337 -166q-202 0 -321 129q-128 138 -128 366q0 212 116 353q125 152 323 152q159 0 270 -101q117 -108 149 -309q10 -65 13 -158zM635 571q-5 65 -23 110q-19 49 -59 79q-30 23 -69 23
q-87 0 -129 -95q-22 -48 -28 -117h308zM770 1324v-246h-238v246h238zM428 1324v-246h-237v246h237z" />
    <glyph glyph-name="glyph495" vert-adv-y="1720" 
d="M802 1324v-246h-238v246h238zM460 1324v-246h-237v246h237z" />
    <glyph glyph-name="afii10075" unicode="&#x439;" horiz-adv-x="1006" vert-adv-y="1720" 
d="M371 0h-281v942h281v-449l264 366v83h281v-942h-281v449l-264 -364v-85zM236 1365h133q26 -120 134 -120q109 0 134 120h134q-3 -73 -22 -120q-62 -153 -246 -153q-201 0 -254 178q-11 36 -13 95v0z" />
    <glyph glyph-name="glyph497" vert-adv-y="1720" 
d="M245 1365h133q26 -120 134 -120q109 0 134 120h134q-3 -73 -22 -120q-62 -153 -246 -153q-201 0 -254 178q-11 36 -13 95v0z" />
    <glyph glyph-name="afii10100" unicode="&#x453;" horiz-adv-x="734" vert-adv-y="1720" 
d="M371 739v-739h-281v942h630v-203h-349zM684 1365l-199 -273h-205l184 273h220z" />
    <glyph glyph-name="glyph499" vert-adv-y="1720" 
d="M783 1365l-199 -273h-205l184 273h220z" />
    <glyph glyph-name="afii10104" unicode="&#x457;" horiz-adv-x="475" vert-adv-y="1720" 
d="M97 0v942h281v-942h-281zM475 1324v-246h-187v246h187zM185 1324v-246h-185v246h185z" />
    <glyph glyph-name="glyph501" horiz-adv-x="469" vert-adv-y="1720" 
d="M94 0v942h281v-942h-281z" />
    <glyph glyph-name="glyph502" vert-adv-y="1720" 
d="M749 1324v-246h-187v246h187zM459 1324v-246h-185v246h185z" />
    <glyph glyph-name="afii10109" unicode="&#x45c;" horiz-adv-x="964" vert-adv-y="1720" 
d="M86 0v942h274v-358h43l284 359h254l-357 -443l380 -500h-254l-310 404h-40v-404h-274zM767 1365l-199 -273h-205l184 273h220z" />
    <glyph glyph-name="afii10110" unicode="&#x45e;" horiz-adv-x="871" vert-adv-y="1720" 
d="M-16 942h298l162 -606l155 606h289l-303 -957q-42 -130 -79 -194q-57 -96 -162 -128q-59 -18 -146 -18q-59 0 -119 10v215q49 -12 86 -12q122 0 122 110q0 42 -17 95zM169 1365h133q26 -120 134 -120q109 0 134 120h134q-3 -73 -22 -120q-62 -153 -246 -153
q-201 0 -254 178q-11 36 -13 95v0z" />
    <glyph glyph-name="uni200A" unicode="&#x200a;" horiz-adv-x="205" vert-adv-y="1720" 
 />
    <glyph glyph-name="uni200B" unicode="&#x200b;" horiz-adv-x="0" vert-adv-y="1720" 
 />
    <glyph glyph-name="uniFEFF" unicode="&#xfeff;" horiz-adv-x="0" vert-adv-y="1720" 
 />
    <glyph glyph-name="uniFFFC" unicode="&#xfffc;" horiz-adv-x="2048" vert-adv-y="1720" 
d="M2048 1150h-100v223h-223v100h323v-323zM1473 1373h-323v100h323v-100zM2048 575h-100v323h100v-323zM898 1388h-323v100h323v-100zM2048 0h-323v100h223v223h100v-323zM323 1373h-223v-223h-100v323h323v-100zM1473 0h-323v100h323v-100zM100 575h-100v323h100v-323z
M898 0h-323v100h323v-100zM323 0h-323v323h100v-223h223v-100zM555 1096q134 0 215 -105q84 -109 84 -279q0 -152 -65 -257q-81 -131 -234 -131t-236 132q-64 102 -64 260q0 172 83 275q85 105 217 105zM554 1017q-91 0 -148 -81q-58 -83 -58 -219q0 -135 49 -220
q28 -48 78 -75q38 -21 81 -21q87 0 140 71q65 90 65 239q0 136 -57 222q-55 84 -150 84zM963 357v737h233q101 0 147 -29q78 -51 78 -153q0 -109 -101 -160q128 -37 128 -184q0 -135 -100 -188q-44 -23 -113 -23h-272zM1053 780h124q82 0 109 20q44 30 44 96q0 83 -55 108
q-22 11 -91 11h-131v-235zM1053 436h140q87 0 116 19q48 32 48 114q0 92 -65 123q-27 13 -113 13h-126v-269zM1493 346v80q25 -10 51 -10q72 0 98 67q13 33 13 141v470h90v-485q0 -90 -8 -129q-17 -73 -75 -112q-45 -29 -112 -29q-26 0 -57 7z" />
    <glyph glyph-name="uniFFFD" unicode="&#xfffd;" horiz-adv-x="2048" vert-adv-y="1720" 
d="M1021 1556l940 -938l-940 -937l-937 937zM686 779h214q9 199 132 199q54 0 84 -43q23 -35 23 -85q0 -52 -24 -96q-10 -20 -97 -107q-65 -66 -83 -131q-13 -45 -16 -157v-6v-8h198v10q1 58 10 88q12 41 35 70q9 11 43 39q73 61 113 121q46 69 46 173q0 158 -104 254
q-87 79 -226 79q-138 0 -229 -84q-112 -103 -119 -316zM1145 243h-254v-248h254v248z" />
    <glyph glyph-name="uni2000" unicode="&#x2000;" vert-adv-y="1720" 
 />
    <glyph glyph-name="uni2001" unicode="&#x2001;" horiz-adv-x="2048" vert-adv-y="1720" 
 />
    <glyph glyph-name="uni2002" unicode="&#x2002;" vert-adv-y="1720" 
 />
    <glyph glyph-name="uni2003" unicode="&#x2003;" horiz-adv-x="2048" vert-adv-y="1720" 
 />
    <glyph glyph-name="uni2004" unicode="&#x2004;" horiz-adv-x="683" vert-adv-y="1720" 
 />
    <glyph glyph-name="uni2005" unicode="&#x2005;" horiz-adv-x="512" vert-adv-y="1720" 
 />
    <glyph glyph-name="uni2006" unicode="&#x2006;" horiz-adv-x="341" vert-adv-y="1720" 
 />
    <glyph glyph-name="uni2007" unicode="&#x2007;" horiz-adv-x="1128" vert-adv-y="1720" 
 />
    <glyph glyph-name="uni2008" unicode="&#x2008;" horiz-adv-x="549" vert-adv-y="1720" 
 />
    <glyph glyph-name="uni2009" unicode="&#x2009;" horiz-adv-x="410" vert-adv-y="1720" 
 />
    <glyph glyph-name="ccircumflex" unicode="&#x109;" horiz-adv-x="942" vert-adv-y="1720" 
d="M908 611l-275 -1q-25 164 -138 164q-81 0 -124 -82q-45 -85 -45 -223q0 -143 48 -229q41 -72 117 -72q84 0 124 95q18 41 24 99h271q-18 -143 -90 -238q-117 -153 -331 -153q-193 0 -313 125q-131 137 -131 369q0 246 141 386q121 120 309 120q220 0 334 -147
q68 -88 79 -213zM777 1092h-205l-95 147l-95 -147h-197l182 273h228z" />
    <glyph glyph-name="GID00520" horiz-adv-x="942" vert-adv-y="1720" 
d="M908 611l-275 -1q-25 164 -138 164q-81 0 -124 -82q-45 -85 -45 -223q0 -143 48 -229q41 -72 117 -72q84 0 124 95q18 41 24 99h271q-18 -143 -90 -238q-117 -153 -331 -153q-193 0 -313 125q-131 137 -131 369q0 246 141 386q121 120 309 120q220 0 334 -147
q68 -88 79 -213z" />
    <glyph glyph-name="GID00521" vert-adv-y="1720" 
d="M808 1092h-205l-95 147l-95 -147h-197l182 273h228z" />
    <glyph glyph-name="hcircumflex" unicode="&#x125;" horiz-adv-x="1002" vert-adv-y="1720" 
d="M90 0v1365h281v-510q96 116 244 116q172 0 252 -126q49 -78 49 -244v-601h-281v557q0 99 -18 138q-30 63 -98 63q-88 0 -128 -101q-20 -52 -20 -193v-464h-281zM531 1475h-225l-86 121l-88 -121h-216l191 259h233z" />
    <glyph glyph-name="Hbar" unicode="&#x126;" horiz-adv-x="1267" vert-adv-y="1720" 
d="M123 986h-109v157h109v222h293v-222h435v222h293v-222h109v-157h-109v-986h-293v596h-435v-596h-293v986zM416 986v-140h435v140h-435z" />
    <glyph glyph-name="hbar" unicode="&#x127;" horiz-adv-x="1002" vert-adv-y="1720" 
d="M90 1131h-109v146h109v88h281v-88h162v-146h-162v-276q96 116 244 116q172 0 252 -127q49 -77 49 -243v-601h-281v557q0 99 -18 138q-30 63 -98 63q-89 0 -128 -101q-20 -52 -20 -193v-464h-281v1131z" />
    <glyph glyph-name="Itilde" unicode="&#x128;" horiz-adv-x="506" vert-adv-y="1720" 
d="M107 0v1365h293v-1365h-293zM562 1734q-38 -253 -204 -253q-34 0 -51 8l-63 28q-92 40 -107 40q-43 0 -59 -82h-134q1 10 2 15q12 86 54 146q62 90 141 90q44 0 118 -35q76 -35 106 -35q27 0 42 26q10 15 22 52h133z" />
    <glyph glyph-name="GID00526" horiz-adv-x="506" vert-adv-y="1720" 
d="M106 0v1365h293v-1365h-293z" />
    <glyph glyph-name="GID00527" vert-adv-y="1720" 
d="M821 1734q-38 -253 -204 -253q-34 0 -51 8l-63 28q-92 40 -107 40q-43 0 -59 -82h-134q1 10 2 15q12 86 54 146q62 90 141 90q44 0 118 -35q76 -35 106 -35q27 0 42 26q10 15 22 52h133z" />
    <glyph glyph-name="itilde" unicode="&#x129;" horiz-adv-x="469" vert-adv-y="1720" 
d="M94 0v942h281v-942h-281zM520 1332q-37 -253 -204 -253q-34 0 -51 8l-63 28q-92 40 -107 40q-43 0 -59 -82h-134q1 10 2 15q12 86 54 146q62 90 141 90q44 0 118 -35q75 -35 106 -35q27 0 42 26q10 16 22 52h133z" />
    <glyph glyph-name="IJ" unicode="&#x132;" horiz-adv-x="1085" vert-adv-y="1720" 
d="M106 0v1365h293v-1365h-293zM450 -19v233q60 -15 100 -15q103 0 136 112q15 54 15 236v818h293v-846q0 -170 -22 -261q-70 -291 -393 -291q-58 0 -129 14z" />
    <glyph glyph-name="GID00530" horiz-adv-x="634" vert-adv-y="1720" 
d="M0 -19v233q60 -15 100 -15q103 0 136 112q15 54 15 236v818h293v-846q0 -170 -22 -261q-70 -291 -393 -291q-58 0 -129 14z" />
    <glyph glyph-name="ij" unicode="&#x133;" horiz-adv-x="939" vert-adv-y="1720" 
d="M94 1092v273h281v-273h-281zM94 0v942h281v-942h-281zM435 -347v213q39 -4 51 -4q54 0 68 38q9 25 9 114v928h281v-965q0 -187 -79 -264q-70 -68 -220 -68q-45 0 -110 8zM563 1092v273h281v-273h-281z" />
    <glyph glyph-name="GID00532" horiz-adv-x="469" vert-adv-y="1720" 
d="M94 1092v273h281v-273h-281zM94 0v942h281v-942h-281z" />
    <glyph glyph-name="GID00533" horiz-adv-x="469" vert-adv-y="1720" 
d="M-35 -347v213q39 -4 51 -4q54 0 68 38q9 25 9 114v928h281v-965q0 -187 -79 -264q-70 -68 -220 -68q-45 0 -110 8zM93 1092v273h281v-273h-281z" />
    <glyph glyph-name="jcircumflex" unicode="&#x135;" horiz-adv-x="469" vert-adv-y="1720" 
d="M-35 -347v213q39 -4 51 -4q54 0 68 38q9 25 9 114v928h281v-965q0 -187 -79 -264q-71 -68 -220 -68q-45 0 -110 8zM530 1092h-205l-95 147l-95 -147h-197l182 273h228z" />
    <glyph glyph-name="kgreenlandic" unicode="&#x138;" horiz-adv-x="948" vert-adv-y="1720" 
d="M371 619l255 323h293l-326 -386l357 -556h-296l-222 365l-61 -73v-292h-281v942h281v-323z" />
    <glyph glyph-name="Ldot" unicode="&#x13f;" horiz-adv-x="987" vert-adv-y="1720" 
d="M106 0v1365h293v-1111h536v-254h-829zM726 825v-246h-237v246h237z" />
    <glyph glyph-name="ldot" unicode="&#x140;" horiz-adv-x="680" vert-adv-y="1720" 
d="M94 0v1365h281v-1365h-281zM680 825v-246h-237v246h237z" />
    <glyph glyph-name="napostrophe" unicode="&#x149;" horiz-adv-x="1189" vert-adv-y="1720" 
d="M277 0v942h271v-87q92 116 246 116q178 0 259 -126q50 -78 50 -244v-601h-281v557q0 97 -19 138q-29 63 -97 63q-88 0 -128 -101q-20 -52 -20 -193v-464h-281zM224 1144v-147q0 -110 -32 -155q-51 -72 -192 -78v89q54 6 75 18q33 18 40 81h-115v192h224z" />
    <glyph glyph-name="Eng" unicode="&#x14a;" horiz-adv-x="1229" vert-adv-y="1720" 
d="M106 1365h293v-175q55 79 99 115q98 83 235 83q144 0 251 -91q102 -87 130 -255q13 -77 13 -205v-518q0 -226 -75 -324q-104 -137 -305 -137q-73 0 -164 29v251q54 -30 99 -30q85 0 122 68q30 56 30 246v444q0 138 -32 191q-49 81 -167 81q-144 0 -197 -128
q-39 -91 -39 -268v-742h-293v1365z" />
    <glyph glyph-name="eng" unicode="&#x14b;" horiz-adv-x="1002" vert-adv-y="1720" 
d="M506 -228v213q39 -4 51 -4q54 0 68 37q10 25 10 114v425q0 97 -19 138q-29 63 -97 63q-88 0 -128 -101q-20 -52 -20 -193v-464h-281v942h271v-87q92 116 246 116q178 0 259 -126q50 -78 50 -244v-505q0 -187 -79 -264q-70 -68 -220 -68q-43 0 -111 8z" />
    <glyph glyph-name="Obreve" unicode="&#x14e;" horiz-adv-x="1278" vert-adv-y="1720" 
d="M642 1396q243 0 400 -176q179 -199 179 -538q0 -290 -135 -485q-80 -115 -202 -176q-109 -54 -242 -54q-290 0 -453 235q-132 190 -132 490q0 326 171 520q162 184 414 184zM640 1146q-136 0 -210 -127q-80 -138 -80 -329q0 -210 79 -346q36 -62 106 -100q51 -27 108 -27
q83 0 150 58t104 184q31 106 31 227q0 198 -78 333q-74 127 -210 127zM346 1720h139q28 -107 154 -107t153 107h139q-2 -68 -24 -112q-68 -141 -268 -141q-220 0 -278 164q-12 34 -15 89z" />
    <glyph glyph-name="GID00542" horiz-adv-x="1278" vert-adv-y="1720" 
d="M642 1396q243 0 400 -176q179 -199 179 -538q0 -290 -135 -485q-80 -115 -202 -176q-109 -54 -242 -54q-290 0 -453 235q-132 190 -132 490q0 326 171 520q162 184 414 184zM640 1146q-136 0 -210 -127q-80 -138 -80 -329q0 -210 79 -346q36 -62 106 -100q51 -27 108 -27
q83 0 150 58t104 184q31 106 31 227q0 198 -78 333q-74 127 -210 127z" />
    <glyph glyph-name="GID00543" vert-adv-y="1720" 
d="M220 1720h139q28 -107 154 -107t153 107h139q-2 -68 -24 -112q-68 -141 -268 -141q-220 0 -278 164q-12 34 -15 89z" />
    <glyph glyph-name="obreve" unicode="&#x14f;" horiz-adv-x="992" vert-adv-y="1720" 
d="M498 971q199 0 323 -133q126 -135 126 -373q0 -232 -134 -369q-122 -125 -316 -125q-206 0 -330 140q-122 136 -122 361q0 218 118 353q127 146 335 146zM495 774q-80 0 -125 -85q-44 -83 -44 -217q0 -140 44 -221q45 -83 127 -83q78 0 121 76q48 84 48 224t-43 219
q-46 87 -128 87zM229 1365h133q26 -120 134 -120q109 0 134 120h134q-3 -73 -22 -120q-62 -153 -246 -153q-201 0 -254 178q-11 36 -13 95z" />
    <glyph glyph-name="GID00545" horiz-adv-x="992" vert-adv-y="1720" 
d="M498 971q199 0 323 -133q126 -135 126 -373q0 -232 -134 -369q-122 -125 -316 -125q-206 0 -330 140q-122 136 -122 361q0 218 118 353q127 146 335 146zM495 774q-80 0 -125 -85q-44 -83 -44 -217q0 -140 44 -221q45 -83 127 -83q78 0 121 76q48 84 48 224t-43 219
q-46 87 -128 87z" />
    <glyph glyph-name="GID00546" vert-adv-y="1720" 
d="M245 1365h133q26 -120 134 -120q109 0 134 120h134q-3 -73 -22 -120q-62 -153 -246 -153q-201 0 -254 178q-11 36 -13 95z" />
    <glyph glyph-name="Tbar" unicode="&#x166;" horiz-adv-x="1026" vert-adv-y="1720" 
d="M366 794h-129v146h129v175h-331v250h957v-250h-333v-175h130v-146h-130v-794h-293v794z" />
    <glyph glyph-name="tbar" unicode="&#x167;" horiz-adv-x="589" vert-adv-y="1720" 
d="M414 701h163v-176h-163v-205q2 -74 8 -95q12 -44 77 -44q30 0 68 13v-201q-83 -18 -162 -18q-169 0 -230 91q-33 49 -40 143q-2 26 -2 121v195h-133v176h133v65h-133v176h133v61l189 252h92v-313h163v-176h-163v-65z" />
    <glyph glyph-name="Utilde" unicode="&#x168;" horiz-adv-x="1196" vert-adv-y="1720" 
d="M90 1365h281v-795q0 -195 54 -272q58 -81 178 -81q130 0 177 111q33 76 33 243v794h293v-779q0 -184 -26 -279q-45 -163 -162 -252q-116 -88 -321 -88q-294 0 -421 198q-55 87 -74 209q-12 78 -12 216v775zM919 1734q-38 -253 -204 -253q-34 0 -51 8l-63 28
q-92 40 -107 40q-43 0 -59 -82h-134q1 10 2 15q12 86 54 146q62 90 141 90q44 0 118 -35q76 -35 106 -35q27 0 42 26q10 15 22 52h133z" />
    <glyph glyph-name="GID00550" horiz-adv-x="1196" vert-adv-y="1720" 
d="M90 1365h281v-795q0 -195 54 -272q58 -81 178 -81q130 0 177 111q33 76 33 243v794h293v-779q0 -184 -26 -279q-45 -163 -162 -252q-116 -88 -321 -88q-294 0 -421 198q-55 87 -74 209q-12 78 -12 216v775z" />
    <glyph glyph-name="Ubreve" unicode="&#x16c;" horiz-adv-x="1196" vert-adv-y="1720" 
d="M90 1365h281v-795q0 -195 54 -272q58 -81 178 -81q130 0 177 111q33 76 33 243v794h293v-779q0 -184 -26 -279q-45 -163 -162 -252q-116 -88 -321 -88q-294 0 -421 198q-55 87 -74 209q-12 78 -12 216v775zM306 1720h139q28 -107 154 -107t153 107h139q-2 -68 -24 -112
q-68 -141 -268 -141q-220 0 -278 164q-12 34 -15 89z" />
    <glyph glyph-name="wcircumflex" unicode="&#x175;" horiz-adv-x="1303" vert-adv-y="1720" 
d="M536 1l-289 -1l-263 942h294l126 -592l112 592h274l115 -588l126 588h283l-256 -941l-288 -1l-119 582zM948 1092h-205l-95 147l-95 -147h-197l182 273h228z" />
    <glyph glyph-name="longs" unicode="&#x17f;" horiz-adv-x="583" vert-adv-y="1720" 
d="M140 0v1026q0 106 12 160q47 211 313 211q4 0 116 -7v-204q-44 6 -72 6q-65 0 -80 -46q-8 -27 -8 -96v-1050h-281z" />
    <glyph glyph-name="uni01F5" unicode="&#x1f5;" horiz-adv-x="1006" vert-adv-y="1720" 
d="M72 -81h277q22 -104 134 -104q99 0 134 82q27 65 27 187v42q-87 -110 -228 -110q-167 0 -267 121q-105 129 -105 350t105 353q104 131 273 131q139 0 222 -113v84h271v-807q0 -237 -74 -344q-110 -160 -353 -160q-214 0 -322 101q-75 70 -94 187zM484 766q-73 0 -114 -71
q-45 -76 -45 -196q0 -152 59 -234q37 -52 96 -52q88 0 132 95q36 77 36 187q0 124 -43 195q-46 76 -121 76zM630 1365l-199 -273h-205l184 273h220z" />
    <glyph glyph-name="GID00555" horiz-adv-x="1006" vert-adv-y="1720" 
d="M72 -81h277q22 -104 134 -104q99 0 134 82q27 65 27 187v42q-87 -110 -228 -110q-167 0 -267 121q-105 129 -105 350t105 353q104 131 273 131q139 0 222 -113v84h271v-807q0 -237 -74 -344q-110 -160 -353 -160q-214 0 -322 101q-75 70 -94 187zM484 766q-73 0 -114 -71
q-45 -76 -45 -196q0 -152 59 -234q37 -52 96 -52q88 0 132 95q36 77 36 187q0 124 -43 195q-46 76 -121 76z" />
    <glyph glyph-name="GID00556" vert-adv-y="1720" 
d="M783 1365l-199 -273h-205l184 273h220z" />
    <glyph glyph-name="Wgrave" unicode="&#x1e80;" horiz-adv-x="1542" vert-adv-y="1720" 
d="M0 1365h294l162 -936l176 936h279l174 -938l165 938h292l-308 -1365h-293l-172 927l-169 -927h-296zM581 1720h248l183 -246h-232z" />
    <glyph glyph-name="GID00558" horiz-adv-x="1542" vert-adv-y="1720" 
d="M0 1365h294l162 -936l176 936h279l174 -938l165 938h292l-308 -1365h-293l-172 927l-169 -927h-296z" />
    <glyph glyph-name="GID00559" vert-adv-y="1720" 
d="M227 1720h248l183 -246h-232z" />
    <glyph glyph-name="wgrave" unicode="&#x1e81;" horiz-adv-x="1303" vert-adv-y="1720" 
d="M536 1l-289 -1l-263 942h294l126 -592l112 592h274l115 -588l126 588h283l-256 -941l-288 -1l-119 582zM450 1365h221l183 -273h-205z" />
    <glyph glyph-name="GID00561" horiz-adv-x="1303" vert-adv-y="1720" 
d="M536 1l-289 -1l-263 942h294l126 -592l112 592h274l115 -588l126 588h283l-256 -941l-288 -1l-119 582z" />
    <glyph glyph-name="GID00562" vert-adv-y="1720" 
d="M241 1365h221l183 -273h-205z" />
    <glyph glyph-name="Wacute" unicode="&#x1e82;" horiz-adv-x="1542" vert-adv-y="1720" 
d="M0 1365h294l162 -936l176 936h279l174 -938l165 938h292l-308 -1365h-293l-172 927l-169 -927h-296zM951 1720l-198 -246h-233l184 246h247z" />
    <glyph glyph-name="GID00564" vert-adv-y="1720" 
d="M797 1720l-198 -246h-233l184 246h247z" />
    <glyph glyph-name="wacute" unicode="&#x1e83;" horiz-adv-x="1303" vert-adv-y="1720" 
d="M536 1l-289 -1l-263 942h294l126 -592l112 592h274l115 -588l126 588h283l-256 -941l-288 -1l-119 582zM826 1365l-199 -273h-205l184 273h220z" />
    <glyph glyph-name="wdieresis" unicode="&#x1e85;" horiz-adv-x="1303" vert-adv-y="1720" 
d="M536 1l-289 -1l-263 942h294l126 -592l112 592h274l115 -588l126 588h283l-256 -941l-288 -1l-119 582zM941 1324v-246h-238v246h238zM599 1324v-246h-237v246h237z" />
    <glyph glyph-name="Ygrave" unicode="&#x1ef2;" horiz-adv-x="1131" vert-adv-y="1720" 
d="M-4 1365h326l246 -540l246 540h321l-423 -837v-528h-293v532zM365 1720h248l183 -246h-232z" />
    <glyph glyph-name="GID00568" horiz-adv-x="1131" vert-adv-y="1720" 
d="M-4 1365h326l246 -540l246 540h321l-423 -837v-528h-293v532z" />
    <glyph glyph-name="ygrave" unicode="&#x1ef3;" horiz-adv-x="871" vert-adv-y="1720" 
d="M-16 942h298l162 -606l155 606l289 -1l-303 -956q-42 -130 -79 -194q-57 -96 -162 -128q-59 -18 -145 -18q-60 0 -120 10v215q49 -12 86 -12q122 0 122 112q0 40 -17 93zM231 1365h221l183 -273h-205z" />
    <glyph glyph-name="GID00570" horiz-adv-x="871" vert-adv-y="1720" 
d="M-16 942h298l162 -606l155 606l289 -1l-303 -956q-42 -130 -79 -194q-57 -96 -162 -128q-59 -18 -145 -18q-60 0 -120 10v215q49 -12 86 -12q122 0 122 112q0 40 -17 93z" />
    <glyph glyph-name="Ibreve" unicode="&#x12c;" horiz-adv-x="506" vert-adv-y="1720" 
d="M107 0v1365h293v-1365h-293zM-38 1720h139q28 -107 154 -107t153 107h139q-2 -68 -24 -112q-68 -141 -268 -141q-220 0 -278 164q-12 34 -15 89z" />
    <glyph glyph-name="Jcircumflex" unicode="&#x134;" horiz-adv-x="634" vert-adv-y="1720" 
d="M0 -19v233q60 -15 100 -15q103 0 136 112q15 54 15 236v818h293v-846q0 -170 -22 -261q-70 -291 -393 -291q-58 0 -129 14zM705 1475h-225l-86 121l-88 -121h-216l191 259h233z" />
    <glyph glyph-name="glyph574" horiz-adv-x="300" vert-adv-y="1720" 
 />
    </font>
</defs>
</svg>
