<?xml version="1.0" standalone="no"?>
<!DOCTYPE svg PUBLIC "-//W3C//DTD SVG 1.1//EN" "http://www.w3.org/Graphics/SVG/1.1/DTD/svg11.dtd" >
<svg xmlns="http://www.w3.org/2000/svg">
<metadata></metadata>
<defs>
<font id="pf_handbook_probold" horiz-adv-x="1818" >
<font-face units-per-em="1000" ascent="750" descent="-250" />
<missing-glyph horiz-adv-x="235" />
<glyph unicode="fj" horiz-adv-x="483" d="M432 -52q0 -27 -7 -51t-22.5 -42.5t-40.5 -29t-62 -10.5q-22 0 -37 2.5t-25 4.5q-7 2 -13.5 6.5t-4.5 16.5l10 58q4 18 27 13q5 -1 14 -1.5t14 -0.5q40 1 40 47v377q0 11 -3.5 14t-16.5 3h-106q-9 0 -11.5 -4t-2.5 -9v-328q0 -14 -16 -14h-77q-15 0 -15 14v327 q0 14 -13 14h-36q-14 0 -14 16v57q0 15 16 15h35q13 0 13 11v57q0 61 41 98.5t123 37.5q49 0 81.5 -10t50.5 -21q12 -8 12 -13q0 -3 -1 -5l-28 -64q-5 -9 -11 -9q-4 0 -7.5 1.5t-7.5 3.5q-16 8 -38 12.5t-45 4.5q-32 0 -47.5 -17.5t-15.5 -43.5v-33q0 -10 12 -10h220 q8 0 11.5 -4.5t3.5 -10.5v-480v0z" />
<glyph unicode="ffj" horiz-adv-x="735" d="M684 -52q0 -27 -7 -51t-22.5 -42.5t-40.5 -29t-62 -10.5q-22 0 -37 2.5t-25 4.5q-7 2 -13.5 6.5t-4.5 16.5l10 58q4 17 27 13q5 -1 14 -1.5t14 -0.5q21 1 30 12t9 35v372q0 7 -2 14.5t-13 7.5h-110q-10 0 -12 -4t-2 -9v-328q0 -14 -16 -14h-78q-15 0 -15 14v327 q0 14 -12 14h-117q-9 0 -11.5 -4t-2.5 -9v-328q0 -14 -16 -14h-77q-15 0 -15 14v327q0 14 -13 14h-36q-14 0 -14 16v57q0 15 16 15h35q13 0 13 11v41q0 29 10.5 54.5t31 44.5t51 30t71.5 11q34 0 62 -6.5t48 -14.5q2 -1 5 -1q5 0 9 3t10 7q17 14 52 24t76 10q43 0 77 -10.5 t51 -20.5l10.5 -6t3.5 -6q0 -2 -2 -6l-26 -63q-4 -10 -13 -10q-4 0 -8 1.5t-8 3.5q-18 8 -42.5 12t-47.5 4q-29 0 -45.5 -17t-16.5 -43v-43q0 -10 11 -10h221q8 0 11.5 -4.5t3.5 -10.5v-480zM317 443q11 0 11 11v55q0 6 -1 8t-3 3q-16 6 -33.5 9.5t-37.5 3.5 q-30 0 -49 -15.5t-19 -44.5v-20q0 -10 12 -10h120z" />
<glyph unicode="ff" horiz-adv-x="558" d="M78 502q0 28 10.5 52.5t31 43t51.5 29.5t72 11q35 0 62 -7t47 -15q2 -1 6 -1q5 0 8 3q22 18 54 29.5t75 11.5q32 0 59 -7t45 -17q4 -2 7.5 -5.5t3.5 -8.5q0 -3 -2 -9l-21 -54q-3 -8 -7 -10.5t-7 -2.5q-4 0 -10 2q-15 5 -30 7.5t-33 2.5q-30 0 -46 -17t-16 -41v-45 q0 -10 11 -10h77q16 0 16 -16v-57q0 -15 -16 -15h-74q-10 0 -12 -4.5t-2 -9.5v-327q0 -15 -16 -15h-77q-16 0 -16 15v326q0 6 -2.5 10.5t-9.5 4.5h-117q-9 0 -11.5 -4.5t-2.5 -9.5v-327q0 -15 -16 -15h-77q-16 0 -16 15v326q0 6 -2.5 10.5t-9.5 4.5h-36q-15 0 -15 15v58 q0 15 16 15h36q12 0 12 11v47zM317 444q12 0 12 11v56q0 6 -1.5 8t-3.5 3q-36 14 -75 14q-32 0 -47.5 -17.5t-15.5 -43.5v-21q0 -10 12 -10h119z" />
<glyph unicode="fi" horiz-adv-x="483" d="M432 16q0 -16 -16 -16h-75q-16 0 -16 15v323q0 11 -3.5 14t-16.5 3h-106q-9 0 -11.5 -4t-2.5 -9v-328q0 -14 -16 -14h-77q-15 0 -15 14v327q0 14 -13 14h-36q-14 0 -14 16v57q0 15 16 15h35q13 0 13 11v57q0 61 41 98.5t123 37.5q49 0 81.5 -10t50.5 -21q12 -8 12 -13 q0 -3 -1 -5l-28 -64q-5 -9 -11 -9q-4 0 -7.5 1.5t-7.5 3.5q-16 8 -38 12.5t-45 4.5q-32 0 -47.5 -17.5t-15.5 -43.5v-33q0 -10 12 -10h220q8 0 11.5 -4.5t3.5 -10.5v-412v0z" />
<glyph unicode="fl" horiz-adv-x="519" d="M199 355q-9 0 -11.5 -4t-2.5 -9v-328q0 -14 -16 -14h-77q-15 0 -15 14v327q0 14 -13 14h-36q-14 0 -14 16v57q0 15 16 15h35q13 0 13 11v69q4 56 45 89.5t119 33.5q23 0 42.5 -3t37.5 -8q8 -2 15.5 -4.5t15.5 -2.5h4.5t4.5 1q13 5 27 8t29 3q9 0 11.5 -5t2.5 -17v-478 q0 -29 8 -39t32 -10h11q10 0 12 -6t2 -11v-63q0 -11 -7 -14t-17 -4q-8 -1 -16.5 -1h-10.5q-69 0 -95.5 38t-26.5 109v373q0 13 -5.5 17.5t-13.5 6.5q-27 8 -57 8q-28 0 -45.5 -16.5t-17.5 -42.5v-32q0 -10 12 -10h70q19 0 19 -19v-51q0 -11 -5.5 -14.5t-13.5 -3.5h-68z" />
<glyph unicode="ffi" horiz-adv-x="735" d="M494 657q47 0 80 -10t51 -21q12 -6 12 -15q0 -5 -3 -11l-22 -53q-6 -11 -14 -11q-7 0 -16 4q-19 8 -39.5 12t-43.5 4q-29 0 -45.5 -17t-16.5 -43v-43q0 -10 11 -10h218q11 0 14.5 -4.5t3.5 -15.5v-409q0 -14 -17 -14h-75q-16 0 -16 14v325q0 10 -3 13t-13 3h-109 q-10 0 -12 -4t-2 -9v-328q0 -14 -16 -14h-78q-15 0 -15 14v327q0 14 -12 14h-117q-9 0 -11.5 -4t-2.5 -9v-328q0 -14 -16 -14h-77q-15 0 -15 14v327q0 14 -13 14h-36q-14 0 -14 16v57q0 15 16 15h35q13 0 13 11v46q0 28 10.5 52.5t31 43t51 29.5t71.5 11q35 0 62.5 -7 t47.5 -15q1 -1 5 -1q3 0 9.5 4t9.5 6q44 34 118 34zM317 443q11 0 11 11v56q0 7 -2 9.5t-8 4.5q-14 6 -30.5 8.5t-34.5 2.5q-30 0 -49 -15t-19 -46v-21q0 -10 12 -10h120z" />
<glyph unicode="ffl" horiz-adv-x="756" d="M317 443q11 0 11 11v56q0 6 -1.5 8t-4.5 4q-13 7 -32.5 10t-39.5 3q-32 0 -48.5 -16t-16.5 -45v-21q0 -10 12 -10h120zM494 657q23 0 42.5 -3t37.5 -8q8 -2 15.5 -4.5t15.5 -2.5h4.5t4.5 1q13 5 27 8t29 3q9 0 11.5 -5t2.5 -17v-488q0 -29 8 -39t32 -10h11q10 0 12 -6 t2 -11v-63q0 -11 -7 -14t-17 -4q-8 -1 -16.5 -1h-10.5q-69 0 -96 38t-27 109v383q0 13 -5.5 17.5t-13.5 6.5q-13 4 -26.5 6.5t-30.5 2.5q-28 0 -45.5 -17t-17.5 -43v-43q0 -10 12 -10h67q19 0 19 -19v-51q0 -11 -5 -14.5t-14 -3.5h-65q-9 0 -11.5 -4t-2.5 -9v-328 q0 -14 -16 -14h-77q-16 0 -16 14v327q0 6 -2 10t-10 4h-116q-9 0 -11.5 -4t-2.5 -9v-328q0 -14 -16 -14h-77q-15 0 -15 14v327q0 14 -13 14h-36q-14 0 -14 16v57q0 15 16 15h35q13 0 13 11v58q5 52 46 88t118 36q35 0 62.5 -7t47.5 -15q1 -1 5 -1q5 0 8 3q22 18 54.5 29.5 t74.5 11.5z" />
<glyph unicode="ft" horiz-adv-x="571" d="M438 456q0 -5 2.5 -9.5t11.5 -4.5h79q16 0 16 -14v-58q0 -15 -16 -15h-81q-12 0 -12 -11v-203q0 -22 10 -35.5t36 -13.5q7 0 20 1.5t21 3.5q4 1 6.5 1.5t5.5 0.5q13 0 16 -15l12 -55q2 -9 -1.5 -13t-8.5 -7q-8 -4 -20 -6.5t-24.5 -4t-24.5 -2.5t-21 -1q-41 0 -67 11 t-41 29.5t-21 44t-6 55.5v209q0 11 -12 11h-119q-9 0 -11.5 -4t-2.5 -9v-328q0 -14 -16 -14h-77q-15 0 -15 14v327q0 14 -13 14h-36q-14 0 -14 16v57q0 15 16 15h35q13 0 13 11v65q1 25 11 47.5t27 39t41.5 26.5t56.5 10q23 0 43.5 -3t32.5 -6q9 -2 14.5 -8.5t3.5 -15.5 l-11 -59q-3 -13 -16 -13h-5.5t-7.5 1q-8 3 -20 4.5t-19 1.5q-21 0 -32.5 -13.5t-11.5 -35.5v-42q0 -10 12 -10h119q7 0 10 4.5t3 9.5v71q0 15 16 18l73 17q9 2 14.5 -2t5.5 -12v-93z" />
<glyph unicode=" "  horiz-adv-x="235" />
<glyph unicode="&#x09;" horiz-adv-x="235" />
<glyph unicode="&#xa0;" horiz-adv-x="235" />
<glyph unicode="!" horiz-adv-x="278" d="M186 184q0 -2 -1.5 -6.5t-8.5 -4.5h-52q-7 0 -9 4.5t-2 5.5l-21 419q0 15 14 15h85q14 0 14 -14zM215 56q0 -26 -19 -45t-47 -19t-47.5 19t-19.5 45t19.5 45t46.5 19q28 0 47.5 -18.5t19.5 -45.5z" />
<glyph unicode="&#x22;" horiz-adv-x="319" d="M268 421q0 -8 -5.5 -11t-10.5 -3h-52q-6 0 -11.5 3t-5.5 10v183q0 8 5.5 11t11.5 3h52q6 0 11 -3t5 -10v-183zM138 421q0 -8 -6 -11t-11 -3h-51q-7 0 -12 3t-5 10v183q0 8 5 11t11 3h53q6 0 11 -3t4 -10v-183h1z" />
<glyph unicode="#" horiz-adv-x="497" d="M468 374q-1 -4 -4 -9t-11 -5h-59q-10 0 -12 -8l-19 -89q-4 -14 10 -14h58q15 0 13 -15l-10 -48q-3 -14 -18 -14h-63q-8 0 -10 -1.5t-4 -7.5l-24 -112q-3 -11 -15 -11h-50q-12 0 -14.5 5.5t-0.5 12.5l21 103q2 6 0 9t-10 3h-62q-6 0 -8 -2.5t-4 -7.5l-25 -112 q-3 -11 -14 -11h-51q-9 0 -13.5 4.5t-2.5 12.5q0 1 3 17.5t8 35.5l12 50q2 7 0 9.5t-10 2.5h-49q-9 0 -11.5 4t-1.5 10l11 50q2 13 16 13h54q7 0 9.5 3t4.5 8l20 89q2 6 0 9t-11 3h-56q-17 0 -13 14l11 51q3 13 16 13h66q8 0 10 8l23 104q1 10 14 10h51q12 0 14.5 -5.5 t0.5 -11.5l-20 -93q-3 -12 10 -12h62q9 0 11 9l25 103q1 10 14 10h50q12 0 15 -5.5t1 -11.5l-21 -93q-1 -5 0.5 -8.5t9.5 -3.5h50q12 0 13.5 -6.5t-0.5 -14.5zM298 348q2 6 0.5 9.5t-9.5 3.5h-60q-12 0 -14 -11l-18 -88q-2 -7 0 -10t10 -3h60q11 0 12 11z" />
<glyph unicode="$" horiz-adv-x="497" d="M438 185q0 -36 -11.5 -64.5t-31.5 -48.5t-47.5 -32.5t-59.5 -18.5q-8 -2 -8 -10v-59q0 -14 -14 -14h-41q-14 0 -14 13v59q0 8 -9 8q-35 4 -71 17.5t-63 36.5q-17 14 -5 29l33 41q8 11 16.5 9.5t21.5 -12.5q18 -17 45.5 -26t56.5 -9q43 0 72 19t29 57q0 21 -13 36 t-31.5 26t-40 18.5t-38.5 13.5q-27 9 -54.5 21.5t-49.5 31.5t-36 46t-14 66q0 31 11 58t30 48t45 35t55 20q9 1 9 11v53q0 13 14 13h42q13 0 13 -12v-53q0 -8 12 -11q59 -8 104 -38q11 -8 18 -15.5t-1 -20.5l-26 -39q-16 -25 -41 -6q-25 20 -49.5 27.5t-48.5 7.5 q-15 0 -30.5 -5t-28 -14.5t-20 -24.5t-7.5 -35q0 -17 10.5 -30t26 -22.5t33 -16.5t32.5 -11q31 -9 62.5 -21.5t56.5 -32t40.5 -48.5t15.5 -71z" />
<glyph unicode="%" horiz-adv-x="760" d="M266 -21q-4 -9 -15 -9h-41q-11 0 -12.5 5.5t0.5 12.5l284 648q5 11 18 11h36q12 0 14.5 -5.5t-0.5 -13.5zM306 345q0 -54 -35.5 -81.5t-92.5 -27.5t-93 27.5t-36 81.5v167q0 53 36.5 81.5t91.5 28.5q56 0 92.5 -28t36.5 -82v-167zM223 512q0 20 -13 30.5t-32 10.5 q-20 0 -32.5 -11t-12.5 -30v-167q0 -18 12 -29t32 -11t33 11t13 29v167zM711 106q0 -54 -36 -81.5t-92 -27.5t-92.5 27.5t-36.5 81.5v167q0 53 36.5 81.5t91.5 28.5q56 0 92.5 -28t36.5 -82v-167zM629 273q0 20 -13 31t-33 11t-33 -11.5t-13 -30.5v-167q0 -19 12.5 -30 t32.5 -11t33.5 10.5t13.5 30.5v167z" />
<glyph unicode="&#x26;" horiz-adv-x="624" d="M251 484q-39 0 -65 -22t-26 -56v-221q0 -16 3 -33t13 -30.5t29 -22.5t51 -9h24q32 0 52 9.5t31 24t15 32.5t4 35v80q-1 2 -3 6.5t-10 4.5h-98q-14 0 -14 13v64q0 5 4.5 9t10.5 4h212q31 0 59.5 8.5t60.5 28.5q8 4 11 4q7 0 12 -8l26 -46q3 -6 3 -11q0 -7 -9 -14 q-33 -26 -71.5 -37t-67.5 -13q-9 -2 -13.5 -5.5t-4.5 -14.5v-73q0 -41 -12.5 -76.5t-38 -62.5t-65 -42.5t-94.5 -15.5h-22q-57 0 -96.5 15t-64 40.5t-35 60.5t-10.5 76v219q0 40 15 72t41.5 55t62.5 35.5t78 12.5h165q7 0 12 -4t5 -12v-65q0 -15 -16 -15h-164z" />
<glyph unicode="'" horiz-adv-x="205" d="M145 421q0 -8 -5 -11t-10 -3h-52q-7 0 -12 3t-5 10v183q0 8 5 11t11 3h54q6 0 10.5 -3.5t4.5 -9.5z" />
<glyph unicode="(" horiz-adv-x="351" d="M301 645q-25 -42 -47.5 -87t-39.5 -92.5t-27 -97t-10 -99.5q0 -47 9 -96.5t24 -97t35.5 -91t44.5 -79.5q10 -15 8.5 -23.5t-8.5 -13.5l-31 -19q-23 -14 -40 9q-30 39 -57.5 85.5t-48.5 98.5t-34 109t-13 118q0 62 14.5 120.5t37 111t50 98.5t54.5 84q8 11 15.5 12.5 t16.5 -3.5l40 -21q19 -8 7 -26z" />
<glyph unicode=")" horiz-adv-x="342" d="M278 269q0 -61 -13 -118t-34 -109t-48.5 -98.5t-57.5 -85.5q-17 -23 -40 -9l-31 19q-7 5 -8.5 13.5t8.5 23.5q24 36 44.5 79.5t35.5 91t24 97t9 96.5q0 50 -10 99.5t-27 97t-39.5 92.5t-47.5 87q-12 18 7 26l40 21q9 5 16.5 3.5t15.5 -12.5q27 -38 54.5 -84t50 -98.5 t37 -111t14.5 -120.5z" />
<glyph unicode="*" horiz-adv-x="387" d="M352 523q3 -8 1.5 -14.5t-13.5 -9.5l-89 -18q-10 -2 -2 -10l60 -70q7 -8 3.5 -15t-5.5 -9l-36 -25q-9 -6 -15.5 -6.5t-13.5 11.5l-40 71q-2 3 -5 5.5t-5 0.5q-2 2 -4 0t-3 -4l-44 -74q-5 -8 -10.5 -10t-15.5 6l-35 24q-8 6 -10 12.5t7 16.5l60 66q7 7 -1 9l-90 20 q-18 5 -13 22l14 42q3 9 8.5 13t16.5 -1l84 -37q8 -4 6 5l-10 93q-1 8 3 13t17 5h42q23 0 20 -20l-11 -90q-1 -9 7 -6l83 36q20 8 25 -11l14 -41v0z" />
<glyph unicode="+" horiz-adv-x="497" d="M458 241q0 -21 -20 -21h-137q-8 0 -10 -2.5t-2 -8.5v-132q0 -19 -21 -19h-44q-21 0 -21 19v133q0 10 -14 10h-130q-20 0 -20 20v37q0 20 20 20h132q12 0 12 11v133q0 19 20 19h45q21 0 21 -19v-130q0 -8 2 -11t10 -3h137q20 0 20 -20v-36v0z" />
<glyph unicode="," horiz-adv-x="229" d="M131 -93q-5 -14 -12.5 -19t-18.5 -5h-30q-16 0 -18.5 11t-2.5 22l12 173q1 13 7.5 22t23.5 9h65q22 0 27 -10t0 -27z" />
<glyph unicode="-" horiz-adv-x="324" d="M274 206q0 -15 -14 -15h-200q-16 0 -16 14v57q0 14 15 14h200q15 0 15 -13v-57v0z" />
<glyph unicode="." horiz-adv-x="229" d="M181 57q0 -26 -19.5 -45.5t-46.5 -19.5q-28 0 -47.5 19.5t-19.5 45.5t19.5 45t46.5 19q28 0 47.5 -18.5t19.5 -45.5z" />
<glyph unicode="/" horiz-adv-x="320" d="M81 -50q-5 -16 -24 -16h-39q-12 0 -14 7t1 15l229 703q4 10 10 13t20 3h34q11 0 14 -6t0 -14z" />
<glyph unicode="0" horiz-adv-x="497" d="M439 169q0 -42 -14 -75t-39.5 -55t-60.5 -33.5t-76 -11.5t-76 11t-60.5 33t-40 54.5t-14.5 75.5v284q0 42 14.5 74t40 54.5t60 34t75.5 11.5q40 0 75 -11t61 -33t40.5 -54.5t14.5 -75.5v-283zM329 452q0 35 -22.5 57t-57.5 22t-58.5 -22t-23.5 -57v-283q0 -36 23 -57.5 t58 -21.5t58 20.5t23 58.5v283z" />
<glyph unicode="1" horiz-adv-x="497" d="M323 16q0 -16 -16 -16h-78q-16 0 -16 15v455q0 7 -4 10t-12 -2l-64 -36q-27 -14 -27 10v61q0 10 2 17t11 13l104 65q13 9 30 9h51q19 0 19 -18v-583v0z" />
<glyph unicode="2" horiz-adv-x="497" d="M431 15q0 -8 -4.5 -11.5t-10.5 -3.5h-347q-16 0 -16 18v45q0 13 2 22t13 23l196 249q18 23 35 48.5t17 48.5q0 32 -21.5 54.5t-59.5 22.5q-29 0 -48.5 -13t-34.5 -31q-7 -9 -14.5 -13t-16.5 2l-43 32q-11 9 -13 16t5 16q33 48 77.5 67t98.5 19q39 0 72 -10t57.5 -30 t38 -50.5t13.5 -71.5q0 -21 -6.5 -41.5t-17 -40t-23.5 -37t-25 -33.5l-159 -202q-11 -14 7 -14h213q15 0 15 -14v-67v0z" />
<glyph unicode="3" horiz-adv-x="497" d="M413 177q0 -85 -51 -134t-137 -49q-39 0 -73.5 8.5t-62.5 31.5q-29 24 -46 56q-7 16 6 24l61 34q8 5 12.5 2t9.5 -9q15 -23 37 -37t49 -14q36 0 59.5 19.5t23.5 60.5v30q0 49 -23 67.5t-66 18.5h-51q-17 0 -17 16v62q0 15 16 15h63q37 0 58.5 22t20.5 51v8 q-1 31 -23.5 51t-57.5 20q-26 0 -48 -12t-36 -32q-5 -8 -12.5 -12.5t-16.5 0.5l-48 28q-11 7 -13 14.5t3 18.5q28 48 75.5 69t100.5 21q42 0 76 -11t58.5 -32.5t38 -52.5t13.5 -70q0 -17 -5 -34.5t-14 -33.5t-22.5 -29t-29.5 -20q-6 -2 -6 -6t5 -7q39 -15 56 -48.5t17 -63.5 v-41v0z" />
<glyph unicode="4" horiz-adv-x="497" d="M229 605q7 12 23 12h75q12 0 14 -7.5t-1 -12.5l-180 -362q-2 -3 -2 -7t8 -4h100q8 0 10 5.5t2 11.5v134q0 5 2.5 8.5t9.5 3.5h84q8 0 11 -4t3 -9v-132q0 -11 2.5 -14.5t10.5 -3.5h50q5 0 8.5 -2.5t3.5 -9.5v-68q0 -8 -3.5 -10.5t-8.5 -2.5h-49q-6 0 -10 -3t-4 -12v-104 q0 -5 -3 -8.5t-9 -3.5h-85q-8 0 -10.5 3.5t-2.5 8.5v105q0 14 -15 14h-211q-7 0 -12.5 4t-5.5 14v41q0 17 2 26t7 18z" />
<glyph unicode="5" horiz-adv-x="497" d="M432 171q0 -41 -14.5 -73.5t-40.5 -55.5t-61 -35.5t-77 -12.5q-62 0 -104 20t-74 78q-10 15 5 23l62 33q9 5 13 1t8 -9q18 -24 36.5 -37t49.5 -13q37 0 62 20.5t25 55.5v73q0 32 -23.5 54t-59.5 22q-20 0 -34 -5t-26 -13q-9 -5 -17 -6t-18 3l-42 20q-9 5 -14.5 11 t-5.5 17v259q0 16 16 16h300q16 0 16 -15v-66q0 -14 -15 -14h-194q-14 0 -14 -12v-99q0 -16 17 -9q10 5 22.5 7.5t23.5 2.5q40 0 73 -13t56.5 -36t36 -54.5t12.5 -69.5v-68v0z" />
<glyph unicode="6" horiz-adv-x="497" d="M440 166q0 -42 -15 -74t-40.5 -53.5t-60.5 -33t-75 -11.5q-42 0 -77.5 11.5t-61.5 33.5t-41 54t-15 73v286q0 40 14.5 72.5t40 55t60 34.5t75.5 12q32 0 61.5 -5.5t55.5 -22.5q24 -15 40.5 -36t22.5 -39q4 -11 -8 -18l-62 -32q-10 -6 -14 -1.5t-9 11.5q-17 23 -36.5 35.5 t-49.5 12.5q-35 0 -58.5 -22t-23.5 -57v-63q0 -8 4.5 -11t12.5 2q14 11 36.5 17.5t39.5 6.5q38 0 71.5 -12t58.5 -34t39.5 -54t14.5 -72v-66zM331 232q0 36 -25.5 56t-60.5 20q-16 0 -31 -5.5t-26 -16t-18 -24.5t-7 -30v-66q0 -35 25 -56t58 -21q34 0 59 21.5t25 55.5z" />
<glyph unicode="7" horiz-adv-x="497" d="M450 563q0 -8 -3 -18.5t-6 -18.5l-239 -513q-2 -5 -6 -9t-12 -4h-88q-8 0 -12.5 5.5t-0.5 13.5l224 483q3 7 1 13t-13 6h-117q-12 0 -16 -3t-4 -11v-37q0 -17 -15 -17h-63q-17 0 -17 16v132q0 16 16 16h344q12 0 19.5 -4.5t7.5 -16.5v-33v0z" />
<glyph unicode="8" horiz-adv-x="497" d="M248 628q40 0 75 -12t60.5 -35t40.5 -55.5t15 -73.5q0 -33 -16.5 -65.5t-42.5 -51.5q-10 -7 -1 -13q29 -19 48 -54t19 -79q0 -47 -16 -83.5t-43 -61.5t-63.5 -37.5t-77.5 -12.5q-40 0 -76 11t-63 34t-43 58.5t-16 83.5q0 45 21.5 84t53.5 57q8 5 0 10q-32 19 -48 54 t-16 65q0 39 15 72t40.5 56t60 36t73.5 13zM333 453q0 33 -22.5 57.5t-62.5 24.5q-36 0 -61 -24t-25 -59q0 -33 24 -57.5t62 -24.5t61.5 24t23.5 59zM247 281q-17 0 -33.5 -7.5t-29.5 -20t-21 -30.5t-8 -39q0 -46 25.5 -71t64.5 -25q38 0 66 27t28 72q0 42 -27 68t-65 26z " />
<glyph unicode="9" horiz-adv-x="497" d="M432 176q0 -43 -14.5 -77t-40 -57t-60 -35.5t-75.5 -12.5q-30 0 -58.5 5.5t-52.5 18t-42.5 32t-27.5 47.5q-4 13 8 18l62 32q10 5 14.5 1t9.5 -11q17 -23 36 -35.5t50 -12.5q35 0 58.5 22.5t23.5 64.5v58q0 8 -4 10.5t-12 -2.5q-15 -10 -37.5 -17t-39.5 -7q-39 0 -72 12 t-58 34t-39 54t-14 72v55q0 42 16 75.5t43 57t63 36t76 12.5q88 0 137.5 -46.5t49.5 -127.5v-276zM322 451q0 35 -25 57.5t-59 22.5q-33 0 -58.5 -22.5t-25.5 -56.5v-62q0 -36 25 -56t60 -20q33 0 57.5 21.5t24.5 54.5z" />
<glyph unicode=":" horiz-adv-x="229" d="M181 330q0 -26 -19.5 -46t-46.5 -20q-28 0 -47.5 19.5t-19.5 45.5t19.5 45t46.5 19t47 -19t20 -44zM181 57q0 -26 -19.5 -45.5t-46.5 -19.5q-28 0 -47.5 19t-19.5 45q0 27 19.5 45.5t46.5 18.5v1q28 0 47.5 -18.5t19.5 -45.5z" />
<glyph unicode=";" horiz-adv-x="229" d="M181 329q0 -27 -19.5 -46t-47.5 -19q-27 0 -46.5 18.5t-19.5 45.5q0 26 19 45t47 19q27 0 47 -18.5t20 -44.5zM124 -92q-5 -16 -12.5 -20.5t-18.5 -4.5h-30q-15 0 -18 11.5t-3 22.5l10 171q2 14 8.5 23.5t23.5 9.5h65q22 0 26.5 -10.5t-0.5 -27.5z" />
<glyph unicode="&#x3c;" horiz-adv-x="497" d="M457 11q0 -8 -6 -13t-14 0l-377 201q-13 7 -17.5 14t-4.5 16v43q0 9 4 16.5t16 13.5q35 19 55.5 30.5t37 20t34.5 18t48.5 25.5t78.5 41.5t125 66.5q8 5 14 0.5t6 -12.5v-55q0 -7 -1.5 -14t-12.5 -12l-284 -150q-7 -4 -7 -9t7 -8l284 -148q11 -5 12.5 -12t1.5 -14v-59v0z " />
<glyph unicode="=" horiz-adv-x="497" d="M463 307q0 -19 -20 -19h-389q-20 0 -20 18v45q0 18 20 18h388q9 0 15 -5t6 -13v-44zM462 133q0 -18 -19 -18h-389q-20 0 -20 18v44q0 18 20 18h388q8 0 14.5 -4.5t6.5 -12.5v-45h-1z" />
<glyph unicode="&#x3e;" horiz-adv-x="497" d="M458 229q0 -9 -4.5 -16t-17.5 -14l-377 -201q-8 -5 -14 0t-6 13v59q0 7 1.5 14t12.5 12l284 147q7 4 7 9t-7 8l-284 151q-11 5 -12.5 12t-1.5 14v55q0 8 6 12.5t14 -0.5l379 -202q12 -6 16 -13.5t4 -16.5v-43v0z" />
<glyph unicode="?" horiz-adv-x="505" d="M450 461q0 -26 -8.5 -49t-23 -43.5t-32.5 -36.5t-37 -28q-35 -22 -60 -45t-25 -59v-19q0 -10 -12 -10h-80q-11 0 -15.5 4t-4.5 16v26q0 39 23.5 77t64.5 65q37 24 64.5 46.5t29.5 51.5q2 33 -19 54t-56 21q-38 0 -55.5 -16t-33.5 -39q-8 -11 -23 -2l-53 33q-15 9 -5 27 q31 52 73.5 72t98.5 20q42 0 76.5 -11t59.5 -32t39 -52t14 -71zM273 56q0 -26 -19 -45t-48 -19q-27 0 -47 19t-20 45t20 45t47 19t46.5 -18t19.5 -46h1z" />
<glyph unicode="@" horiz-adv-x="731" d="M546 187q12 0 26.5 6t27 22t20.5 43.5t8 71.5q0 53 -22 95t-57 71t-77.5 44t-84.5 15q-57 0 -106 -20.5t-85 -55.5t-56 -83.5t-20 -103.5q0 -56 19.5 -104.5t55 -84.5t85 -56.5t110.5 -20.5q79 0 158 32q10 3 17 4t12 -13l9 -25q6 -23 -11 -28q-41 -15 -86 -23.5 t-94 -8.5q-77 0 -140.5 22.5t-108.5 65t-70 103t-25 137.5q0 69 25 128t69 102.5t105.5 68.5t133.5 25q67 0 124 -21t99 -58.5t66 -89.5t24 -113q0 -60 -14 -100t-36 -65t-49.5 -35.5t-53.5 -10.5q-30 0 -55 9t-39 25q-3 3 -5 3t-5 -3q-16 -15 -38.5 -24.5t-45.5 -9.5 q-55 0 -89.5 31.5t-34.5 82.5t32.5 82t88.5 31q14 0 27 -4.5t23 -10.5q2 -1 4 -1q7 0 7 8v8q0 19 -13 30.5t-43 11.5q-18 0 -37.5 -6t-33.5 -12q-5 0 -9.5 1.5t-6.5 6.5l-12 35q-2 5 0 9t6 6q49 23 102 23q68 0 98 -34.5t30 -85.5v-92q0 -24 11 -40t40 -16zM360 288 q-22 0 -36 -14.5t-14 -34.5t14 -34.5t36 -14.5t35.5 14.5t13.5 34.5q0 17 -12 33t-37 16z" />
<glyph unicode="A" horiz-adv-x="482" d="M466 21q2 -5 0.5 -13t-15.5 -8h-81q-16 0 -20 13l-23 100q-2 8 -4.5 11t-8.5 3h-148q-8 0 -10 -4t-4 -9q-2 -8 -5 -21.5t-6.5 -29t-6.5 -29.5t-5 -21t-7.5 -10t-11.5 -3h-77q-14 0 -16.5 6t-0.5 14l146 583q5 14 21 14h114q7 0 12 -1.5t7 -11.5zM266 370l-24 115 q-1 4 -3.5 4.5t-3.5 -4.5l-23 -113l-31 -143q-1 -5 0 -7t7 -2h104q10 0 6 10z" />
<glyph unicode="B" horiz-adv-x="516" d="M461 454q0 -32 -19.5 -66.5t-48.5 -53.5q-4 -4 1 -6q45 -20 66 -59t21 -81t-13 -76.5t-37.5 -59.5t-59.5 -38.5t-80 -13.5h-213q-18 0 -18 17v583q0 17 18 17h202q84 0 132.5 -41.5t48.5 -121.5zM289 101q36 0 56 25t20 60q0 17 -4.5 33.5t-14.5 29.5t-26 21t-40 8h-92 q-9 0 -12 -3.5t-3 -11.5v-149q0 -8 3 -10.5t12 -2.5h101zM277 375q34 0 52 21.5t18 52.5q0 32 -19 50.5t-53 18.5h-90q-12 0 -12 -13v-114q0 -16 13 -16h91z" />
<glyph unicode="C" horiz-adv-x="472" d="M256 -6q-44 0 -80 12.5t-62 35.5t-40.5 56t-14.5 74v277q0 40 14.5 73t40.5 56t61.5 36t77.5 13q52 0 99.5 -18.5t85.5 -72.5q5 -6 4.5 -13t-9.5 -13l-54 -41q-8 -5 -15.5 -2t-11.5 10q-34 50 -95 50q-42 0 -63.5 -24.5t-21.5 -57.5v-273q0 -32 22 -54.5t64 -22.5 q28 0 52 13.5t41 33.5l10.5 10.5t15.5 -0.5l60 -37q7 -4 9.5 -10.5t-1.5 -13.5q-35 -53 -83.5 -75t-105.5 -22z" />
<glyph unicode="D" horiz-adv-x="528" d="M82 0q-19 0 -19 17v583q0 17 19 17h202q95 0 141.5 -49t46.5 -135v-246q0 -88 -46.5 -137.5t-138.5 -49.5h-205zM275 101q45 0 64.5 23t19.5 63v245q0 46 -23.5 66t-64.5 20h-77q-11 0 -14 -4.5t-3 -12.5v-384q0 -16 16 -16h82z" />
<glyph unicode="E" horiz-adv-x="468" d="M418 101q16 0 16 -17v-66q0 -18 -16 -18h-339q-18 0 -18 17v583q0 17 18 17h333q7 0 12 -3.5t5 -12.5v-65q0 -18 -16 -18h-223q-10 0 -13 -3t-3 -10v-120q0 -17 16 -17h184q16 0 16 -18v-64q0 -17 -16 -17h-185q-9 0 -12 -3.5t-3 -11.5v-138q0 -9 4 -12t14 -3h226z" />
<glyph unicode="F" horiz-adv-x="439" d="M175 18q0 -18 -18 -18h-77q-18 0 -18 17v583q0 17 18 17h330q16 0 16 -16v-65q0 -18 -16 -18h-221q-14 0 -14 -13v-125q0 -8 2.5 -11t10.5 -3h183q16 0 16 -18v-65q0 -18 -16 -18h-182q-14 0 -14 -17v-230z" />
<glyph unicode="G" horiz-adv-x="512" d="M257 627q27 0 54 -4.5t51.5 -15t46 -28.5t37.5 -46q4 -6 3.5 -13t-8.5 -12l-57 -41q-8 -4 -14.5 -0.5t-12.5 10.5q-36 49 -96 49q-41 0 -65 -24t-24 -59v-271q0 -35 25 -56t65 -21q36 0 60.5 21t24.5 60v62q0 11 -10 11h-54q-18 0 -18 16v65q0 16 18 16h157q20 0 20 -16 v-160q0 -42 -15 -74.5t-42 -55t-63.5 -34.5t-79.5 -12t-79.5 12t-63.5 34.5t-42 55t-15 73.5v282q0 40 15 72.5t41.5 55.5t62.5 35.5t78 12.5z" />
<glyph unicode="H" horiz-adv-x="550" d="M374 602q0 15 17 15h77q19 0 19 -14v-587q0 -16 -18 -16h-77q-18 0 -18 15v235q0 17 -17 17h-163q-11 0 -14 -4.5t-3 -12.5v-234q0 -16 -18 -16h-77q-19 0 -19 15v587q0 15 19 15h77q8 0 13 -3t5 -11v-219q0 -11 2.5 -14.5t11.5 -3.5h167q9 0 12.5 3.5t3.5 14.5v218z" />
<glyph unicode="I" horiz-adv-x="257" d="M88 0q-18 0 -18 15v587q0 15 18 15h78q18 0 18 -15v-586q0 -16 -18 -16h-78z" />
<glyph unicode="J" horiz-adv-x="309" d="M-4 -77q-2 8 -0.5 13.5t12.5 10.5q30 12 51.5 26t35 32t20 42t6.5 57v500q0 13 15 13h82q15 0 15 -13v-509q0 -46 -9.5 -85.5t-32 -71t-59 -54.5t-91.5 -36q-8 -2 -15.5 0t-9.5 13z" />
<glyph unicode="K" horiz-adv-x="534" d="M485 16q0 -16 -14 -16h-80q-15 0 -16 15l-12 181q-1 16 -5.5 32.5t-14.5 30t-27 21.5t-43 8q-45 0 -70 -27t-25 -68l-1 -177q0 -16 -14 -16h-85q-14 0 -14 15v586q0 16 17 16h81q15 0 15 -15v-208q0 -8 4 -7t8 4l173 215q6 7 11 9t16 2h89q9 0 11.5 -5.5t-2.5 -12.5 l-175 -218q-8 -11 4 -11h15.5t15.5 -2q63 -10 94 -54t31 -111z" />
<glyph unicode="L" horiz-adv-x="451" d="M419 101q16 0 16 -17v-66q0 -18 -15 -18h-336q-18 0 -18 17v585q0 15 17 15h78q18 0 18 -14v-487q0 -8 1.5 -11.5t11.5 -3.5h227z" />
<glyph unicode="M" horiz-adv-x="656" d="M602 17q0 -17 -18 -17h-73q-17 0 -17 15v319q0 5 -5 0l-41 -109l-73 -189q-4 -8 -9 -13t-15 -5h-46q-10 0 -16 2t-11 13l-71 187l-40 112q-1 1 -2.5 1.5t-1.5 -1.5v-317q0 -15 -18 -15h-73q-18 0 -18 17v580q0 20 21 20h62q12 0 18.5 -2t12.5 -15q3 -8 11.5 -29.5 t19.5 -50t23.5 -60.5t23 -60.5t19 -50t11.5 -29.5l49 -131q4 -10 9 0q2 7 9 26t15 40t15 40t10 26l108 279q8 17 31 17h59q21 0 21 -20v-580v0z" />
<glyph unicode="N" horiz-adv-x="549" d="M135 617q14 0 20.5 -4t11.5 -14l208 -365q2 -2 3 -1.5t1 2.5v366q0 16 17 16h72q18 0 18 -16v-581q0 -12 -6 -16t-15 -4h-51q-12 0 -18.5 2t-12.5 13l-204 355q-2 5 -5 4.5t-3 -6.5v-354q0 -14 -19 -14h-72q-19 0 -19 14v579q0 24 23 24h51z" />
<glyph unicode="O" horiz-adv-x="529" d="M469 176q0 -42 -15.5 -76t-42.5 -57.5t-64.5 -36t-81.5 -12.5t-81.5 12.5t-65 35.5t-43.5 57t-16 77v268q0 42 15.5 76t43 58t65 36.5t81.5 12.5q43 0 80 -12.5t65 -36t44 -57.5t16 -77v-268zM355 443q0 35 -22.5 59t-67.5 24t-69 -24t-24 -59v-266q0 -35 23.5 -58.5 t68.5 -23.5q42 0 66.5 23.5t24.5 58.5v266z" />
<glyph unicode="P" horiz-adv-x="486" d="M460 432q0 -39 -14.5 -72t-40 -57t-60.5 -37.5t-77 -13.5h-80q-8 0 -10 -3.5t-2 -8.5v-224q0 -16 -18 -16h-77q-19 0 -19 16v586q0 15 19 15h186q45 0 80.5 -13.5t60.5 -38.5t38.5 -59t13.5 -74zM347 434q0 32 -20.5 58t-59.5 26h-78q-14 0 -14 -15v-137q0 -15 14 -15h78 q36 0 58 23t22 60z" />
<glyph unicode="Q" horiz-adv-x="529" d="M469 176q0 -71 -41.5 -117t-108.5 -59q-9 -1 -9 -13q2 -20 10.5 -28.5t25.5 -8.5q8 0 24.5 3.5t33.5 8.5q17 7 21 -7l15 -46q2 -7 1 -12t-10 -10q-23 -14 -51 -19t-50 -5q-60 0 -90 32.5t-30 93.5q0 11 -10 13q-62 15 -101.5 60t-39.5 114v268q0 42 15.5 76t43 58 t65 36.5t81.5 12.5q43 0 80 -12.5t65 -36t44 -57.5t16 -77v-268zM355 443q0 35 -22.5 59t-67.5 24t-69 -24t-24 -59v-266q0 -35 23.5 -58.5t68.5 -23.5q42 0 66.5 23.5t24.5 58.5v266z" />
<glyph unicode="R" horiz-adv-x="513" d="M278 617q91 0 141 -47t50 -132q0 -53 -26.5 -97.5t-61.5 -76.5q-6 -7 -2 -15q0 -1 9 -20t23.5 -50.5t33.5 -72.5t40 -84q5 -10 0.5 -16t-14.5 -6h-76q-20 0 -26.5 6t-11.5 16l-92 207q-2 9 -13 9h-66q-9 0 -9 -11v-211q0 -16 -19 -16h-76q-18 0 -18 15v585q0 17 16 17 h198zM287 337q5 0 11 2t9 4q24 19 35.5 44.5t11.5 44.5q0 37 -20.5 61.5t-64.5 24.5h-77q-9 0 -12 -3.5t-3 -11.5v-152q0 -7 2.5 -10.5t11.5 -3.5h96z" />
<glyph unicode="S" horiz-adv-x="487" d="M453 177q0 -44 -16.5 -77.5t-45 -57t-68 -35.5t-84.5 -12q-55 0 -108.5 18t-91.5 57q-9 8 -10 15t8 18l39 44q9 10 15.5 8t16.5 -10q26 -23 62.5 -37t65.5 -14q54 0 78.5 22t24.5 56q0 21 -10 36t-28 27t-41.5 21.5t-50.5 18.5q-29 10 -57.5 23.5t-51.5 33.5t-37.5 48.5 t-14.5 68.5q0 41 15.5 73.5t42 55.5t61.5 35t75 12q50 0 93.5 -11t80.5 -35q11 -8 10.5 -14.5t-7.5 -17.5l-26 -48q-5 -8 -13 -9.5t-17 2.5q-29 15 -58.5 25t-56.5 10q-35 0 -61.5 -17t-26.5 -60q0 -18 10.5 -31.5t26 -23.5t34 -17t34.5 -13q32 -12 65.5 -25.5t60.5 -34 t44.5 -51.5t17.5 -77z" />
<glyph unicode="T" horiz-adv-x="441" d="M423 536q0 -8 -3 -13t-12 -5h-118q-16 0 -16 -13l-1 -489q0 -16 -18 -16h-77q-18 0 -18 15l1 489q0 7 -2.5 10.5t-12.5 3.5h-112q-17 0 -17 18v64q0 17 17 17h374q15 0 15 -16v-65v0z" />
<glyph unicode="U" horiz-adv-x="529" d="M172 174q0 -33 25 -56t67 -23t67 23t25 57v427q0 15 18 15h77q19 0 19 -14v-429q0 -42 -16 -75.5t-44 -57t-65.5 -35.5t-79.5 -12q-43 0 -80.5 12t-65.5 35.5t-44 57t-16 75.5v428q0 15 18 15h77q8 0 13 -3t5 -11v-429v0z" />
<glyph unicode="V" horiz-adv-x="479" d="M308 15q-4 -15 -24 -15h-86q-9 0 -14.5 3t-8.5 12l-164 581q-2 8 1.5 14.5t17.5 6.5h80q8 0 13 -1.5t7 -9.5l72 -286l39 -161q1 -3 3 -3t3 3q2 9 7 32t11 48.5t11.5 48.5t7.5 32l70 286q2 7 7.5 9t11.5 2h78q17 0 18.5 -7t-0.5 -14z" />
<glyph unicode="W" horiz-adv-x="720" d="M573 13q-4 -13 -23 -13h-80q-8 0 -14.5 2t-8.5 10l-70 322q-5 20 -8.5 39.5t-7.5 39.5q0 2 -2 2q-1 0 -1 -1q-2 0 -2 -1q-4 -22 -9 -45t-9 -46q-17 -78 -34 -154.5t-34 -154.5q-2 -8 -7.5 -10.5t-15.5 -2.5h-80q-9 0 -14 1.5t-8 9.5l-134 587v6q0 5 2.5 9t13.5 4h83 q16 0 18 -15l61 -306l19 -111q1 -3 3 -2.5t3 3.5l21 107l68 311q1 5 5 9t15 4h73q6 0 11 -3t7 -11q18 -78 37 -155.5t34 -155.5l22 -106q1 -5 3.5 -5.5t3.5 4.5q5 27 9.5 54.5t8.5 54.5q4 26 11.5 66.5t16 84.5t16.5 86t13 72q3 14 19 14h78q11 0 15 -4t4 -10q0 -4 -1 -7z " />
<glyph unicode="X" horiz-adv-x="480" d="M344 16q-25 49 -48.5 97.5t-48.5 97.5q-2 5 -5 5t-5 -5l-96 -195q-6 -12 -12.5 -14t-17.5 -2h-80q-18 0 -18 13q0 6 3 12l151 280q2 4 4 10.5t2 9.5q0 7 -7 18l-135 253q-2 6 -2 9q0 13 18 13h85q19 0 29 -17q2 -5 4.5 -10.5t5.5 -10.5l67 -143q4 -4 6 -4t5 5 q20 41 39 81t39 82q11 17 28 17h81q18 0 18 -12q0 -3 -1 -6t-3 -7l-135 -254q-4 -10 -4 -16t5 -16q38 -71 77 -143t77 -143q3 -5 3 -9q0 -12 -19 -12h-81q-11 0 -17.5 2.5t-11.5 13.5z" />
<glyph unicode="Y" horiz-adv-x="465" d="M108 617q11 0 17.5 -2.5t11.5 -13.5l90 -243q6 -6 9 -1q23 60 46 121t44 121q5 10 10.5 14t20.5 4h74q16 0 18 -6.5t-1 -13.5l-154 -356q-4 -8 -5 -13t-1 -13v-197q0 -18 -18 -18h-77q-18 0 -18 17v200q0 12 -5 22l-155 357q-3 8 -1.5 14.5t15.5 6.5h79v0z" />
<glyph unicode="Z" horiz-adv-x="441" d="M414 16q0 -16 -17 -16h-338q-16 0 -22.5 7.5t-6.5 18.5v29q0 18 10 35q8 15 25.5 47.5t39.5 74t46.5 86.5t46.5 86.5t39.5 74t25.5 47.5q2 5 0.5 8.5t-8.5 3.5h-190q-16 0 -16 18v66q0 15 18 15h311q26 0 26 -22v-35q0 -12 -4.5 -24t-8.5 -20l-216 -403q-9 -12 5 -12h217 q7 0 12 -4t5 -13v-68v0z" />
<glyph unicode="[" horiz-adv-x="352" d="M285 -133q0 -16 -16 -16h-163q-16 0 -16 15v810q0 16 16 16h163q16 0 16 -16v-60q0 -16 -16 -16h-53q-10 0 -13.5 -5t-3.5 -13v-621q0 -18 17 -18h53q16 0 16 -16v-60z" />
<glyph unicode="\" horiz-adv-x="320" d="M312 -44q3 -8 1 -15t-14 -7h-39q-19 0 -24 16l-231 705q-3 8 0 14t14 6h34q14 0 20 -3t10 -13l229 -703v0z" />
<glyph unicode="]" horiz-adv-x="347" d="M245 -134q-2 -15 -16 -15h-163q-16 0 -16 15v61q0 15 16 15h53q17 0 17 18v621q0 19 -17 19h-53q-16 0 -16 15v61q0 16 16 16h163q16 0 16 -16v-810v0z" />
<glyph unicode="^" horiz-adv-x="567" d="M482 416q6 -8 6 -17.5t-11 -17.5l-23 -17q-10 -7 -19 -2.5t-19 15.5l-127 133q-8 8 -15 4q-2 -1 -4 -3l-4 -4l-120 -137q-9 -11 -17 -13.5t-18 4.5l-26 18q-19 11 -3 32l152 201q5 7 10.5 11t19.5 4h39q12 0 18.5 -4t12.5 -12l148 -195v0z" />
<glyph unicode="_" horiz-adv-x="500" d="M510 -152q-2 -13 -16 -13h-489q-16 0 -16 13v52q0 14 16 14h488q17 0 17 -13v-53v0z" />
<glyph unicode="`" horiz-adv-x="455" d="M310 526q9 -14 -5 -21l-24 -14q-19 -10 -32 4l-113 123q-3 4 -5 12t9 14l60 33q8 5 13.5 2t10.5 -10l86 -143v0z" />
<glyph unicode="a" horiz-adv-x="462" d="M409 14q0 -14 -13 -14h-78q-11 0 -11 11v8q0 15 -14 4t-36 -20t-54 -9q-77 0 -121 41t-44 114q0 70 45 113t126 43q41 0 77 -21q5 -3 9.5 -2.5t4.5 8.5v12q0 30 -18 45t-59 15q-11 0 -24.5 -2t-28 -5t-28.5 -7t-24 -8q-17 -7 -22 9l-18 51q-3 7 0 12.5t8 7.5 q34 16 71.5 24t75.5 8q48 0 81.5 -11.5t54.5 -33t30.5 -52.5t9.5 -69v-272zM292 151q-1 30 -20.5 51.5t-55.5 21.5q-38 0 -57.5 -21t-19.5 -52t19.5 -52.5t56.5 -21.5q40 0 58.5 22.5t18.5 51.5z" />
<glyph unicode="b" horiz-adv-x="468" d="M54 621q0 16 16 16h77q16 0 16 -15v-192q0 -9 4.5 -9t13.5 5q17 11 38.5 18t47.5 7q43 0 73.5 -13.5t49.5 -36.5t28 -54t9 -67v-114q0 -35 -10.5 -66t-31 -54.5t-51 -37t-69.5 -13.5q-26 0 -51.5 7t-39.5 23q-10 12 -13 0q-1 0 -1 -5t-1 -6q-2 -5 -4 -9.5t-10 -4.5h-75 q-16 0 -16 15v606zM163 166q0 -32 19.5 -54t57.5 -22t58 20.5t20 55.5v114q0 32 -18 54.5t-59 22.5q-35 0 -56.5 -22.5t-21.5 -54.5v-114z" />
<glyph unicode="c" horiz-adv-x="422" d="M398 87q-58 -93 -167 -93q-43 0 -78 12t-60 34.5t-38.5 54t-13.5 70.5v113q0 40 14 72t39.5 54.5t60 34.5t76.5 12q57 0 97.5 -22.5t69.5 -70.5q2 -5 1.5 -13t-8.5 -13l-56 -32q-13 -8 -19 -2t-11 15q-13 22 -33.5 33t-41.5 11q-34 0 -56.5 -22t-22.5 -54v-117 q0 -32 22.5 -53t55.5 -21q22 0 42.5 10t32.5 32q5 9 11.5 15t19.5 -2l56 -31q8 -5 8.5 -13.5t-1.5 -13.5z" />
<glyph unicode="d" horiz-adv-x="468" d="M417 15q0 -15 -16 -15h-75q-16 0 -16 14v8q0 3 -2 5.5t-9 -1.5q-3 -2 -6.5 -4.5t-8.5 -5.5q-14 -10 -36.5 -16t-43.5 -6q-43 0 -73.5 13t-50 36t-28.5 54.5t-9 68.5v113q0 36 11 67.5t32.5 55t53 36.5t71.5 13q27 0 47.5 -7t30.5 -15q9 -6 13.5 -4.5t4.5 7.5v189 q0 16 16 16h77q17 0 17 -15v-607zM230 357q-40 0 -59 -22.5t-19 -54.5v-113q0 -33 19 -55t59 -22q33 0 55 22t22 54v113q0 32 -21 55t-56 23z" />
<glyph unicode="e" horiz-adv-x="458" d="M418 230q0 -14 -8 -22t-20 -8h-216q-11 0 -15.5 -5t-4.5 -12v-15q0 -32 21 -55.5t56 -23.5q30 0 50.5 15t34.5 32q5 6 10 8.5t14 -3.5l49 -31q9 -6 13.5 -12t-0.5 -15q-26 -47 -71.5 -68t-97.5 -21q-43 0 -78 12t-59.5 34.5t-38 54t-13.5 69.5v113q0 39 13.5 71 t38.5 55.5t59.5 36t75.5 12.5q40 0 74.5 -12t59.5 -35t39 -55.5t14 -72.5v-47zM232 357q-33 0 -53 -20.5t-23 -49.5q0 -14 17 -14h121q8 0 11.5 5.5t2.5 13.5q-4 30 -25.5 47.5t-50.5 17.5z" />
<glyph unicode="f" horiz-adv-x="310" d="M298 551q-4 -19 -29 -12q-7 2 -19.5 4t-19.5 2q-22 0 -33 -13.5t-11 -35.5v-42q0 -10 12 -10h77q16 0 16 -15v-58q0 -15 -15 -15h-76q-9 0 -11.5 -4.5t-2.5 -9.5v-327q0 -15 -16 -15h-77q-16 0 -16 15v326q0 6 -2.5 10.5t-9.5 4.5h-36q-15 0 -15 15v58q0 15 16 15h36 q12 0 12 11v56q0 27 9 51t26.5 42t43 28.5t58.5 10.5q23 0 43 -3t33 -8q8 -2 14.5 -6.5t4.5 -17.5z" />
<glyph unicode="g" horiz-adv-x="470" d="M462 372q0 -8 -2.5 -11t-12.5 -2q-8 1 -23 0.5t-26 -2.5q-4 -1 -6.5 -4t-0.5 -8q13 -29 13 -60q0 -36 -15 -67t-40.5 -53.5t-60 -35t-73.5 -12.5h-24q-20 -1 -34.5 -16t-20.5 -33q-2 -5 0.5 -7t5.5 -1q26 5 55 7.5t44 2.5q39 0 77 -7t67 -23t47 -42t18 -65q0 -20 -8 -40 t-21 -37.5t-30.5 -31.5t-36.5 -23q-10 -4 -19 -5.5t-14 6.5l-31 47q-10 13 10 26q5 3 12 8.5t13.5 13t11 16t4.5 17.5q0 15 -9.5 25t-24.5 16t-32 8t-32 2q-16 0 -36 -1.5t-41.5 -4l-43 -5t-39.5 -5.5q-14 -2 -20.5 1.5t-11.5 9.5q-11 14 -15.5 31.5t-4.5 43.5q0 23 15 50 t40 43q11 7 2 15q-24 20 -39.5 52t-15.5 74q0 35 15 65.5t40.5 53t58 35t68.5 12.5q65 0 116 -34q10 -7 18 0q46 33 96 33q17 0 17 -17v-61zM295 280q0 30 -20.5 52t-54.5 22q-37 0 -58.5 -22.5t-21.5 -51.5t20 -50.5t55 -21.5q39 0 59.5 21.5t20.5 50.5z" />
<glyph unicode="h" horiz-adv-x="480" d="M428 16q0 -16 -16 -16h-77q-17 0 -17 15v264q0 33 -18.5 55t-57.5 22q-36 0 -56.5 -23t-20.5 -56v-261q0 -16 -16 -16h-78q-16 0 -16 15q0 61 0.5 120.5t0.5 129t-0.5 155.5t-0.5 201q0 16 15 16h78q16 0 16 -16v-189q0 -16 17 -5q18 12 42 18t44 6q42 0 72 -13t50 -35.5 t29.5 -54.5t9.5 -69v-263v0z" />
<glyph unicode="i" horiz-adv-x="224" d="M177 564q0 -25 -19 -44t-45 -19q-27 0 -46 18.5t-19 44.5t18.5 44t45.5 18q26 0 45.5 -18t19.5 -44zM57 428q0 16 15 16h78q16 0 16 -16v-412q0 -16 -15 -16h-78q-16 0 -16 15v413z" />
<glyph unicode="j" horiz-adv-x="232" d="M184 564q0 -26 -19.5 -44.5t-45.5 -18.5q-27 0 -46 18t-19 45q0 26 19 44t46 18q26 0 45.5 -18t19.5 -44zM173 -52q0 -27 -7 -51t-22.5 -42t-40.5 -29t-62 -11q-22 0 -37 2.5t-25 4.5q-8 2 -14 6.5t-4 17.5l10 58q2 10 7.5 12.5t19.5 0.5q5 -1 13.5 -2t13.5 -1 q21 1 30 12t9 35v467q0 16 16 16h78q15 0 15 -16v-480z" />
<glyph unicode="k" horiz-adv-x="466" d="M433 18v-3q0 -15 -16 -15h-76q-10 0 -13 4t-4 12l-5 93q-1 18 -5 33.5t-12.5 27t-23 18.5t-36.5 7q-23 0 -38 -7.5t-24 -20t-12.5 -28.5t-3.5 -33v-92q0 -14 -15 -14h-81q-13 0 -13 14v607q0 16 15 16h78q15 0 15 -15v-316q0 -8 4.5 -9t8.5 3l117 133q6 6 10.5 7.5 t15.5 1.5h97q9 0 11 -6t-3 -11q-31 -35 -61.5 -69t-62.5 -68q-3 -6 -3 -7q0 -5 6 -5q36 -2 59.5 -16t38 -36.5t20.5 -52t8 -61.5z" />
<glyph unicode="l" horiz-adv-x="251" d="M170 142q0 -29 8 -39.5t32 -10.5h11q9 0 11.5 -6.5t2.5 -11.5v-62q0 -11 -5 -14t-13 -4q-9 -2 -19.5 -2h-14.5q-68 0 -95 33t-27 104v494q0 14 13 14h82q14 0 14 -13v-482z" />
<glyph unicode="m" horiz-adv-x="723" d="M671 15q0 -15 -16 -15h-78q-15 0 -15 14v266q0 31 -17.5 53.5t-56.5 22.5q-14 0 -27 -6.5t-23 -17t-16 -24.5t-6 -28v-265q0 -15 -16 -15h-77q-16 0 -16 14v266q0 31 -20 53.5t-52 22.5q-33 0 -52.5 -22.5t-19.5 -53.5v-265q0 -15 -17 -15h-78q-15 0 -15 14v266 q0 37 12.5 68.5t36 54t56 35.5t73.5 13q35 0 69.5 -15.5t54.5 -38.5l3.5 -3.5t3.5 -1.5q3 0 7 4q20 23 56 39t73 16q41 0 73 -12.5t54.5 -35.5t34 -54.5t11.5 -68.5v-265v0z" />
<glyph unicode="n" horiz-adv-x="480" d="M427 16q0 -16 -15 -16h-78q-16 0 -16 15v263q0 34 -18 55.5t-60 21.5q-35 0 -55.5 -21.5t-20.5 -54.5v-263q0 -16 -17 -16h-77q-16 0 -16 15v413q0 16 16 16h78q14 0 14 -15v-8t1 -7q2 -11 11 0q17 16 46.5 26t55.5 10q79 0 115 -47.5t36 -122.5v-264v0z" />
<glyph unicode="o" horiz-adv-x="468" d="M420 165q0 -84 -50.5 -127.5t-135.5 -43.5q-86 0 -136.5 45t-50.5 123v120q0 38 13.5 69t38 53.5t58.5 35t76 12.5q85 0 136 -44t51 -126v-117zM311 279q0 35 -20 56t-58 21q-37 0 -57 -21.5t-20 -55.5v-113q0 -34 19.5 -55.5t57.5 -21.5q36 0 57 21t21 56v113z" />
<glyph unicode="p" horiz-adv-x="470" d="M426 156q0 -34 -11 -63.5t-32 -52t-52 -35.5t-71 -13q-27 0 -48 7t-32 15q-17 11 -17 -3v-175q0 -16 -16 -16h-77q-17 0 -17 15v593q0 15 16 15h75q15 0 15 -14v-8q0 -3 2.5 -6t8.5 2q17 12 40.5 22t56.5 10q40 0 70 -13t50 -36t29.5 -54.5t9.5 -68.5v-121zM317 276 q0 33 -19.5 55t-57.5 22q-34 0 -56 -22t-21 -54v-113q0 -32 20.5 -55t55.5 -23q42 0 60 22.5t18 55.5v112z" />
<glyph unicode="q" horiz-adv-x="470" d="M423 -165q0 -15 -16 -15h-77q-16 0 -16 15v175q0 16 -18 4q-11 -8 -33 -15t-49 -7q-81 0 -122.5 44.5t-41.5 126.5v113q0 37 10.5 68.5t31.5 54.5t52 36.5t72 13.5q32 0 54 -9t37 -23q6 -5 8 -2t2 6v8q0 14 15 14h75q16 0 16 -15v-593zM159 164q0 -37 21 -57.5t56 -20.5 t56 22.5t21 54.5v114q1 32 -21 54t-55 22t-55.5 -22t-22.5 -54v-113z" />
<glyph unicode="r" horiz-adv-x="318" d="M306 356q-2 -11 -6.5 -13.5t-12.5 -1.5q-20 5 -33 5q-25 0 -42 -8t-27 -22.5t-14.5 -34t-4.5 -42.5v-223q0 -16 -17 -16h-77q-16 0 -16 15v413q0 16 16 16h68q16 0 16 -15v-31q0 -6 3.5 -7.5t7.5 3.5q16 22 44 40t64 18q8 0 18 -1t18 -4q11 -3 12.5 -8t-0.5 -13z" />
<glyph unicode="s" horiz-adv-x="413" d="M381 129q0 -32 -13 -57t-36 -42t-54 -26t-67 -9q-26 0 -52 4.5t-49.5 15t-43 27.5t-32.5 43q-3 6 -3 12t7 10l56 31q14 8 23 -4q40 -50 97 -50q20 0 39.5 11t19.5 31q0 17 -12 27t-35 18q-14 5 -33 10.5t-38 11.5q-49 17 -80 45t-31 78q0 33 13 58.5t35.5 42.5t51.5 25.5 t61 8.5q38 0 80 -12.5t74 -41.5q5 -5 4 -11.5t-5 -12.5l-32 -47q-5 -5 -11 -5q-5 0 -13 5t-18 10q-23 11 -43 17t-40 6q-22 0 -37 -10t-15 -29q0 -26 47 -42q29 -9 61.5 -19.5t60 -27t45.5 -41t18 -61.5z" />
<glyph unicode="t" horiz-adv-x="326" d="M318 30q2 -14 -4 -18.5t-14 -7.5q-18 -6 -41 -7.5t-45 -2.5q-39 0 -64.5 10t-41 27.5t-21.5 41.5t-6 51v220q0 11 -12 11h-37q-17 0 -17 15v58q0 16 16 16h35q14 0 14 14v75q0 16 16 20l73 16q11 2 15.5 -2t4.5 -12v-98q0 -5 2.5 -9t11.5 -4h79q16 0 16 -16v-57 q0 -16 -16 -16h-81q-12 0 -12 -10v-202q0 -24 9.5 -37t33.5 -13q8 0 22.5 2t22.5 4q17 3 23 -1t8 -15l10 -53v0z" />
<glyph unicode="u" horiz-adv-x="474" d="M421 16q0 -16 -16 -16h-79q-14 0 -14 14v11q0 4 -4 4t-7 -3q-15 -14 -38.5 -23.5t-48.5 -9.5q-39 0 -70 12.5t-52.5 35t-33 54t-11.5 69.5v264q0 16 15 16h78q17 0 17 -15v-264q0 -32 21 -54.5t56 -22.5t56 22t21 55v263q0 16 16 16h77q17 0 17 -15v-413v0z" />
<glyph unicode="v" horiz-adv-x="432" d="M275 13q-4 -13 -24 -13h-70q-11 0 -16 3t-9 14l-142 405q-4 8 -0.5 15t14.5 7h73q12 0 19 -5.5t9 -13.5l50 -170l33 -121q2 -5 4.5 -5t4.5 4l31 118l50 170q2 6 7.5 14.5t19.5 8.5h75q11 0 14 -7.5t1 -13.5z" />
<glyph unicode="w" horiz-adv-x="657" d="M527 18q-3 -11 -9.5 -14.5t-14.5 -3.5h-64q-11 0 -16.5 2.5t-9.5 14.5l-50 159l-33 122q-2 3 -4 4t-4 -4l-35 -129l-47 -153q-4 -12 -10.5 -14t-14.5 -2h-64q-11 0 -16.5 3t-9.5 14l-113 406q-4 8 -0.5 14.5t14.5 6.5h76q22 0 26 -19l32 -140l27 -126q1 -4 4 -4t5 4 l34 124l42 139q3 10 8 16t16 6h62q8 0 13.5 -3t10.5 -17l48 -157l30 -108q1 -3 4.5 -3.5t4.5 3.5l22 107l34 157q3 9 8.5 15t19.5 6h74q12 0 14.5 -7t0.5 -14z" />
<glyph unicode="x" horiz-adv-x="408" d="M404 17q4 -6 -0.5 -11.5t-15.5 -5.5h-71q-11 0 -18 4t-15 17l-69 118q-5 8 -9 8t-9 -9l-70 -122q-7 -11 -14 -13.5t-17 -2.5h-70q-9 0 -13 3.5t-4 8.5q0 6 3 9l123 192q7 11 6.5 18.5t-6.5 16.5l-111 171q-6 10 -2.5 16.5t14.5 6.5h74q12 0 17 -2t12 -13l61 -107 q5 -7 7 -7q3 0 8 8l60 106q7 11 12.5 13t16.5 2h74q17 0 17 -11q0 -2 -1 -6t-3 -6l-111 -170q-8 -12 -7.5 -18.5t6.5 -17.5z" />
<glyph unicode="y" horiz-adv-x="443" d="M240 -161q-3 -8 -10 -14.5t-19 -6.5h-65q-11 0 -15.5 6t0.5 20l43 139q2 8 1.5 12.5t-9.5 4.5h-11q-11 0 -16.5 5t-8.5 16l-116 403q-6 22 15 22h80q11 0 16 -5.5t8 -13.5l46 -187l29 -121q2 -8 6 -8t7 8l35 120l58 186q2 8 7.5 14.5t18.5 6.5h72q10 0 15 -7t1 -18z" />
<glyph unicode="z" horiz-adv-x="427" d="M395 16q0 -16 -16 -16h-320q-15 0 -21 6.5t-6 16.5v29q0 8 2.5 17.5t7.5 17.5l183 249q4 5 3 9t-8 4h-162q-17 0 -17 15v64q0 16 16 16h295q29 0 29 -23v-39q0 -8 -3 -17.5t-8 -16.5l-174 -239q-9 -14 8 -14h174q7 0 12 -4t5 -12v-63v0z" />
<glyph unicode="{" horiz-adv-x="365" d="M327 -140q0 -4 -3 -8.5t-11 -4.5h-12q-82 -3 -125 35.5t-43 118.5l-1 132q0 37 -18.5 60t-47.5 34q-25 10 -25 23v45q0 11 6 16t17 10q30 13 49 35.5t19 59.5v119q0 80 43.5 118.5t125.5 36.5l12 -1q8 0 11 -4.5t3 -8.5v-62q0 -16 -13 -16h-14q-37 -1 -48.5 -17 t-11.5 -51v-141q0 -35 -19 -64t-49 -47q-12 -8 0 -15q16 -8 29 -22t22 -30.5t13.5 -34t4.5 -32.5v-138q0 -35 11 -51t48 -17h14q13 0 13 -16v-62v0z" />
<glyph unicode="|" horiz-adv-x="235" d="M156 -101q0 -14 -16 -14h-46q-16 0 -16 15v761q0 15 16 15h46q17 0 17 -14z" />
<glyph unicode="}" horiz-adv-x="365" d="M325 250q0 -13 -25 -23q-29 -11 -47.5 -34t-18.5 -60l-1 -131q0 -81 -43 -119.5t-125 -35.5h-12q-8 0 -11 4.5t-3 8.5v62q0 16 13 16h14q37 1 48 17t11 51v138q0 15 4.5 32.5t13.5 34t21.5 30.5t29.5 22q12 7 0 15q-30 18 -49 47t-19 64v141q0 35 -11.5 51t-48.5 17h-14 q-13 0 -13 16v62q0 4 3 8.5t11 4.5h12q82 3 125.5 -35.5t43.5 -118.5v-119q0 -37 19 -59.5t49 -35.5q11 -5 17 -10t6 -16v-45v0z" />
<glyph unicode="~" horiz-adv-x="497" d="M476 297q-23 -33 -55 -53t-72 -20q-29 0 -56.5 9.5t-52.5 21t-47.5 21t-42.5 9.5q-17 0 -31.5 -8.5t-32.5 -30.5q-5 -7 -11.5 -8.5t-14.5 5.5l-37 33q-5 5 -6.5 11t3.5 17q2 4 4 7t5 8q26 32 57.5 45.5t63.5 13.5q27 0 52 -9t49 -20t47.5 -20.5t47.5 -9.5q18 0 32 12 t25 23q17 17 32 3l32 -27q20 -16 9 -33z" />
<glyph unicode="&#xa1;" horiz-adv-x="278" d="M112 251q0 2 1.5 6.5t8.5 4.5h52q7 0 9 -4.5t2 -5.5l21 -419q0 -15 -14 -15h-85q-14 0 -14 14zM83 379q0 26 19 45t47 19t47.5 -19t19.5 -45t-19.5 -45t-46.5 -19q-28 0 -47.5 18.5t-19.5 45.5z" />
<glyph unicode="&#xa2;" horiz-adv-x="497" d="M258 90q22 0 42.5 10t32.5 32q5 9 11.5 15t19.5 -2l56 -31q11 -6 11.5 -12.5t-4.5 -14.5q-20 -38 -49.5 -58.5t-65.5 -28.5q-8 -2 -12.5 -5.5t-4.5 -13.5v-41q0 -13 -14 -13h-42q-14 0 -14 13v43q0 8 -4 11t-12 5q-65 13 -102 56.5t-37 109.5v113q0 66 38 110.5t101 57.5 q9 2 12.5 4.5t3.5 10.5v46q0 13 14 13h42q14 0 14 -13v-45q0 -8 3 -10.5t11 -4.5q38 -8 68.5 -28.5t50.5 -58.5q2 -5 2.5 -12.5t-9.5 -13.5l-57 -34q-13 -8 -19 -2t-11 15q-14 25 -34 34.5t-41 9.5q-34 0 -56.5 -22t-22.5 -54v-117q0 -32 22.5 -53t55.5 -21z" />
<glyph unicode="&#xa3;" horiz-adv-x="497" d="M457 530q3 -5 1.5 -12t-8.5 -12l-50 -32q-11 -7 -16 -3.5t-10 11.5q-14 23 -33 36t-48 13q-35 0 -59.5 -21.5t-24.5 -54.5v-82q0 -17 17 -17h95q16 0 16 -15v-60q0 -15 -16 -15h-92q-11 0 -14.5 -4t-3.5 -13v-70q0 -14 -3.5 -35.5t-14.5 -36.5q-7 -11 7 -11h223 q7 0 12 -3.5t5 -11.5v-65q0 -16 -16 -16h-371q-16 0 -16 15v60q0 8 5 13.5t13 7.5q27 8 35.5 31t8.5 45v76q0 8 -2 12.5t-12 4.5l-31 1q-16 0 -16 15v60q0 15 16 15h33q13 0 13 16v75q0 40 13.5 73t38 57t58.5 37t75 13q54 0 98.5 -20.5t73.5 -76.5z" />
<glyph unicode="&#xa4;" horiz-adv-x="492" d="M91 437q13 13 22 5l43 -47q20 14 42.5 19t45.5 5t45 -5.5t42 -18.5l44 43q6 6 14.5 7t16.5 -7l30 -31q17 -17 1 -30l-44 -42q14 -20 19.5 -42t5.5 -46q0 -23 -5 -46t-19 -44l43 -40q6 -6 7.5 -13.5t-6.5 -15.5l-32 -34q-13 -13 -22 -5l-52 48q-20 -11 -42.5 -17.5 t-43.5 -6.5q-23 0 -46 6.5t-43 19.5l-41 -42q-15 -15 -29 -1l-34 32q-7 5 -7.5 13t7.5 16l44 46q-11 20 -17.5 43t-6.5 43q0 22 5.5 43t18.5 41l-40 44q-8 8 -9 12.5t10 15.5zM159 247q0 -36 25.5 -61.5t61.5 -25.5t61 25.5t25 61.5t-25 61t-61 25t-61.5 -25t-25.5 -61z" />
<glyph unicode="&#xa5;" horiz-adv-x="497" d="M434 259q7 0 11 -4.5t4 -9.5v-43q0 -15 -15 -15h-117q-11 0 -13.5 -5t-2.5 -13v-155q0 -14 -16 -14h-77q-16 0 -16 14v154q0 8 -2 13.5t-14 5.5h-112q-16 0 -16 15v43q0 14 16 14h370zM64 302q-16 0 -16 15v42q0 15 16 15h50q14 0 7 15l-90 205q-2 6 -2 10q0 13 16 13h78 q11 0 16.5 -2.5t10.5 -13.5l89 -229q4 -10 8.5 -11t9.5 10l89 228q4 10 9.5 14t18.5 4h74q10 0 13.5 -3.5t3.5 -8.5q0 -6 -3 -10l-90 -207q-2 -5 -2 -9.5t8 -4.5h56q15 0 15 -15v-42q0 -15 -15 -15h-370z" />
<glyph unicode="&#xa6;" horiz-adv-x="235" d="M156 -101q0 -14 -16 -14h-47q-16 0 -16 15l1 342q0 15 16 15h46q17 0 17 -14zM156 309q0 -14 -16 -14h-47q-16 0 -16 15l1 352q0 15 16 15h46q17 0 17 -14z" />
<glyph unicode="&#xa7;" horiz-adv-x="470" d="M239 -70q-24 0 -49.5 4.5t-48.5 13.5t-42.5 23.5t-32.5 34.5q-3 3 -3 8q0 9 10 16q9 8 18 15.5t19 15.5q7 6 13 6q9 0 18 -11q16 -19 43.5 -31.5t56.5 -12.5q28 0 51 9.5t23 32.5q0 20 -19 32.5t-53 24.5q-30 10 -59 23.5t-51 31t-35.5 39.5t-13.5 49q0 73 77 110l10 4 t8 2q7 0 14 -10l23 -44q2 -3 2 -9q0 -9 -10 -14q-9 -6 -16.5 -14.5t-7.5 -17.5q0 -17 18 -30t54 -27q33 -12 62.5 -25t52.5 -30t36.5 -39.5t13.5 -52.5q0 -31 -14 -55t-39 -40t-58 -24t-71 -8zM246 574q-27 0 -45 -10t-18 -27q0 -21 16.5 -33.5t54.5 -25.5 q32 -11 60.5 -23.5t49.5 -29t33 -37.5t12 -49q0 -80 -75 -115q-7 -2 -15.5 -5t-13.5 8l-24 50q-2 2 -2 6q0 10 10 14q9 6 14 13.5t5 19.5q0 26 -24.5 39.5t-60.5 26.5q-31 11 -57 22.5t-45 26.5t-29.5 35.5t-10.5 48.5q0 57 45.5 92.5t120.5 35.5q21 0 43.5 -4t44 -13 t40 -23.5t32.5 -34.5q2 -2 2 -4v-4q0 -9 -9 -16l-36 -31q-7 -7 -13 -7q-7 0 -17 12q-16 17 -40 29.5t-48 12.5z" />
<glyph unicode="&#xa8;" horiz-adv-x="470" d="M381 555q0 -25 -17 -42t-42 -17q-26 0 -44 16.5t-18 41.5t17.5 42t43.5 17q25 0 42.5 -17t17.5 -41zM145 496q-26 0 -43 16.5t-17 41.5t17 42t43 17t43 -17t18 -41q0 -25 -17.5 -42t-43.5 -17z" />
<glyph unicode="&#xa9;" horiz-adv-x="707" d="M652 241q0 -58 -22.5 -103t-62 -75.5t-94 -46.5t-118.5 -16q-65 0 -119 16.5t-93 48t-60.5 76t-21.5 100.5v135q0 55 21.5 100t60.5 76t93 48t119 17q64 0 118.5 -16t94 -46.5t62 -75.5t22.5 -103v-135zM595 378q0 39 -15.5 73t-46 59.5t-75.5 40t-104 14.5 q-60 0 -104 -15t-73 -41t-43.5 -60t-14.5 -71v-140q0 -37 14.5 -70.5t43.5 -59t73 -41t104 -15.5q59 0 104 15t75.5 40.5t46 59.5t15.5 71v140zM469 419q2 -3 1.5 -7.5t-5.5 -6.5l-37 -20q-10 -6 -15 5q-10 17 -24 23.5t-29 6.5q-23 0 -38.5 -14t-15.5 -35v-139 q0 -21 15 -35t39 -14q32 0 53 29q3 4 6 6.5t9 -1.5l38 -21q8 -5 3 -14q-22 -34 -50 -46t-60 -12q-53 0 -86 28t-33 79v139q0 50 33.5 79t85.5 29q38 0 65.5 -12.5t44.5 -46.5z" />
<glyph unicode="&#xaa;" horiz-adv-x="314" d="M282 258q0 -15 -14 -15h-52q-13 0 -13 12v3q0 4 -3 4q-2 0 -3 -1q-11 -9 -28.5 -15t-34.5 -6q-54 0 -82 27t-28 75q0 45 31.5 73.5t86.5 28.5q11 0 25 -3.5t25 -11.5q2 -2 4 -2t2 4v6q0 16 -10 25.5t-38 9.5q-15 0 -36.5 -4t-38.5 -10q-2 -1 -5 -1q-7 0 -10 9l-10 32 q-1 2 -1 6q0 9 10 14q23 11 49.5 15.5t52.5 4.5q64 0 92.5 -29.5t28.5 -80.5v-170zM192 344q0 17 -12 28t-31 11q-18 0 -29.5 -11t-11.5 -28q0 -16 11.5 -27.5t29.5 -11.5q20 0 31.5 12t11.5 27z" />
<glyph unicode="&#xab;" horiz-adv-x="548" d="M379 212q-6 -8 -5.5 -11.5t4.5 -8.5l119 -144q8 -10 4 -19t-15 -9h-64q-14 0 -21.5 4.5t-16.5 15.5l-114 138q-11 14 -10 25t10 22l116 142q5 7 12.5 12t22.5 5h65q14 0 17.5 -7.5t-4.5 -17.5zM180 212q-6 -8 -6 -11.5t5 -8.5l119 -144q8 -10 3.5 -19t-14.5 -9h-65 q-13 0 -20.5 4.5t-16.5 15.5l-114 138q-11 14 -10 25t10 22l116 142q5 7 12.5 12t21.5 5h66q14 0 17.5 -7.5t-4.5 -17.5z" />
<glyph unicode="&#xac;" horiz-adv-x="497" d="M458 74q0 -16 -14 -16h-45q-14 0 -14 15v138q0 9 -11 9h-319q-16 0 -16 14v49q0 14 15 14h388q16 0 16 -14v-209z" />
<glyph unicode="&#xad;" horiz-adv-x="324" d="M274 206q0 -15 -14 -15h-200q-16 0 -16 14v57q0 14 15 14h200q15 0 15 -13v-57v0z" />
<glyph unicode="&#xae;" horiz-adv-x="409" d="M366 440q0 -32 -12.5 -57t-34 -42t-51.5 -25.5t-65 -8.5q-71 0 -116 35t-45 98v72q0 62 45 97.5t116 35.5q35 0 65 -8.5t51.5 -25.5t34 -42t12.5 -57v-72zM329 513q0 41 -31.5 69.5t-94.5 28.5q-64 0 -94 -29.5t-30 -68.5v-75q0 -19 7.5 -36.5t22.5 -31t38.5 -21.5 t55.5 -8q31 0 54.5 8t39.5 21.5t24 31t8 36.5v75zM275 395q2 -4 1 -8.5t-8 -4.5h-19q-5 0 -7.5 1t-4.5 6l-30 63q-1 5 -7 5h-13v-67q0 -8 -7 -8h-25q-7 0 -7 8v171q0 9 9 9h54q30 0 46 -15t16 -38q0 -15 -7 -28.5t-17 -20.5q-6 -4 -6.5 -6t1.5 -6zM235 512q0 23 -23 23h-26 v-48h26q8 0 15.5 7t7.5 18z" />
<glyph unicode="&#xaf;" horiz-adv-x="462" d="M355 540q0 -9 -3 -11t-14 -2h-212q-11 0 -15 1.5t-4 11.5v51q0 11 3.5 14t14.5 3h212q11 0 14.5 -3t3.5 -13v-52v0z" />
<glyph unicode="&#xb0;" horiz-adv-x="321" d="M287 520q0 -24 -10.5 -45.5t-28 -37.5t-41 -25.5t-50.5 -9.5t-49.5 9.5t-39.5 25.5t-26.5 37.5t-9.5 45.5t9.5 45.5t26.5 37.5t39.5 25.5t49.5 9.5q29 0 53 -9.5t41 -25.5t26.5 -37.5t9.5 -45.5zM216 520q0 23 -16.5 40t-42.5 17q-23 0 -39.5 -16.5t-16.5 -40.5 q0 -23 16.5 -40t39.5 -17t41 17t18 40z" />
<glyph unicode="&#xb1;" horiz-adv-x="497" d="M458 314q0 -21 -20 -21h-137q-8 0 -10 -2.5t-2 -8.5v-132q0 -19 -21 -19h-44q-21 0 -21 19v133q0 10 -14 10h-130q-20 0 -20 20v37q0 20 20 20h132q12 0 12 11v133q0 19 20 19h45q21 0 21 -19v-130q0 -8 2 -11t10 -3h137q20 0 20 -20v-36zM458 25q0 -25 -24 -25h-371 q-24 0 -24 24v31q0 22 24 22h371q24 0 24 -22v-30z" />
<glyph unicode="&#xb2;" horiz-adv-x="312" d="M273 344q0 -8 -4.5 -11.5t-10.5 -3.5h-224q-8 0 -12.5 3t-4.5 12v30q0 8 1 13.5t9 15.5l127 147q15 17 23.5 30.5t8.5 23.5q0 17 -12 28t-33 11q-16 0 -28.5 -8t-20.5 -17q-13 -17 -30 -5q-1 1 -5 4t-9 6.5t-9.5 6.5t-5.5 4q-8 7 -8 11.5t5 12.5q23 30 54 42.5t64 12.5 q25 0 47.5 -7t39 -20t26 -32t9.5 -44q0 -26 -15 -50t-34 -46q-7 -8 -19 -22.5t-25.5 -30t-26.5 -30t-20 -23.5q-4 -5 -2.5 -7t4.5 -2h125q8 0 12 -5t4 -10v-40v0z" />
<glyph unicode="&#xb3;" horiz-adv-x="312" d="M270 438q0 -53 -35 -82.5t-93 -29.5q-42 2 -71 15t-48 46q-2 6 -2 10q0 8 8 12q9 5 18.5 9.5t18.5 9.5q7 3 12 3q8 0 12 -8q19 -29 49 -29q21 0 35 11.5t14 28.5v24q0 16 -12.5 28.5t-32.5 12.5h-40q-17 0 -17 15v36q0 16 16 16h41q20 0 32.5 11.5t12.5 26.5q0 17 -13 28 t-34 11q-14 0 -27 -6.5t-21 -17.5q-7 -11 -18 -11q-7 0 -10 2l-34 19q-7 4 -7 13q0 7 4 15q18 27 48.5 41t65.5 14q57 0 92 -27.5t35 -77.5q0 -20 -10 -39.5t-30 -31.5q-2 -2 -2 -3t2 -3q20 -11 30.5 -29t10.5 -37v-26v0z" />
<glyph unicode="&#xb4;" horiz-adv-x="455" d="M235 490q-5 -5 -11.5 -5.5t-13.5 3.5l-28 17q-13 7 -6 21l87 143q4 7 11 9t13 -1l60 -33q11 -6 9 -14t-6 -12z" />
<glyph unicode="&#xb6;" horiz-adv-x="516" d="M456 82q0 -94 -54 -138t-148 -50q-6 0 -10 2.5t-6 11.5l-8 59q-1 7 1.5 12.5t10.5 6.5q33 4 54.5 12.5t34 21.5t17 31t4.5 41v532q0 14 15 14h74q15 0 15 -14v-542zM212 297q-38 0 -69.5 13t-54.5 36t-35.5 53.5t-12.5 66.5q0 35 13 66t36 54.5t54.5 37.5t68.5 14h79 q15 0 15 -14v-313q0 -14 -15 -14h-79z" />
<glyph unicode="&#xb7;" horiz-adv-x="229" d="M115 171q-28 0 -47.5 19.5t-19.5 45.5t20 45t47 19q26 0 46 -19t20 -44q0 -27 -19.5 -46.5t-46.5 -19.5z" />
<glyph unicode="&#xb8;" horiz-adv-x="412" d="M322 -120q0 -15 -6 -30t-19 -27t-32 -19.5t-45 -7.5q-49 0 -82 24q-6 4 -6 9q0 3 3 8l19 23q6 7 10 7q3 0 13 -5q8 -5 19 -8.5t22 -3.5q22 0 32 8.5t10 20.5q0 13 -7.5 21t-26.5 8h-30q-19 0 -27.5 10t-4.5 27l18 70q1 4 4 9t10 5h32q10 0 10 -9q0 -2 -2 -8l-11 -47v-1 q0 -3 7 -3h7q35 0 59 -21.5t24 -59.5z" />
<glyph unicode="&#xb9;" horiz-adv-x="278" d="M73 590q-11 -5 -18.5 -2.5t-7.5 13.5v37q0 8 2 13.5t11 10.5l69 40q5 2 9 3.5t10 1.5h35q18 0 18 -17v-345q0 -16 -18 -16h-50q-17 0 -17 15v260q0 7 -7 4l-36 -18v0z" />
<glyph unicode="&#xba;" horiz-adv-x="318" d="M289 348q0 -55 -36.5 -84t-93.5 -29t-93.5 30t-36.5 81v75q0 50 35.5 81t94.5 31q55 0 92.5 -28.5t37.5 -83.5v-73zM203 420q0 17 -12 28t-33 11q-20 0 -32.5 -11.5t-12.5 -28.5v-70q0 -18 13 -29.5t33 -11.5t32 11t12 30v71z" />
<glyph unicode="&#xbb;" horiz-adv-x="548" d="M489 199q2 -7 -2.5 -18t-9.5 -18l-103 -125q-8 -9 -15 -14t-21 -5h-65q-12 0 -16 8t4 18l112 137q3 4 6 9.5t2 9.5q1 3 -1 8t-5 9l-114 139q-8 10 -4 18t16 8h65q14 0 21 -4.5t15 -14.5l101 -121q6 -8 11.5 -22.5t2.5 -21.5zM290 199q2 -7 -2.5 -18t-9.5 -18l-103 -125 q-8 -9 -15 -14t-21 -5h-65q-12 0 -16.5 8t3.5 18l113 137q3 4 6 9.5t2 9.5q1 3 -1 8t-5 9l-115 139q-8 10 -3.5 18t16.5 8h65q14 0 21 -4.5t15 -14.5l100 -121q7 -8 12 -22.5t3 -21.5z" />
<glyph unicode="&#xbc;" horiz-adv-x="760" d="M110 500q-11 -5 -18.5 -2.5t-7.5 13.5v37q0 8 2 13.5t11 10.5l69 40q5 2 9 3.5t10 1.5h35q18 0 18 -17v-345q0 -16 -18 -16h-50q-17 0 -17 15v260q0 7 -7 4zM245 -21q-4 -9 -15 -9h-41q-11 0 -12.5 5.5t0.5 12.5l284 648q5 11 18 11h36q12 0 14.5 -5.5t-0.5 -13.5z M396 81q-14 0 -14 12v27q0 9 1 15.5t6 15.5l118 219q4 6 8 7.5t11 1.5h57q5 0 8.5 -2.5t-0.5 -10.5l-111 -210q-5 -7 4 -7h55q8 0 8 8v64q0 8 3.5 9.5t7.5 1.5h56q13 0 13 -11v-64q0 -4 1 -6t6 -2h33q12 0 12 -10v-47q0 -11 -10 -11h-35q-7 0 -7 -8v-61q0 -12 -13 -12h-56 q-11 0 -11 12v60q0 6 -2.5 7.5t-7.5 1.5h-141z" />
<glyph unicode="&#xbd;" horiz-adv-x="760" d="M107 500q-11 -5 -18.5 -2.5t-7.5 13.5v37q0 8 2 13.5t11 10.5l69 40q5 2 9 3.5t10 1.5h35q18 0 18 -17v-345q0 -16 -18 -16h-50q-17 0 -17 15v260q0 7 -7 4zM230 -21q-4 -9 -15 -9h-41q-11 0 -12.5 5.5t0.5 12.5l284 648q5 11 18 11h36q12 0 14.5 -5.5t-0.5 -13.5z M677 15q0 -15 -14 -15h-225q-15 0 -15 14v30q0 8 1 13.5t9 15.5l127 147q14 17 23 30.5t9 24.5q0 17 -12 28.5t-34 11.5q-17 0 -29.5 -8.5t-20.5 -17.5q-14 -14 -28 -5l-30 21q-8 7 -8 11.5t5 11.5q23 29 53.5 42t62.5 13q51 0 87 -26.5t36 -75.5q0 -26 -15 -50t-34 -46 l-91 -107q-4 -5 -2.5 -7.5t4.5 -2.5h127q7 0 10.5 -4.5t3.5 -9.5v-39z" />
<glyph unicode="&#xbe;" horiz-adv-x="760" d="M296 348q0 -53 -35 -82.5t-93 -29.5q-42 2 -71 15t-48 46q-2 6 -2 10q0 8 8 12q9 5 18.5 9.5t18.5 9.5q7 3 12 3q8 0 12 -8q19 -29 49 -29q21 0 35 11.5t14 28.5v24q0 16 -12.5 28.5t-32.5 12.5h-40q-17 0 -17 15v36q0 16 16 16h41q20 0 32.5 11.5t12.5 26.5q0 17 -13 28 t-34 11q-14 0 -27 -6.5t-21 -17.5q-7 -11 -18 -11q-7 0 -10 2l-34 19q-7 4 -7 13q0 7 4 15q18 27 48.5 41t65.5 14q57 0 92 -27.5t35 -77.5q0 -20 -10 -39.5t-30 -31.5q-2 -2 -2 -3t2 -3q20 -11 30.5 -29t10.5 -37v-26zM414 81q-14 0 -14 12v27q0 9 1 15.5t6 15.5l118 219 q4 6 8 7.5t11 1.5h57q5 0 8.5 -2.5t-0.5 -10.5l-111 -210q-5 -7 4 -7h55q8 0 8 8v64q0 8 3.5 9.5t7.5 1.5h56q13 0 13 -11v-64q0 -4 1 -6t6 -2h33q12 0 12 -10v-47q0 -11 -10 -11h-35q-7 0 -7 -8v-61q0 -12 -13 -12h-56q-11 0 -11 12v60q0 6 -2.5 7.5t-7.5 1.5h-141z M266 -21q-4 -9 -15 -9h-41q-11 0 -12.5 5.5t0.5 12.5l284 648q5 11 18 11h36q12 0 14.5 -5.5t-0.5 -13.5z" />
<glyph unicode="&#xbf;" horiz-adv-x="505" d="M84 -26q0 25 8.5 48.5t23 44t32.5 36.5t37 28q35 22 60 45t25 59v19q0 10 12 10h80q11 0 15.5 -4t4.5 -16v-26q0 -39 -23.5 -77t-64.5 -65q-37 -24 -64.5 -46.5t-29.5 -51.5q-2 -33 19 -54t56 -21q19 0 32.5 4t23 11.5t17.5 17.5t16 22q8 11 23 2l53 -33q15 -9 5 -27 q-31 -52 -73.5 -72t-98.5 -20q-42 0 -76.5 11t-59.5 32t-39 52t-14 71zM261 379q0 26 19 45t48 19q27 0 47 -19t20 -45t-20 -45t-47 -19t-46.5 18t-19.5 46h-1z" />
<glyph unicode="&#xc0;" horiz-adv-x="482" d="M466 21q2 -5 0.5 -13t-15.5 -8h-81q-16 0 -20 13l-23 100q-2 8 -4.5 11t-8.5 3h-148q-8 0 -10 -4t-4 -9q-2 -8 -5 -21.5t-6.5 -29t-6.5 -29.5t-5 -21t-7.5 -10t-11.5 -3h-77q-14 0 -16.5 6t-0.5 14l146 583q5 14 21 14h114q7 0 12 -1.5t7 -11.5zM126 793q8 10 18 8.5 t23 -11.5l121 -92q13 -10 3 -22l-20 -26q-5 -6 -10 -9t-14 2l-154 78q-5 2 -9.5 9t3.5 16zM266 370l-24 115q-1 4 -3.5 4.5t-3.5 -4.5l-23 -113l-31 -143q-1 -5 0 -7t7 -2h104q10 0 6 10z" />
<glyph unicode="&#xc1;" horiz-adv-x="482" d="M466 21q2 -5 0.5 -13t-15.5 -8h-81q-16 0 -20 13l-23 100q-2 8 -4.5 11t-8.5 3h-148q-8 0 -10 -4t-4 -9q-2 -8 -5 -21.5t-6.5 -29t-6.5 -29.5t-5 -21t-7.5 -10t-11.5 -3h-77q-14 0 -16.5 6t-0.5 14l146 583q5 14 21 14h114q7 0 12 -1.5t7 -11.5zM266 370l-24 115 q-1 4 -3.5 4.5t-3.5 -4.5l-23 -113l-31 -143q-1 -5 0 -7t7 -2h104q10 0 6 10zM386 746q8 -9 3.5 -16t-9.5 -9l-154 -78q-9 -5 -14 -2t-10 9l-20 26q-10 12 3 22l121 92q13 10 23 11.5t18 -8.5z" />
<glyph unicode="&#xc2;" horiz-adv-x="482" d="M466 21q2 -5 0.5 -13t-15.5 -8h-81q-16 0 -20 13l-23 100q-2 8 -4.5 11t-8.5 3h-148q-8 0 -10 -4t-4 -9q-2 -8 -5 -21.5t-6.5 -29t-6.5 -29.5t-5 -21t-7.5 -10t-11.5 -3h-77q-14 0 -16.5 6t-0.5 14l146 583q5 14 21 14h114q7 0 12 -1.5t7 -11.5zM266 370l-24 115 q-1 4 -3.5 4.5t-3.5 -4.5l-23 -113l-31 -143q-1 -5 0 -7t7 -2h104q10 0 6 10zM393 677q4 -5 5.5 -10t-6.5 -8l-32 -15q-8 -4 -12.5 -3.5t-9.5 5.5l-94 73q-7 6 -14 1l-93 -75q-5 -5 -9 -5.5t-12 3.5l-31 16q-8 3 -6.5 8t5.5 10l100 114q8 10 21 10h67q8 0 12.5 -2.5 t9.5 -7.5z" />
<glyph unicode="&#xc3;" horiz-adv-x="482" d="M466 21q2 -5 0.5 -13t-15.5 -8h-81q-16 0 -20 13l-23 100q-2 8 -4.5 11t-8.5 3h-148q-8 0 -10 -4t-4 -9q-2 -8 -5 -21.5t-6.5 -29t-6.5 -29.5t-5 -21t-7.5 -10t-11.5 -3h-77q-14 0 -16.5 6t-0.5 14l146 583q5 14 21 14h114q7 0 12 -1.5t7 -11.5zM266 370l-24 115 q-1 4 -3.5 4.5t-3.5 -4.5l-23 -113l-31 -143q-1 -5 0 -7t7 -2h104q10 0 6 10zM385 712q-16 -29 -41.5 -45t-49.5 -16q-18 0 -33.5 5t-30 10.5t-29 10.5t-29.5 5q-8 0 -21 -5.5t-25 -19.5q-5 -6 -9 -6t-11 6l-28 27q-8 8 -2 18q14 24 39.5 41t54.5 17q16 0 32 -5t32 -11.5 t30.5 -11.5t26.5 -5q11 0 21 9.5t17 17.5q5 7 8.5 7.5t9.5 -3.5l34 -22q7 -5 8 -9t-4 -15z" />
<glyph unicode="&#xc4;" horiz-adv-x="482" d="M466 21q2 -5 0.5 -13t-15.5 -8h-81q-16 0 -20 13l-23 100q-2 8 -4.5 11t-8.5 3h-148q-8 0 -10 -4t-4 -9q-2 -8 -5 -21.5t-6.5 -29t-6.5 -29.5t-5 -21t-7.5 -10t-11.5 -3h-77q-14 0 -16.5 6t-0.5 14l146 583q5 14 21 14h114q7 0 12 -1.5t7 -11.5zM266 370l-24 115 q-1 4 -3.5 4.5t-3.5 -4.5l-23 -113l-31 -143q-1 -5 0 -7t7 -2h104q10 0 6 10zM386 709q0 -25 -17 -41.5t-43 -16.5t-43.5 16.5t-17.5 41.5t17.5 42t43.5 17q25 0 42.5 -17t17.5 -42zM210 709q0 -25 -17 -41.5t-43 -16.5t-43 16.5t-17 41.5t17 42t43 17t43 -17t17 -42z" />
<glyph unicode="&#xc5;" horiz-adv-x="482" d="M466 21q2 -5 0.5 -13t-15.5 -8h-81q-16 0 -20 13l-23 100q-2 8 -4.5 11t-8.5 3h-148q-8 0 -10 -4t-4 -9q-2 -8 -5 -21.5t-6.5 -29t-6.5 -29.5t-5 -21t-7.5 -10t-11.5 -3h-77q-14 0 -16.5 6t-0.5 14l146 583q5 14 21 14h114q7 0 12 -1.5t7 -11.5zM266 370l-24 115 q-1 4 -3.5 4.5t-3.5 -4.5l-23 -113l-31 -143q-1 -5 0 -7t7 -2h104q10 0 6 10zM328 734q0 -18 -7 -34t-19 -27.5t-28.5 -18.5t-35.5 -7q-18 0 -34 7t-28 19t-18.5 27.5t-6.5 33.5q0 36 24.5 62t62.5 26q37 0 63.5 -25.5t26.5 -62.5zM276 734q0 15 -11.5 27t-26.5 12 t-25.5 -11t-10.5 -28q0 -16 10.5 -26.5t25.5 -10.5q16 0 27 11t11 26z" />
<glyph unicode="&#xc6;" horiz-adv-x="759" d="M711 101q16 0 16 -17v-68q0 -16 -16 -16h-342q-18 0 -18 15v108q0 6 -1.5 11.5t-12.5 5.5h-156q-8 0 -11 -4t-5 -9l-42 -113q-3 -8 -9 -11t-11 -3h-77q-13 0 -14.5 7t0.5 15q9 24 26.5 69.5t39.5 102t46 118.5t45.5 118.5t39 102t26.5 69.5q3 6 9 10.5t16 4.5h445 q16 0 16 -15v-66q0 -18 -15 -18h-227q-14 0 -14 -13v-124q0 -9 2.5 -12.5t11.5 -3.5h186q9 0 12 -3.5t3 -12.5v-66q0 -8 -3 -13t-12 -5h-187q-9 0 -11 -3.5t-2 -11.5v-134q0 -5 1.5 -10t12.5 -5h232zM206 245q-4 -9 6 -9h125q6 0 10 2.5t4 10.5v260q0 9 -10 9h-31 q-9 0 -11 -8z" />
<glyph unicode="&#xc7;" horiz-adv-x="472" d="M366 -120q0 -15 -6 -30t-19 -27t-32 -19.5t-45 -7.5q-49 0 -82 24q-6 4 -6 9q0 3 3 8l19 23q6 7 10 7q3 0 13 -5q8 -5 19 -8.5t22 -3.5q22 0 32 8.5t10 20.5q0 13 -7.5 21t-26.5 8h-30q-19 0 -27.5 10t-4.5 27l13 51q-74 9 -118 55.5t-44 120.5v277q0 40 14.5 73t40.5 56 t61.5 36t77.5 13q52 0 99.5 -18.5t85.5 -72.5q5 -6 4.5 -13t-9.5 -13l-54 -41q-8 -5 -15.5 -2t-11.5 10q-34 50 -95 50q-42 0 -63.5 -24.5t-21.5 -57.5v-273q0 -32 22 -54.5t64 -22.5q28 0 52 13.5t41 33.5l10.5 10.5t15.5 -0.5l60 -37q7 -4 9.5 -10.5t-1.5 -13.5 q-32 -48 -75.5 -70t-94.5 -26l-6 -30v-1q0 -3 7 -3h7q35 0 59 -21.5t24 -59.5z" />
<glyph unicode="&#xc8;" horiz-adv-x="468" d="M418 101q16 0 16 -17v-66q0 -18 -16 -18h-339q-18 0 -18 17v583q0 17 18 17h333q7 0 12 -3.5t5 -12.5v-65q0 -18 -16 -18h-223q-10 0 -13 -3t-3 -10v-120q0 -17 16 -17h184q16 0 16 -18v-64q0 -17 -16 -17h-185q-9 0 -12 -3.5t-3 -11.5v-138q0 -9 4 -12t14 -3h226z M116 793q8 10 18 8.5t23 -11.5l121 -92q13 -10 3 -22l-20 -26q-5 -6 -10 -9t-14 2l-154 78q-5 2 -9.5 9t3.5 16z" />
<glyph unicode="&#xc9;" horiz-adv-x="468" d="M418 101q16 0 16 -17v-66q0 -18 -16 -18h-339q-18 0 -18 17v583q0 17 18 17h333q7 0 12 -3.5t5 -12.5v-65q0 -18 -16 -18h-223q-10 0 -13 -3t-3 -10v-120q0 -17 16 -17h184q16 0 16 -18v-64q0 -17 -16 -17h-185q-9 0 -12 -3.5t-3 -11.5v-138q0 -9 4 -12t14 -3h226z M370 746q8 -9 3.5 -16t-9.5 -9l-154 -78q-9 -5 -14 -2t-10 9l-20 26q-10 12 3 22l121 92q13 10 23 11.5t18 -8.5z" />
<glyph unicode="&#xca;" horiz-adv-x="468" d="M418 101q16 0 16 -17v-66q0 -18 -16 -18h-339q-18 0 -18 17v583q0 17 18 17h333q7 0 12 -3.5t5 -12.5v-65q0 -18 -16 -18h-223q-10 0 -13 -3t-3 -10v-120q0 -17 16 -17h184q16 0 16 -18v-64q0 -17 -16 -17h-185q-9 0 -12 -3.5t-3 -11.5v-138q0 -9 4 -12t14 -3h226z M396 677q4 -5 5.5 -10t-6.5 -8l-32 -15q-8 -4 -12.5 -3.5t-9.5 5.5l-94 73q-7 6 -14 1l-93 -75q-5 -5 -9 -5.5t-12 3.5l-31 16q-8 3 -6.5 8t5.5 10l100 114q8 10 21 10h67q8 0 12.5 -2.5t9.5 -7.5z" />
<glyph unicode="&#xcb;" horiz-adv-x="468" d="M418 101q16 0 16 -17v-66q0 -18 -16 -18h-339q-18 0 -18 17v583q0 17 18 17h333q7 0 12 -3.5t5 -12.5v-65q0 -18 -16 -18h-223q-10 0 -13 -3t-3 -10v-120q0 -17 16 -17h184q16 0 16 -18v-64q0 -17 -16 -17h-185q-9 0 -12 -3.5t-3 -11.5v-138q0 -9 4 -12t14 -3h226z M378 709q0 -25 -17 -41.5t-43 -16.5t-43.5 16.5t-17.5 41.5t17.5 42t43.5 17q25 0 42.5 -17t17.5 -42zM202 709q0 -25 -17 -41.5t-43 -16.5t-43 16.5t-17 41.5t17 42t43 17t43 -17t17 -42z" />
<glyph unicode="&#xcc;" horiz-adv-x="257" d="M88 0q-18 0 -18 15v587q0 15 18 15h78q18 0 18 -15v-586q0 -16 -18 -16h-78zM2 793q8 10 18 8.5t23 -11.5l121 -92q13 -10 3 -22l-20 -26q-5 -6 -10 -9t-14 2l-154 78q-5 2 -9.5 9t3.5 16z" />
<glyph unicode="&#xcd;" horiz-adv-x="257" d="M88 0q-18 0 -18 15v587q0 15 18 15h78q18 0 18 -15v-586q0 -16 -18 -16h-78zM291 746q8 -9 3.5 -16t-9.5 -9l-154 -78q-9 -5 -14 -2t-10 9l-20 26q-10 12 3 22l121 92q13 10 23 11.5t18 -8.5z" />
<glyph unicode="&#xce;" horiz-adv-x="257" d="M88 0q-18 0 -18 15v587q0 15 18 15h78q18 0 18 -15v-586q0 -16 -18 -16h-78zM283 685q4 -5 5.5 -10t-6.5 -8l-32 -15q-8 -4 -12.5 -3.5t-9.5 5.5l-94 73q-7 6 -14 1l-93 -75q-5 -5 -9 -5.5t-12 3.5l-31 16q-8 3 -6.5 8t5.5 10l100 114q8 10 21 10h67q8 0 12.5 -2.5 t9.5 -7.5z" />
<glyph unicode="&#xcf;" horiz-adv-x="257" d="M88 0q-18 0 -18 15v587q0 15 18 15h78q18 0 18 -15v-586q0 -16 -18 -16h-78zM276 709q0 -25 -17 -41.5t-43 -16.5t-43.5 16.5t-17.5 41.5t17.5 42t43.5 17q25 0 42.5 -17t17.5 -42zM100 709q0 -25 -17 -41.5t-43 -16.5t-43 16.5t-17 41.5t17 42t43 17t43 -17t17 -42z" />
<glyph unicode="&#xd0;" horiz-adv-x="528" d="M82 0q-19 0 -19 17v245q0 6 -1 9.5t-9 3.5h-26q-9 0 -11.5 3t-2.5 11v45q0 8 2.5 11.5t10.5 3.5h27q5 0 7.5 2.5t2.5 10.5v238q0 17 19 17h202q95 0 141.5 -49t46.5 -135v-246q0 -88 -46.5 -137.5t-138.5 -49.5h-205zM275 101q45 0 64.5 23t19.5 63v245q0 46 -23.5 66 t-64.5 20h-77q-11 0 -14 -4.5t-3 -12.5v-148q1 -4 9 -4h65q15 0 15 -15v-45q0 -14 -14 -14h-65q-8 0 -10 -5v-153q0 -16 16 -16h82z" />
<glyph unicode="&#xd1;" horiz-adv-x="549" d="M135 617q14 0 20.5 -4t11.5 -14l208 -365q2 -2 3 -1.5t1 2.5v366q0 16 17 16h72q18 0 18 -16v-581q0 -12 -6 -16t-15 -4h-51q-12 0 -18.5 2t-12.5 13l-204 355q-2 5 -5 4.5t-3 -6.5v-354q0 -14 -19 -14h-72q-19 0 -19 14v579q0 24 23 24h51zM429 708q-16 -29 -41.5 -45 t-49.5 -16q-18 0 -33.5 5t-30 10.5t-29 10.5t-29.5 5q-8 0 -21 -5.5t-25 -19.5q-5 -6 -9 -6t-11 6l-28 27q-8 8 -2 18q14 24 39.5 41t54.5 17q16 0 32 -5t32 -11.5t30.5 -11.5t26.5 -5q11 0 21 9.5t17 17.5q5 7 8.5 7.5t9.5 -3.5l34 -22q7 -5 8 -9t-4 -15z" />
<glyph unicode="&#xd2;" horiz-adv-x="529" d="M469 176q0 -42 -15.5 -76t-42.5 -57.5t-64.5 -36t-81.5 -12.5t-81.5 12.5t-65 35.5t-43.5 57t-16 77v268q0 42 15.5 76t43 58t65 36.5t81.5 12.5q43 0 80 -12.5t65 -36t44 -57.5t16 -77v-268zM355 443q0 35 -22.5 59t-67.5 24t-69 -24t-24 -59v-266q0 -35 23.5 -58.5 t68.5 -23.5q42 0 66.5 23.5t24.5 58.5v266zM152 796q8 10 18 8.5t23 -11.5l121 -92q13 -10 3 -22l-20 -26q-5 -6 -10 -9t-14 2l-154 78q-5 2 -9.5 9t3.5 16z" />
<glyph unicode="&#xd3;" horiz-adv-x="529" d="M469 176q0 -42 -15.5 -76t-42.5 -57.5t-64.5 -36t-81.5 -12.5t-81.5 12.5t-65 35.5t-43.5 57t-16 77v268q0 42 15.5 76t43 58t65 36.5t81.5 12.5q43 0 80 -12.5t65 -36t44 -57.5t16 -77v-268zM355 443q0 35 -22.5 59t-67.5 24t-69 -24t-24 -59v-266q0 -35 23.5 -58.5 t68.5 -23.5q42 0 66.5 23.5t24.5 58.5v266zM426 750q8 -9 3.5 -16t-9.5 -9l-154 -78q-9 -5 -14 -2t-10 9l-20 26q-10 12 3 22l121 92q13 10 23 11.5t18 -8.5z" />
<glyph unicode="&#xd4;" horiz-adv-x="529" d="M469 176q0 -42 -15.5 -76t-42.5 -57.5t-64.5 -36t-81.5 -12.5t-81.5 12.5t-65 35.5t-43.5 57t-16 77v268q0 42 15.5 76t43 58t65 36.5t81.5 12.5q43 0 80 -12.5t65 -36t44 -57.5t16 -77v-268zM355 443q0 35 -22.5 59t-67.5 24t-69 -24t-24 -59v-266q0 -35 23.5 -58.5 t68.5 -23.5q42 0 66.5 23.5t24.5 58.5v266zM422 677q4 -5 5.5 -10t-6.5 -8l-32 -15q-8 -4 -12.5 -3.5t-9.5 5.5l-94 73q-7 6 -14 1l-93 -75q-5 -5 -9 -5.5t-12 3.5l-31 16q-8 3 -6.5 8t5.5 10l100 114q8 10 21 10h67q8 0 12.5 -2.5t9.5 -7.5z" />
<glyph unicode="&#xd5;" horiz-adv-x="529" d="M469 176q0 -42 -15.5 -76t-42.5 -57.5t-64.5 -36t-81.5 -12.5t-81.5 12.5t-65 35.5t-43.5 57t-16 77v268q0 42 15.5 76t43 58t65 36.5t81.5 12.5q43 0 80 -12.5t65 -36t44 -57.5t16 -77v-268zM355 443q0 35 -22.5 59t-67.5 24t-69 -24t-24 -59v-266q0 -35 23.5 -58.5 t68.5 -23.5q42 0 66.5 23.5t24.5 58.5v266zM417 718q-16 -29 -41.5 -45t-49.5 -16q-18 0 -33.5 5t-30 10.5t-29 10.5t-29.5 5q-8 0 -21 -5.5t-25 -19.5q-5 -6 -9 -6t-11 6l-28 27q-8 8 -2 18q14 24 39.5 41t54.5 17q16 0 32 -5t32 -11.5t30.5 -11.5t26.5 -5q11 0 21 9.5 t17 17.5q5 7 8.5 7.5t9.5 -3.5l34 -22q7 -5 8 -9t-4 -15z" />
<glyph unicode="&#xd6;" horiz-adv-x="529" d="M469 176q0 -42 -15.5 -76t-42.5 -57.5t-64.5 -36t-81.5 -12.5t-81.5 12.5t-65 35.5t-43.5 57t-16 77v268q0 42 15.5 76t43 58t65 36.5t81.5 12.5q43 0 80 -12.5t65 -36t44 -57.5t16 -77v-268zM355 443q0 35 -22.5 59t-67.5 24t-69 -24t-24 -59v-266q0 -35 23.5 -58.5 t68.5 -23.5q42 0 66.5 23.5t24.5 58.5v266zM407 709q0 -25 -17 -41.5t-43 -16.5t-43.5 16.5t-17.5 41.5t17.5 42t43.5 17q25 0 42.5 -17t17.5 -42zM231 709q0 -25 -17 -41.5t-43 -16.5t-43 16.5t-17 41.5t17 42t43 17t43 -17t17 -42z" />
<glyph unicode="&#xd7;" horiz-adv-x="497" d="M87 99q-15 15 -1 29l101 101q6 5 5.5 8t-4.5 8l-99 99q-14 14 0 28l26 26q5 5 11.5 6.5t16.5 -6.5l100 -100q6 -6 17 3l94 95q14 14 29 0l26 -26q14 -14 0 -28l-96 -96q-5 -5 -4.5 -9.5t5.5 -9.5l97 -97q5 -6 6 -13t-6 -15l-25 -25q-8 -8 -16 -7.5t-13 6.5l-102 101 q-6 5 -14 -3l-100 -100q-15 -15 -28 0l-26 25v0z" />
<glyph unicode="&#xd8;" horiz-adv-x="529" d="M119 2q-7 -12 -17 -6l-31 17q-7 4 -6.5 8.5t4.5 10.5l17 30q1 3 3 6.5t-2 6.5q-11 17 -20 43t-9 52v272q0 43 16 77t43.5 57.5t65.5 36t82 12.5q35 0 63.5 -7.5t56.5 -22.5q5 -2 7.5 -1.5t7.5 6.5l13 21q6 10 18 4l31 -16q7 -4 5.5 -9t-4.5 -10l-20 -35q-6 -9 0 -17 q12 -16 19 -39t7 -50v-277q0 -42 -16.5 -75.5t-44 -56t-64.5 -34.5t-78 -12q-36 0 -68 7t-54 21q-8 6 -12 0zM355 395q0 6 -1.5 6t-3.5 -3l-155 -270q-3 -7 1 -11q12 -11 29 -17.5t40 -6.5q38 0 64 23.5t26 58.5v220zM171 220q0 -6 3 -5.5t5 3.5l154 267q6 8 -1 15 q-11 13 -30 19.5t-39 6.5q-42 0 -67 -24.5t-25 -58.5v-223z" />
<glyph unicode="&#xd9;" horiz-adv-x="529" d="M172 174q0 -33 25 -56t67 -23t67 23t25 57v427q0 15 18 15h77q19 0 19 -14v-429q0 -42 -16 -75.5t-44 -57t-65.5 -35.5t-79.5 -12q-43 0 -80.5 12t-65.5 35.5t-44 57t-16 75.5v428q0 15 18 15h77q8 0 13 -3t5 -11v-429zM142 793q8 10 18 8.5t23 -11.5l121 -92 q13 -10 3 -22l-20 -26q-5 -6 -10 -9t-14 2l-154 78q-5 2 -9.5 9t3.5 16z" />
<glyph unicode="&#xda;" horiz-adv-x="529" d="M172 174q0 -33 25 -56t67 -23t67 23t25 57v427q0 15 18 15h77q19 0 19 -14v-429q0 -42 -16 -75.5t-44 -57t-65.5 -35.5t-79.5 -12q-43 0 -80.5 12t-65.5 35.5t-44 57t-16 75.5v428q0 15 18 15h77q8 0 13 -3t5 -11v-429zM404 746q8 -9 3.5 -16t-9.5 -9l-154 -78 q-9 -5 -14 -2t-10 9l-20 26q-10 12 3 22l121 92q13 10 23 11.5t18 -8.5z" />
<glyph unicode="&#xdb;" horiz-adv-x="529" d="M172 174q0 -33 25 -56t67 -23t67 23t25 57v427q0 15 18 15h77q19 0 19 -14v-429q0 -42 -16 -75.5t-44 -57t-65.5 -35.5t-79.5 -12q-43 0 -80.5 12t-65.5 35.5t-44 57t-16 75.5v428q0 15 18 15h77q8 0 13 -3t5 -11v-429zM419 677q4 -5 5.5 -10t-6.5 -8l-32 -15 q-8 -4 -12.5 -3.5t-9.5 5.5l-94 73q-7 6 -14 1l-93 -75q-5 -5 -9 -5.5t-12 3.5l-31 16q-8 3 -6.5 8t5.5 10l100 114q8 10 21 10h67q8 0 12.5 -2.5t9.5 -7.5z" />
<glyph unicode="&#xdc;" horiz-adv-x="529" d="M172 174q0 -33 25 -56t67 -23t67 23t25 57v427q0 15 18 15h77q19 0 19 -14v-429q0 -42 -16 -75.5t-44 -57t-65.5 -35.5t-79.5 -12q-43 0 -80.5 12t-65.5 35.5t-44 57t-16 75.5v428q0 15 18 15h77q8 0 13 -3t5 -11v-429zM411 709q0 -25 -17 -41.5t-43 -16.5t-43.5 16.5 t-17.5 41.5t17.5 42t43.5 17q25 0 42.5 -17t17.5 -42zM235 709q0 -25 -17 -41.5t-43 -16.5t-43 16.5t-17 41.5t17 42t43 17t43 -17t17 -42z" />
<glyph unicode="&#xdd;" horiz-adv-x="465" d="M108 617q11 0 17.5 -2.5t11.5 -13.5l90 -243q6 -6 9 -1q23 60 46 121t44 121q5 10 10.5 14t20.5 4h74q16 0 18 -6.5t-1 -13.5l-154 -356q-4 -8 -5 -13t-1 -13v-197q0 -18 -18 -18h-77q-18 0 -18 17v200q0 12 -5 22l-155 357q-3 8 -1.5 14.5t15.5 6.5h79zM375 746 q8 -9 3.5 -16t-9.5 -9l-154 -78q-9 -5 -14 -2t-10 9l-20 26q-10 12 3 22l121 92q13 10 23 11.5t18 -8.5z" />
<glyph unicode="&#xde;" horiz-adv-x="486" d="M62 602q0 15 19 15h76q18 0 18 -14v-97q2 -10 13 -10h79q45 0 80.5 -14t60.5 -38.5t38.5 -59t13.5 -75.5q0 -38 -14.5 -70.5t-40 -56.5t-60.5 -38t-77 -14h-80q-8 0 -10 -3.5t-2 -9.5v-101q0 -16 -18 -16h-77q-18 0 -19 15v587zM347 311q0 16 -5.5 31.5t-16 27.5 t-25.5 19t-33 7h-77q-8 0 -11 -4.5t-4 -9.5v-139q0 -14 14 -14h78q36 0 58 23t22 59z" />
<glyph unicode="&#xdf;" horiz-adv-x="490" d="M440 162q0 -38 -14 -70.5t-40 -55.5q-23 -22 -53 -34t-64 -12h-41q-15 0 -15 13v57q0 16 19 16h24q16 0 30 7t24 19t15.5 27t5.5 30v83q0 32 -18 53.5t-53 21.5h-8q-15 0 -15 13v53q0 13 14 13h13q28 0 42.5 16t14.5 43q0 32 -19.5 54.5t-52.5 22.5t-53 -22t-20 -54v-440 q0 -16 -16 -16h-77q-17 0 -17 15v434q0 39 12.5 71.5t36 56t57 37t75.5 13.5t76 -12.5t57.5 -35.5t36.5 -54.5t13 -69.5q0 -26 -12 -54t-37 -39q-7 -3 -6 -6.5t5 -5.5q31 -13 45.5 -42.5t14.5 -61.5v-84v0z" />
<glyph unicode="&#xe0;" horiz-adv-x="462" d="M409 14q0 -14 -13 -14h-78q-11 0 -11 11v8q0 15 -14 4t-36 -20t-54 -9q-77 0 -121 41t-44 114q0 70 45 113t126 43q41 0 77 -21q5 -3 9.5 -2.5t4.5 8.5v12q0 30 -18 45t-59 15q-11 0 -24.5 -2t-28 -5t-28.5 -7t-24 -8q-17 -7 -22 9l-18 51q-3 7 0 12.5t8 7.5 q34 16 71.5 24t75.5 8q48 0 81.5 -11.5t54.5 -33t30.5 -52.5t9.5 -69v-272zM215 77q39 0 57.5 22t19.5 51q0 31 -19.5 52.5t-56.5 21.5q-38 0 -57.5 -21t-19.5 -52t19.5 -52.5t56.5 -21.5zM310 526q9 -14 -5 -21l-24 -14q-19 -10 -32 4l-113 123q-3 4 -5 12t9 14l60 33 q8 5 13.5 2t10.5 -10z" />
<glyph unicode="&#xe1;" horiz-adv-x="462" d="M409 14q0 -14 -13 -14h-78q-11 0 -11 11v8q0 15 -14 4t-36 -20t-54 -9q-77 0 -121 41t-44 114q0 70 45 113t126 43q41 0 77 -21q5 -3 9.5 -2.5t4.5 8.5v12q0 30 -18 45t-59 15q-11 0 -24.5 -2t-28 -5t-28.5 -7t-24 -8q-17 -7 -22 9l-18 51q-3 7 0 12.5t8 7.5 q34 16 71.5 24t75.5 8q48 0 81.5 -11.5t54.5 -33t30.5 -52.5t9.5 -69v-272zM292 151q-1 30 -20.5 51.5t-55.5 21.5q-38 0 -57.5 -21t-19.5 -52t19.5 -52.5t56.5 -21.5q40 0 58.5 22.5t18.5 51.5zM235 490q-5 -5 -11.5 -5.5t-13.5 3.5l-28 17q-13 7 -6 21l87 143q4 7 11 9 t13 -1l60 -33q11 -6 9 -14t-6 -12z" />
<glyph unicode="&#xe2;" horiz-adv-x="462" d="M409 14q0 -14 -13 -14h-78q-11 0 -11 11v8q0 15 -14 4t-36 -20t-54 -9q-77 0 -121 41t-44 114q0 70 45 113t126 43q41 0 77 -21q5 -3 9.5 -2.5t4.5 8.5v12q0 30 -18 45t-59 15q-11 0 -24.5 -2t-28 -5t-28.5 -7t-24 -8q-17 -7 -22 9l-18 51q-3 7 0 12.5t8 7.5 q34 16 71.5 24t75.5 8q48 0 81.5 -11.5t54.5 -33t30.5 -52.5t9.5 -69v-272zM387 527q4 -6 5.5 -11.5t-6.5 -9.5l-32 -17q-8 -5 -12.5 -4t-9.5 6l-94 90q-8 7 -14 1l-93 -92q-5 -5 -9 -6t-12 4l-31 18q-8 4 -6.5 9.5t5.5 11.5l100 130q4 5 8.5 8t12.5 3h67q8 0 12.5 -3 t9.5 -8zM215 77q39 0 57.5 22t19.5 51q0 31 -19.5 52.5t-56.5 21.5q-38 0 -57.5 -21t-19.5 -52t19.5 -52.5t56.5 -21.5z" />
<glyph unicode="&#xe3;" horiz-adv-x="462" d="M409 14q0 -14 -13 -14h-78q-11 0 -11 11v8q0 15 -14 4t-36 -20t-54 -9q-77 0 -121 41t-44 114q0 70 45 113t126 43q41 0 77 -21q5 -3 9.5 -2.5t4.5 8.5v12q0 30 -18 45t-59 15q-11 0 -24.5 -2t-28 -5t-28.5 -7t-24 -8q-17 -7 -22 9l-18 51q-3 7 0 12.5t8 7.5 q34 16 71.5 24t75.5 8q48 0 81.5 -11.5t54.5 -33t30.5 -52.5t9.5 -69v-272zM395 568q-16 -29 -41.5 -45t-49.5 -16q-18 0 -33.5 5t-30 10.5t-29 10.5t-29.5 5q-8 0 -21 -5.5t-25 -19.5q-5 -6 -9 -6t-11 6l-28 27q-8 8 -2 18q14 24 39.5 41t54.5 17q16 0 32 -5t32 -11.5 t30.5 -11.5t26.5 -5q11 0 21 9.5t17 17.5q5 7 8.5 7.5t9.5 -3.5l34 -22q7 -5 8 -9t-4 -15zM215 77q39 0 57.5 22t19.5 51q0 31 -19.5 52.5t-56.5 21.5q-38 0 -57.5 -21t-19.5 -52t19.5 -52.5t56.5 -21.5z" />
<glyph unicode="&#xe4;" horiz-adv-x="462" d="M409 14q0 -14 -13 -14h-78q-11 0 -11 11v8q0 15 -14 4t-36 -20t-54 -9q-77 0 -121 41t-44 114q0 70 45 113t126 43q41 0 77 -21q5 -3 9.5 -2.5t4.5 8.5v12q0 30 -18 45t-59 15q-11 0 -24.5 -2t-28 -5t-28.5 -7t-24 -8q-17 -7 -22 9l-18 51q-3 7 0 12.5t8 7.5 q34 16 71.5 24t75.5 8q48 0 81.5 -11.5t54.5 -33t30.5 -52.5t9.5 -69v-272zM292 151q-1 30 -20.5 51.5t-55.5 21.5q-38 0 -57.5 -21t-19.5 -52t19.5 -52.5t56.5 -21.5q40 0 58.5 22.5t18.5 51.5zM381 555q0 -25 -17 -42t-42 -17q-26 0 -44 16.5t-18 41.5t17.5 42t43.5 17 q25 0 42.5 -17t17.5 -41zM145 496q-26 0 -43 16.5t-17 41.5t17 42t43 17t43 -17t18 -41q0 -25 -17.5 -42t-43.5 -17z" />
<glyph unicode="&#xe5;" horiz-adv-x="462" d="M409 14q0 -14 -13 -14h-78q-11 0 -11 11v8q0 15 -14 4t-36 -20t-54 -9q-77 0 -121 41t-44 114q0 70 45 113t126 43q41 0 77 -21q5 -3 9.5 -2.5t4.5 8.5v12q0 30 -18 45t-59 15q-11 0 -24.5 -2t-28 -5t-28.5 -7t-24 -8q-17 -7 -22 9l-18 51q-3 7 0 12.5t8 7.5 q34 16 71.5 24t75.5 8q48 0 81.5 -11.5t54.5 -33t30.5 -52.5t9.5 -69v-272zM325 577q0 -18 -7 -34t-19 -27.5t-28.5 -18.5t-35.5 -7q-18 0 -34 7t-28 19t-18.5 27.5t-6.5 33.5q0 36 24.5 62t62.5 26q37 0 63.5 -25.5t26.5 -62.5zM292 151q-1 30 -20.5 51.5t-55.5 21.5 q-38 0 -57.5 -21t-19.5 -52t19.5 -52.5t56.5 -21.5q40 0 58.5 22.5t18.5 51.5zM273 577q0 15 -11.5 27t-26.5 12t-25.5 -11t-10.5 -28q0 -16 10.5 -26.5t25.5 -10.5q16 0 27 11t11 26z" />
<glyph unicode="&#xe6;" horiz-adv-x="715" d="M351 413q7 -5 11 -2q24 19 56 30t70 11q40 0 74.5 -12t59.5 -35t39 -55.5t14 -72.5v-47q0 -14 -8 -22t-20 -8h-216q-11 0 -15.5 -5t-4.5 -12v-15q0 -32 21 -55.5t56 -23.5q30 0 50.5 15t34.5 32q5 6 10 8.5t14 -3.5l49 -31q9 -6 13.5 -12t-0.5 -15q-26 -47 -71.5 -68 t-97.5 -21q-45 0 -80 13t-60 36q-6 6 -8.5 4t-6.5 -6q-23 -23 -54.5 -35t-73.5 -12q-36 0 -67 10.5t-53 30.5t-34.5 49t-12.5 65q0 35 12 64t33.5 50t53 32.5t70.5 11.5q19 0 41 -6.5t36 -16.5q5 -4 9.5 -3t4.5 9v14q0 30 -24 46.5t-61 16.5q-21 0 -49.5 -8.5t-47.5 -16.5 q-17 -7 -22 9l-18 49q-3 7 0 12.5t8 7.5q34 16 65 24t72 8q39 0 71.5 -10.5t56.5 -28.5zM292 153q-1 29 -21.5 50t-50.5 21q-32 0 -52.5 -20.5t-20.5 -50.5t20 -51t52 -21q35 0 54 22t19 50zM565 292q-4 30 -25.5 47.5t-50.5 17.5q-33 0 -53 -20.5t-23 -49.5q0 -14 17 -14 h121q8 0 11.5 5.5t1.5 13.5h1z" />
<glyph unicode="&#xe7;" horiz-adv-x="422" d="M336 -120q0 -15 -6 -30t-19 -27t-32 -19.5t-45 -7.5q-49 0 -82 24q-6 4 -6 9q0 3 3 8l19 23q6 7 10 7q3 0 13 -5q8 -5 19 -8.5t22 -3.5q22 0 32 8.5t10 20.5q0 13 -7.5 21t-26.5 8h-30q-19 0 -27.5 10t-4.5 27l13 52q-69 11 -109.5 55t-40.5 113v113q0 40 14 72 t39.5 54.5t60 34.5t76.5 12q57 0 97.5 -22.5t69.5 -70.5q2 -5 1.5 -13t-8.5 -13l-56 -32q-13 -8 -19 -2t-11 15q-13 22 -33.5 33t-41.5 11q-34 0 -56.5 -22t-22.5 -54v-117q0 -32 22.5 -53t55.5 -21q22 0 42.5 10t32.5 32q5 9 11.5 15t19.5 -2l56 -31q8 -5 8.5 -13.5 t-1.5 -13.5q-55 -88 -153 -92l-6 -30v-1q0 -3 7 -3h7q35 0 59 -21.5t24 -59.5z" />
<glyph unicode="&#xe8;" horiz-adv-x="458" d="M418 230q0 -14 -8 -22t-20 -8h-216q-11 0 -15.5 -5t-4.5 -12v-15q0 -32 21 -55.5t56 -23.5q30 0 50.5 15t34.5 32q5 6 10 8.5t14 -3.5l49 -31q9 -6 13.5 -12t-0.5 -15q-26 -47 -71.5 -68t-97.5 -21q-43 0 -78 12t-59.5 34.5t-38 54t-13.5 69.5v113q0 39 13.5 71 t38.5 55.5t59.5 36t75.5 12.5q40 0 74.5 -12t59.5 -35t39 -55.5t14 -72.5v-47zM232 357q-33 0 -53 -20.5t-23 -49.5q0 -14 17 -14h121q8 0 11.5 5.5t2.5 13.5q-4 30 -25.5 47.5t-50.5 17.5zM304 526q9 -14 -5 -21l-24 -14q-19 -10 -32 4l-113 123q-3 4 -5 12t9 14l60 33 q8 5 13.5 2t10.5 -10z" />
<glyph unicode="&#xe9;" horiz-adv-x="458" d="M418 230q0 -14 -8 -22t-20 -8h-216q-11 0 -15.5 -5t-4.5 -12v-15q0 -32 21 -55.5t56 -23.5q30 0 50.5 15t34.5 32q5 6 10 8.5t14 -3.5l49 -31q9 -6 13.5 -12t-0.5 -15q-26 -47 -71.5 -68t-97.5 -21q-43 0 -78 12t-59.5 34.5t-38 54t-13.5 69.5v113q0 39 13.5 71 t38.5 55.5t59.5 36t75.5 12.5q40 0 74.5 -12t59.5 -35t39 -55.5t14 -72.5v-47zM232 357q-33 0 -53 -20.5t-23 -49.5q0 -14 17 -14h121q8 0 11.5 5.5t2.5 13.5q-4 30 -25.5 47.5t-50.5 17.5zM225 490q-5 -5 -11.5 -5.5t-13.5 3.5l-28 17q-13 7 -6 21l87 143q4 7 11 9t13 -1 l60 -33q11 -6 9 -14t-6 -12z" />
<glyph unicode="&#xea;" horiz-adv-x="458" d="M418 230q0 -14 -8 -22t-20 -8h-216q-11 0 -15.5 -5t-4.5 -12v-15q0 -32 21 -55.5t56 -23.5q30 0 50.5 15t34.5 32q5 6 10 8.5t14 -3.5l49 -31q9 -6 13.5 -12t-0.5 -15q-26 -47 -71.5 -68t-97.5 -21q-43 0 -78 12t-59.5 34.5t-38 54t-13.5 69.5v113q0 39 13.5 71 t38.5 55.5t59.5 36t75.5 12.5q40 0 74.5 -12t59.5 -35t39 -55.5t14 -72.5v-47zM232 357q-33 0 -53 -20.5t-23 -49.5q0 -14 17 -14h121q8 0 11.5 5.5t2.5 13.5q-4 30 -25.5 47.5t-50.5 17.5zM387 527q4 -6 5.5 -11.5t-6.5 -9.5l-32 -17q-8 -5 -12.5 -4t-9.5 6l-94 90 q-8 7 -14 1l-93 -92q-5 -5 -9 -6t-12 4l-31 18q-8 4 -6.5 9.5t5.5 11.5l100 130q4 5 8.5 8t12.5 3h67q8 0 12.5 -3t9.5 -8z" />
<glyph unicode="&#xeb;" horiz-adv-x="458" d="M418 230q0 -14 -8 -22t-20 -8h-216q-11 0 -15.5 -5t-4.5 -12v-15q0 -32 21 -55.5t56 -23.5q30 0 50.5 15t34.5 32q5 6 10 8.5t14 -3.5l49 -31q9 -6 13.5 -12t-0.5 -15q-26 -47 -71.5 -68t-97.5 -21q-43 0 -78 12t-59.5 34.5t-38 54t-13.5 69.5v113q0 39 13.5 71 t38.5 55.5t59.5 36t75.5 12.5q40 0 74.5 -12t59.5 -35t39 -55.5t14 -72.5v-47zM232 357q-33 0 -53 -20.5t-23 -49.5q0 -14 17 -14h121q8 0 11.5 5.5t2.5 13.5q-4 30 -25.5 47.5t-50.5 17.5zM389 555q0 -25 -17 -42t-42 -17q-26 0 -44 16.5t-18 41.5t17.5 42t43.5 17 q25 0 42.5 -17t17.5 -41zM153 496q-26 0 -43 16.5t-17 41.5t17 42t43 17t43 -17t18 -41q0 -25 -17.5 -42t-43.5 -17z" />
<glyph unicode="&#xec;" horiz-adv-x="224" d="M57 428q0 16 15 16h78q16 0 16 -16v-412q0 -16 -15 -16h-78q-16 0 -16 15v413zM168 526q9 -14 -5 -21l-24 -14q-19 -10 -32 4l-113 123q-3 4 -5 12t9 14l60 33q8 5 13.5 2t10.5 -10z" />
<glyph unicode="&#xed;" horiz-adv-x="224" d="M57 428q0 16 15 16h78q16 0 16 -16v-412q0 -16 -15 -16h-78q-16 0 -16 15v413zM119 490q-5 -5 -11.5 -5.5t-13.5 3.5l-28 17q-13 7 -6 21l87 143q4 7 11 9t13 -1l60 -33q11 -6 9 -14t-6 -12z" />
<glyph unicode="&#xee;" horiz-adv-x="224" d="M57 428q0 16 15 16h78q16 0 16 -16v-412q0 -16 -15 -16h-78q-16 0 -16 15v413zM261 527q4 -6 5.5 -11.5t-6.5 -9.5l-32 -17q-8 -5 -12.5 -4t-9.5 6l-94 90q-8 7 -14 1l-93 -92q-5 -5 -9 -6t-12 4l-31 18q-8 4 -6.5 9.5t5.5 11.5l100 130q4 5 8.5 8t12.5 3h67q8 0 12.5 -3 t9.5 -8z" />
<glyph unicode="&#xef;" horiz-adv-x="224" d="M57 428q0 16 15 16h78q16 0 16 -16v-412q0 -16 -15 -16h-78q-16 0 -16 15v413zM264 555q0 -25 -17 -42t-42 -17q-26 0 -44 16.5t-18 41.5t17.5 42t43.5 17q25 0 42.5 -17t17.5 -41zM28 496q-26 0 -43 16.5t-17 41.5t17 42t43 17t43 -17t18 -41q0 -25 -17.5 -42t-43.5 -17 z" />
<glyph unicode="&#xf0;" horiz-adv-x="466" d="M43 234q0 89 43 137t127 48q29 0 52 -7.5t40 -19.5q2 -2 6.5 -1t4.5 6q0 22 -2 42.5t-13 39.5q-3 6 -10 -1l-32 -33q-9 -9 -16 -1q-7 5 -13.5 11t-13.5 12q-8 8 2 18l35 36q5 5 -0.5 10.5t-10.5 7.5q-15 6 -34.5 9t-40.5 4q-7 0 -14.5 3.5t-7.5 13.5v56q1 16 21 16h11 q43 -1 78 -9t64 -28q5 -3 8 -4t8 4l37 38q9 9 17 0l27 -25q8 -6 -2 -16l-38 -39q-5 -5 -2 -9.5t6 -9.5q12 -18 19.5 -43.5t11 -54.5t4.5 -58.5t1 -55.5v-170q-4 -81 -54.5 -124t-131.5 -43q-86 0 -136.5 44t-50.5 131v65zM152 165q0 -34 20.5 -55t55.5 -21q38 0 59 20.5 t21 55.5v63q0 19 -3.5 37t-12.5 32t-24.5 22.5t-40.5 8.5q-38 0 -56.5 -23.5t-18.5 -55.5v-84z" />
<glyph unicode="&#xf1;" horiz-adv-x="480" d="M427 16q0 -16 -15 -16h-78q-16 0 -16 15v263q0 34 -18 55.5t-60 21.5q-35 0 -55.5 -21.5t-20.5 -54.5v-263q0 -16 -17 -16h-77q-16 0 -16 15v413q0 16 16 16h78q14 0 14 -15v-8t1 -7q2 -11 11 0q17 16 46.5 26t55.5 10q79 0 115 -47.5t36 -122.5v-264zM387 568 q-16 -29 -41.5 -45t-49.5 -16q-18 0 -33.5 5t-30 10.5t-29 10.5t-29.5 5q-8 0 -21 -5.5t-25 -19.5q-5 -6 -9 -6t-11 6l-28 27q-8 8 -2 18q14 24 39.5 41t54.5 17q16 0 32 -5t32 -11.5t30.5 -11.5t26.5 -5q11 0 21 9.5t17 17.5q5 7 8.5 7.5t9.5 -3.5l34 -22q7 -5 8 -9t-4 -15 z" />
<glyph unicode="&#xf2;" horiz-adv-x="468" d="M420 165q0 -84 -50.5 -127.5t-135.5 -43.5q-86 0 -136.5 45t-50.5 123v120q0 38 13.5 69t38 53.5t58.5 35t76 12.5q85 0 136 -44t51 -126v-117zM311 279q0 35 -20 56t-58 21q-37 0 -57 -21.5t-20 -55.5v-113q0 -34 19.5 -55.5t57.5 -21.5q36 0 57 21t21 56v113zM286 526 q9 -14 -5 -21l-24 -14q-19 -10 -32 4l-113 123q-3 4 -5 12t9 14l60 33q8 5 13.5 2t10.5 -10z" />
<glyph unicode="&#xf3;" horiz-adv-x="468" d="M420 165q0 -84 -50.5 -127.5t-135.5 -43.5q-86 0 -136.5 45t-50.5 123v120q0 38 13.5 69t38 53.5t58.5 35t76 12.5q85 0 136 -44t51 -126v-117zM311 279q0 35 -20 56t-58 21q-37 0 -57 -21.5t-20 -55.5v-113q0 -34 19.5 -55.5t57.5 -21.5q36 0 57 21t21 56v113zM245 490 q-5 -5 -11.5 -5.5t-13.5 3.5l-28 17q-13 7 -6 21l87 143q4 7 11 9t13 -1l60 -33q11 -6 9 -14t-6 -12z" />
<glyph unicode="&#xf4;" horiz-adv-x="468" d="M420 165q0 -84 -50.5 -127.5t-135.5 -43.5q-86 0 -136.5 45t-50.5 123v120q0 38 13.5 69t38 53.5t58.5 35t76 12.5q85 0 136 -44t51 -126v-117zM311 279q0 35 -20 56t-58 21q-37 0 -57 -21.5t-20 -55.5v-113q0 -34 19.5 -55.5t57.5 -21.5q36 0 57 21t21 56v113zM394 527 q4 -6 5.5 -11.5t-6.5 -9.5l-32 -17q-8 -5 -12.5 -4t-9.5 6l-94 90q-8 7 -14 1l-93 -92q-5 -5 -9 -6t-12 4l-31 18q-8 4 -6.5 9.5t5.5 11.5l100 130q4 5 8.5 8t12.5 3h67q8 0 12.5 -3t9.5 -8z" />
<glyph unicode="&#xf5;" horiz-adv-x="468" d="M420 165q0 -84 -50.5 -127.5t-135.5 -43.5q-86 0 -136.5 45t-50.5 123v120q0 38 13.5 69t38 53.5t58.5 35t76 12.5q85 0 136 -44t51 -126v-117zM311 279q0 35 -20 56t-58 21q-37 0 -57 -21.5t-20 -55.5v-113q0 -34 19.5 -55.5t57.5 -21.5q36 0 57 21t21 56v113zM391 568 q-16 -29 -41.5 -45t-49.5 -16q-18 0 -33.5 5t-30 10.5t-29 10.5t-29.5 5q-8 0 -21 -5.5t-25 -19.5q-5 -6 -9 -6t-11 6l-28 27q-8 8 -2 18q14 24 39.5 41t54.5 17q16 0 32 -5t32 -11.5t30.5 -11.5t26.5 -5q11 0 21 9.5t17 17.5q5 7 8.5 7.5t9.5 -3.5l34 -22q7 -5 8 -9t-4 -15 z" />
<glyph unicode="&#xf6;" horiz-adv-x="468" d="M420 165q0 -84 -50.5 -127.5t-135.5 -43.5q-86 0 -136.5 45t-50.5 123v120q0 38 13.5 69t38 53.5t58.5 35t76 12.5q85 0 136 -44t51 -126v-117zM311 279q0 35 -20 56t-58 21q-37 0 -57 -21.5t-20 -55.5v-113q0 -34 19.5 -55.5t57.5 -21.5q36 0 57 21t21 56v113zM387 555 q0 -25 -17 -42t-42 -17q-26 0 -44 16.5t-18 41.5t17.5 42t43.5 17q25 0 42.5 -17t17.5 -41zM151 496q-26 0 -43 16.5t-17 41.5t17 42t43 17t43 -17t18 -41q0 -25 -17.5 -42t-43.5 -17z" />
<glyph unicode="&#xf7;" horiz-adv-x="497" d="M459 247q0 -27 -26 -27h-369q-26 0 -26 26v27q0 24 26 24h369q26 0 26 -24v-26zM320 436q0 -29 -20 -49.5t-51 -20.5t-52 20t-21 49t21.5 49.5t50.5 20.5t50.5 -20t21.5 -49zM320 80q-1 -28 -21.5 -48t-49.5 -20q-30 0 -51.5 19.5t-21.5 48.5t21.5 49.5t50.5 20.5t50 -20 t21 -49z" />
<glyph unicode="&#xf8;" horiz-adv-x="468" d="M400 382q-6 -7 -1 -13q12 -17 17 -39t5 -48v-116q0 -42 -14.5 -74t-39.5 -54t-59 -33t-74 -11q-63 0 -108 27q-5 2 -7.5 4t-6.5 -3l-19 -24q-6 -8 -17 1l-27 24q-2 2 -3.5 7.5t3.5 10.5l18 21q6 6 2 13l-6 12q-16 32 -16 75v120q0 38 13.5 69t38 53.5t59 35t75.5 12.5 q67 0 115 -31q5 -2 7 0l4 4l18 22q8 8 17 -1l25 -23q5 -3 6 -7.5t-4 -7.5zM156 181q0 -6 4 -2l123 152q5 6 -8 14q-19 11 -42 11q-32 0 -54.5 -21.5t-22.5 -55.5v-98zM189 118q-9 -11 -3 -14q20 -15 47 -15q34 0 55.5 20.5t22.5 55.5v97q0 2 -1 4t-4 -2z" />
<glyph unicode="&#xf9;" horiz-adv-x="474" d="M421 16q0 -16 -16 -16h-79q-14 0 -14 14v11q0 4 -4 4t-7 -3q-15 -14 -38.5 -23.5t-48.5 -9.5q-39 0 -70 12.5t-52.5 35t-33 54t-11.5 69.5v264q0 16 15 16h78q17 0 17 -15v-264q0 -32 21 -54.5t56 -22.5t56 22t21 55v263q0 16 16 16h77q17 0 17 -15v-413zM308 526 q9 -14 -5 -21l-24 -14q-19 -10 -32 4l-113 123q-3 4 -5 12t9 14l60 33q8 5 13.5 2t10.5 -10z" />
<glyph unicode="&#xfa;" horiz-adv-x="474" d="M421 16q0 -16 -16 -16h-79q-14 0 -14 14v11q0 4 -4 4t-7 -3q-15 -14 -38.5 -23.5t-48.5 -9.5q-39 0 -70 12.5t-52.5 35t-33 54t-11.5 69.5v264q0 16 15 16h78q17 0 17 -15v-264q0 -32 21 -54.5t56 -22.5t56 22t21 55v263q0 16 16 16h77q17 0 17 -15v-413zM240 490 q-5 -5 -11.5 -5.5t-13.5 3.5l-28 17q-13 7 -6 21l87 143q4 7 11 9t13 -1l60 -33q11 -6 9 -14t-6 -12z" />
<glyph unicode="&#xfb;" horiz-adv-x="474" d="M421 16q0 -16 -16 -16h-79q-14 0 -14 14v11q0 4 -4 4t-7 -3q-15 -14 -38.5 -23.5t-48.5 -9.5q-39 0 -70 12.5t-52.5 35t-33 54t-11.5 69.5v264q0 16 15 16h78q17 0 17 -15v-264q0 -32 21 -54.5t56 -22.5t56 22t21 55v263q0 16 16 16h77q17 0 17 -15v-413zM382 527 q4 -6 5.5 -11.5t-6.5 -9.5l-32 -17q-8 -5 -12.5 -4t-9.5 6l-94 90q-8 7 -14 1l-93 -92q-5 -5 -9 -6t-12 4l-31 18q-8 4 -6.5 9.5t5.5 11.5l100 130q4 5 8.5 8t12.5 3h67q8 0 12.5 -3t9.5 -8z" />
<glyph unicode="&#xfc;" horiz-adv-x="474" d="M421 16q0 -16 -16 -16h-79q-14 0 -14 14v11q0 4 -4 4t-7 -3q-15 -14 -38.5 -23.5t-48.5 -9.5q-39 0 -70 12.5t-52.5 35t-33 54t-11.5 69.5v264q0 16 15 16h78q17 0 17 -15v-264q0 -32 21 -54.5t56 -22.5t56 22t21 55v263q0 16 16 16h77q17 0 17 -15v-413zM386 555 q0 -25 -17 -42t-42 -17q-26 0 -44 16.5t-18 41.5t17.5 42t43.5 17q25 0 42.5 -17t17.5 -41zM150 496q-26 0 -43 16.5t-17 41.5t17 42t43 17t43 -17t18 -41q0 -25 -17.5 -42t-43.5 -17z" />
<glyph unicode="&#xfd;" horiz-adv-x="434" d="M240 -161q-3 -8 -10 -14.5t-19 -6.5h-65q-11 0 -15.5 6t0.5 20l43 139q2 8 1.5 12.5t-9.5 4.5h-11q-11 0 -16.5 5t-8.5 16l-116 403q-6 22 15 22h80q11 0 16 -5.5t8 -13.5l46 -187l29 -121q2 -8 6 -8t7 8l35 120l58 186q2 8 7.5 14.5t18.5 6.5h72q10 0 15 -7t1 -18z M234 490q-5 -5 -11.5 -5.5t-13.5 3.5l-28 17q-13 7 -6 21l87 143q4 7 11 9t13 -1l60 -33q11 -6 9 -14t-6 -12z" />
<glyph unicode="&#xfe;" horiz-adv-x="470" d="M427 165q0 -36 -12.5 -67.5t-35 -55t-54 -37t-69.5 -13.5q-26 0 -45 6.5t-30 15.5q-9 7 -13.5 5t-4.5 -8v-176q0 -16 -16 -16h-77q-17 0 -17 15v778q0 15 17 15h74q8 0 12 -2.5t4 -12.5v-183q0 -16 6.5 -13t11.5 8q14 11 34.5 19t46.5 8q40 0 71.5 -13t53 -36.5t32.5 -55 t11 -67.5v-114zM317 279q0 32 -22 54t-55 22q-34 0 -55.5 -22t-21.5 -54v-114q0 -32 21 -54.5t56 -22.5t56 22.5t21 54.5v114z" />
<glyph unicode="&#xff;" horiz-adv-x="434" d="M240 -161q-3 -8 -10 -14.5t-19 -6.5h-65q-11 0 -15.5 6t0.5 20l43 139q2 8 1.5 12.5t-9.5 4.5h-11q-11 0 -16.5 5t-8.5 16l-116 403q-6 22 15 22h80q11 0 16 -5.5t8 -13.5l46 -187l29 -121q2 -8 6 -8t7 8l35 120l58 186q2 8 7.5 14.5t18.5 6.5h72q10 0 15 -7t1 -18z M368 555q0 -25 -17 -42t-42 -17q-26 0 -44 16.5t-18 41.5t17.5 42t43.5 17q25 0 42.5 -17t17.5 -41zM132 496q-26 0 -43 16.5t-17 41.5t17 42t43 17t43 -17t18 -41q0 -25 -17.5 -42t-43.5 -17z" />
<glyph unicode="&#x100;" horiz-adv-x="482" d="M466 21q2 -5 0.5 -13t-15.5 -8h-81q-16 0 -20 13l-23 100q-2 8 -4.5 11t-8.5 3h-148q-8 0 -10 -4t-4 -9q-2 -8 -5 -21.5t-6.5 -29t-6.5 -29.5t-5 -21t-7.5 -10t-11.5 -3h-77q-14 0 -16.5 6t-0.5 14l146 583q5 14 21 14h114q7 0 12 -1.5t7 -11.5zM266 370l-24 115 q-1 4 -3.5 4.5t-3.5 -4.5l-23 -113l-31 -143q-1 -5 0 -7t7 -2h104q10 0 6 10zM347 679q0 -9 -3 -11t-14 -2h-212q-11 0 -15 1.5t-4 11.5v51q0 11 3.5 14t14.5 3h212q11 0 14.5 -3t3.5 -13v-52z" />
<glyph unicode="&#x101;" horiz-adv-x="462" d="M409 14q0 -14 -13 -14h-78q-11 0 -11 11v8q0 15 -14 4t-36 -20t-54 -9q-77 0 -121 41t-44 114q0 70 45 113t126 43q41 0 77 -21q5 -3 9.5 -2.5t4.5 8.5v12q0 30 -18 45t-59 15q-11 0 -24.5 -2t-28 -5t-28.5 -7t-24 -8q-17 -7 -22 9l-18 51q-3 7 0 12.5t8 7.5 q34 16 71.5 24t75.5 8q48 0 81.5 -11.5t54.5 -33t30.5 -52.5t9.5 -69v-272zM355 540q0 -9 -3 -11t-14 -2h-212q-11 0 -15 1.5t-4 11.5v51q0 11 3.5 14t14.5 3h212q11 0 14.5 -3t3.5 -13v-52zM215 77q39 0 57.5 22t19.5 51q0 31 -19.5 52.5t-56.5 21.5q-38 0 -57.5 -21 t-19.5 -52t19.5 -52.5t56.5 -21.5z" />
<glyph unicode="&#x102;" horiz-adv-x="482" d="M466 21q2 -5 0.5 -13t-15.5 -8h-81q-16 0 -20 13l-23 100q-2 8 -4.5 11t-8.5 3h-148q-8 0 -10 -4t-4 -9q-2 -8 -5 -21.5t-6.5 -29t-6.5 -29.5t-5 -21t-7.5 -10t-11.5 -3h-77q-14 0 -16.5 6t-0.5 14l146 583q5 14 21 14h114q7 0 12 -1.5t7 -11.5zM109 774q0 8 2.5 11 t13.5 3h40q10 0 12.5 -2.5t2.5 -10.5q1 -26 15 -42t40 -16q27 0 41 16.5t18 42.5q1 8 3.5 10.5t12.5 2.5h36q10 0 12.5 -2t2.5 -13q-2 -26 -10 -49.5t-23.5 -41t-38.5 -28t-55 -10.5q-30 0 -52.5 10.5t-38.5 28.5t-24.5 41t-9.5 49zM266 370l-24 115q-1 4 -3.5 4.5 t-3.5 -4.5l-23 -113l-31 -143q-1 -5 0 -7t7 -2h104q10 0 6 10z" />
<glyph unicode="&#x103;" horiz-adv-x="462" d="M409 14q0 -14 -13 -14h-78q-11 0 -11 11v8q0 15 -14 4t-36 -20t-54 -9q-77 0 -121 41t-44 114q0 70 45 113t126 43q41 0 77 -21q5 -3 9.5 -2.5t4.5 8.5v12q0 30 -18 45t-59 15q-11 0 -24.5 -2t-28 -5t-28.5 -7t-24 -8q-17 -7 -22 9l-18 51q-3 7 0 12.5t8 7.5 q34 16 71.5 24t75.5 8q48 0 81.5 -11.5t54.5 -33t30.5 -52.5t9.5 -69v-272zM122 627q0 8 2.5 11t13.5 3h40q10 0 12.5 -2.5t2.5 -10.5q1 -26 15 -42t40 -16q27 0 41 16.5t18 42.5q1 8 3.5 10.5t12.5 2.5h36q10 0 12.5 -2t2.5 -13q-2 -26 -10 -49.5t-23.5 -41t-38.5 -28 t-55 -10.5q-30 0 -52.5 10.5t-38.5 28.5t-24.5 41t-9.5 49zM215 77q39 0 57.5 22t19.5 51q0 31 -19.5 52.5t-56.5 21.5q-38 0 -57.5 -21t-19.5 -52t19.5 -52.5t56.5 -21.5z" />
<glyph unicode="&#x104;" horiz-adv-x="482" d="M466 21q2 -5 0.5 -13t-15.5 -8h-47q-22 -23 -35.5 -53t-13.5 -55q0 -11 4.5 -18.5t18.5 -7.5q8 0 24 5.5t27 11.5q13 7 15 7q5 0 8 -5l17 -22q5 -7 1 -12t-10 -10q-16 -13 -42 -23.5t-51 -10.5q-45 0 -64.5 21.5t-19.5 56.5q0 16 5.5 33t14 33.5t19.5 31.5t23 26l5 4 l-23 100q-2 8 -4.5 11t-8.5 3h-148q-8 0 -10 -4t-4 -9q-2 -8 -5 -21.5t-6.5 -29t-6.5 -29.5t-5 -21t-7.5 -10t-11.5 -3h-77q-14 0 -16.5 6t-0.5 14l146 583q5 14 21 14h114q7 0 12 -1.5t7 -11.5zM266 370l-24 115q-1 4 -3.5 4.5t-3.5 -4.5l-23 -113l-31 -143q-1 -5 0 -7 t7 -2h104q10 0 6 10z" />
<glyph unicode="&#x105;" horiz-adv-x="462" d="M409 14q0 -14 -13 -14h-38q-22 -23 -35.5 -53t-13.5 -55q0 -11 4.5 -18.5t18.5 -7.5q8 0 24 5.5t27 11.5q13 7 15 7q5 0 8 -5l17 -22q5 -7 1 -12t-10 -10q-16 -13 -42 -23.5t-51 -10.5q-45 0 -64.5 21.5t-19.5 56.5q0 16 5.5 33t14 33.5t19.5 31.5t23 26l8 7v3 q0 15 -14 4t-36 -20t-54 -9q-77 0 -121 41t-44 114q0 70 45 113t126 43q41 0 77 -21q5 -3 9.5 -2.5t4.5 8.5v12q0 30 -18 45t-59 15q-11 0 -24.5 -2t-28 -5t-28.5 -7t-24 -8q-17 -7 -22 9l-18 51q-3 7 0 12.5t8 7.5q34 16 71.5 24t75.5 8q48 0 81.5 -11.5t54.5 -33 t30.5 -52.5t9.5 -69v-272zM292 151q-1 30 -20.5 51.5t-55.5 21.5q-38 0 -57.5 -21t-19.5 -52t19.5 -52.5t56.5 -21.5q40 0 58.5 22.5t18.5 51.5z" />
<glyph unicode="&#x106;" horiz-adv-x="472" d="M256 -6q-44 0 -80 12.5t-62 35.5t-40.5 56t-14.5 74v277q0 40 14.5 73t40.5 56t61.5 36t77.5 13q52 0 99.5 -18.5t85.5 -72.5q5 -6 4.5 -13t-9.5 -13l-54 -41q-8 -5 -15.5 -2t-11.5 10q-34 50 -95 50q-42 0 -63.5 -24.5t-21.5 -57.5v-273q0 -32 22 -54.5t64 -22.5 q28 0 52 13.5t41 33.5l10.5 10.5t15.5 -0.5l60 -37q7 -4 9.5 -10.5t-1.5 -13.5q-35 -53 -83.5 -75t-105.5 -22zM394 746q8 -9 3.5 -16t-9.5 -9l-154 -78q-9 -5 -14 -2t-10 9l-20 26q-10 12 3 22l121 92q13 10 23 11.5t18 -8.5z" />
<glyph unicode="&#x107;" horiz-adv-x="422" d="M398 87q-58 -93 -167 -93q-43 0 -78 12t-60 34.5t-38.5 54t-13.5 70.5v113q0 40 14 72t39.5 54.5t60 34.5t76.5 12q57 0 97.5 -22.5t69.5 -70.5q2 -5 1.5 -13t-8.5 -13l-56 -32q-13 -8 -19 -2t-11 15q-13 22 -33.5 33t-41.5 11q-34 0 -56.5 -22t-22.5 -54v-117 q0 -32 22.5 -53t55.5 -21q22 0 42.5 10t32.5 32q5 9 11.5 15t19.5 -2l56 -31q8 -5 8.5 -13.5t-1.5 -13.5zM226 490q-5 -5 -11.5 -5.5t-13.5 3.5l-28 17q-13 7 -6 21l87 143q4 7 11 9t13 -1l60 -33q11 -6 9 -14t-6 -12z" />
<glyph unicode="&#x108;" horiz-adv-x="472" d="M256 -6q-44 0 -80 12.5t-62 35.5t-40.5 56t-14.5 74v277q0 40 14.5 73t40.5 56t61.5 36t77.5 13q52 0 99.5 -18.5t85.5 -72.5q5 -6 4.5 -13t-9.5 -13l-54 -41q-8 -5 -15.5 -2t-11.5 10q-34 50 -95 50q-42 0 -63.5 -24.5t-21.5 -57.5v-273q0 -32 22 -54.5t64 -22.5 q28 0 52 13.5t41 33.5l10.5 10.5t15.5 -0.5l60 -37q7 -4 9.5 -10.5t-1.5 -13.5q-35 -53 -83.5 -75t-105.5 -22zM413 677q4 -5 5.5 -10t-6.5 -8l-32 -15q-8 -4 -12.5 -3.5t-9.5 5.5l-94 73q-7 6 -14 1l-93 -75q-5 -5 -9 -5.5t-12 3.5l-31 16q-8 3 -6.5 8t5.5 10l100 114 q8 10 21 10h67q8 0 12.5 -2.5t9.5 -7.5z" />
<glyph unicode="&#x109;" horiz-adv-x="422" d="M398 87q-58 -93 -167 -93q-43 0 -78 12t-60 34.5t-38.5 54t-13.5 70.5v113q0 40 14 72t39.5 54.5t60 34.5t76.5 12q57 0 97.5 -22.5t69.5 -70.5q2 -5 1.5 -13t-8.5 -13l-56 -32q-13 -8 -19 -2t-11 15q-13 22 -33.5 33t-41.5 11q-34 0 -56.5 -22t-22.5 -54v-117 q0 -32 22.5 -53t55.5 -21q22 0 42.5 10t32.5 32q5 9 11.5 15t19.5 -2l56 -31q8 -5 8.5 -13.5t-1.5 -13.5zM387 527q4 -6 5.5 -11.5t-6.5 -9.5l-32 -17q-8 -5 -12.5 -4t-9.5 6l-94 90q-8 7 -14 1l-93 -92q-5 -5 -9 -6t-12 4l-31 18q-8 4 -6.5 9.5t5.5 11.5l100 130q4 5 8.5 8 t12.5 3h67q8 0 12.5 -3t9.5 -8z" />
<glyph unicode="&#x10a;" horiz-adv-x="472" d="M256 -6q-44 0 -80 12.5t-62 35.5t-40.5 56t-14.5 74v277q0 40 14.5 73t40.5 56t61.5 36t77.5 13q52 0 99.5 -18.5t85.5 -72.5q5 -6 4.5 -13t-9.5 -13l-54 -41q-8 -5 -15.5 -2t-11.5 10q-34 50 -95 50q-42 0 -63.5 -24.5t-21.5 -57.5v-273q0 -32 22 -54.5t64 -22.5 q28 0 52 13.5t41 33.5l10.5 10.5t15.5 -0.5l60 -37q7 -4 9.5 -10.5t-1.5 -13.5q-35 -53 -83.5 -75t-105.5 -22zM319 729q0 -25 -17 -42t-43 -17t-43.5 16t-17.5 42q0 24 17.5 41.5t42.5 17.5q26 0 43.5 -17t17.5 -41z" />
<glyph unicode="&#x10b;" horiz-adv-x="422" d="M398 87q-58 -93 -167 -93q-43 0 -78 12t-60 34.5t-38.5 54t-13.5 70.5v113q0 40 14 72t39.5 54.5t60 34.5t76.5 12q57 0 97.5 -22.5t69.5 -70.5q2 -5 1.5 -13t-8.5 -13l-56 -32q-13 -8 -19 -2t-11 15q-13 22 -33.5 33t-41.5 11q-34 0 -56.5 -22t-22.5 -54v-117 q0 -32 22.5 -53t55.5 -21q22 0 42.5 10t32.5 32q5 9 11.5 15t19.5 -2l56 -31q8 -5 8.5 -13.5t-1.5 -13.5zM292 559q0 -25 -17 -42t-43 -17t-43.5 16t-17.5 42q0 24 17.5 41.5t42.5 17.5q26 0 43.5 -17t17.5 -41z" />
<glyph unicode="&#x10c;" horiz-adv-x="472" d="M256 -6q-44 0 -80 12.5t-62 35.5t-40.5 56t-14.5 74v277q0 40 14.5 73t40.5 56t61.5 36t77.5 13q52 0 99.5 -18.5t85.5 -72.5q5 -6 4.5 -13t-9.5 -13l-54 -41q-8 -5 -15.5 -2t-11.5 10q-34 50 -95 50q-42 0 -63.5 -24.5t-21.5 -57.5v-273q0 -32 22 -54.5t64 -22.5 q28 0 52 13.5t41 33.5l10.5 10.5t15.5 -0.5l60 -37q7 -4 9.5 -10.5t-1.5 -13.5q-35 -53 -83.5 -75t-105.5 -22zM312 651q-5 -5 -9.5 -7.5t-12.5 -2.5h-67q-13 0 -21 10l-100 114q-4 5 -5.5 10t6.5 8l31 16q8 4 12 3.5t9 -5.5l93 -75q7 -5 14 1l94 73q5 5 9.5 5.5t12.5 -3.5 l32 -15q8 -3 6.5 -8t-5.5 -10z" />
<glyph unicode="&#x10d;" horiz-adv-x="422" d="M398 87q-58 -93 -167 -93q-43 0 -78 12t-60 34.5t-38.5 54t-13.5 70.5v113q0 40 14 72t39.5 54.5t60 34.5t76.5 12q57 0 97.5 -22.5t69.5 -70.5q2 -5 1.5 -13t-8.5 -13l-56 -32q-13 -8 -19 -2t-11 15q-13 22 -33.5 33t-41.5 11q-34 0 -56.5 -22t-22.5 -54v-117 q0 -32 22.5 -53t55.5 -21q22 0 42.5 10t32.5 32q5 9 11.5 15t19.5 -2l56 -31q8 -5 8.5 -13.5t-1.5 -13.5zM287 496q-5 -5 -9.5 -8t-12.5 -3h-67q-8 0 -12.5 3t-8.5 8l-100 130q-4 6 -5.5 11.5t6.5 9.5l31 18q8 5 12 4t9 -6l93 -92q6 -7 14 1l94 90q5 5 9.5 6t12.5 -4l32 -17 q8 -4 6.5 -9.5t-5.5 -11.5z" />
<glyph unicode="&#x10e;" horiz-adv-x="528" d="M82 0q-19 0 -19 17v583q0 17 19 17h202q95 0 141.5 -49t46.5 -135v-246q0 -88 -46.5 -137.5t-138.5 -49.5h-205zM275 101q45 0 64.5 23t19.5 63v245q0 46 -23.5 66t-64.5 20h-77q-11 0 -14 -4.5t-3 -12.5v-384q0 -16 16 -16h82zM292 651q-5 -5 -9.5 -7.5t-12.5 -2.5h-67 q-13 0 -21 10l-100 114q-4 5 -5.5 10t6.5 8l31 16q8 4 12 3.5t9 -5.5l93 -75q7 -5 14 1l94 73q5 5 9.5 5.5t12.5 -3.5l32 -15q8 -3 6.5 -8t-5.5 -10z" />
<glyph unicode="&#x10f;" horiz-adv-x="562" d="M543 470q-5 -13 -11 -17t-17 -4h-26q-14 0 -16.5 10t-2.5 19l11 134q1 11 7 19t20 8h58q19 0 23.5 -9t0.5 -24zM417 15q0 -15 -16 -15h-75q-16 0 -16 14v8q0 3 -2 5.5t-9 -1.5q-3 -2 -6.5 -4.5t-8.5 -5.5q-14 -10 -36.5 -16t-43.5 -6q-43 0 -73.5 13t-50 36t-28.5 54.5 t-9 68.5v113q0 36 11 67.5t32.5 55t53 36.5t71.5 13q27 0 47.5 -7t30.5 -15q9 -6 13.5 -4.5t4.5 7.5v189q0 16 16 16h77q17 0 17 -15v-607zM230 357q-40 0 -59 -22.5t-19 -54.5v-113q0 -33 19 -55t59 -22q33 0 55 22t22 54v113q0 32 -21 55t-56 23z" />
<glyph unicode="&#x110;" horiz-adv-x="528" d="M82 0q-19 0 -19 17v245q0 6 -1 9.5t-9 3.5h-26q-9 0 -11.5 3t-2.5 11v45q0 8 2.5 11.5t10.5 3.5h27q5 0 7.5 2.5t2.5 10.5v238q0 17 19 17h202q95 0 141.5 -49t46.5 -135v-246q0 -88 -46.5 -137.5t-138.5 -49.5h-205zM275 101q45 0 64.5 23t19.5 63v245q0 46 -23.5 66 t-64.5 20h-77q-11 0 -14 -4.5t-3 -12.5v-148q1 -4 9 -4h65q15 0 15 -15v-45q0 -14 -14 -14h-65q-8 0 -10 -5v-153q0 -16 16 -16h82z" />
<glyph unicode="&#x111;" horiz-adv-x="468" d="M307 486q0 7 -2.5 10.5t-11.5 3.5h-86q-14 0 -14 15v31q0 13 15 13h85q14 0 14 14v48q0 16 16 16h77q17 0 17 -15v-49q0 -14 14 -14h23q13 0 13 -14v-31q0 -14 -14 -14h-22q-11 0 -12.5 -4.5t-1.5 -9.5v-471q0 -15 -16 -15h-74q-15 0 -17 14v9q0 8 -11 3q-3 -2 -6.5 -4.5 t-8.5 -5.5q-14 -10 -32.5 -16t-39.5 -6q-41 0 -72.5 13t-53 36t-32.5 54.5t-11 68.5v113q0 36 12 67.5t34.5 55t55 36.5t72.5 13q27 0 44.5 -7t27.5 -15q9 -6 13.5 -4.5t4.5 7.5v54zM230 357q-35 0 -56.5 -22.5t-21.5 -54.5v-113q0 -33 22.5 -55t55.5 -22t55 22t22 54v114 q0 32 -21 54.5t-56 22.5z" />
<glyph unicode="&#x112;" horiz-adv-x="468" d="M418 101q16 0 16 -17v-66q0 -18 -16 -18h-339q-18 0 -18 17v583q0 17 18 17h333q7 0 12 -3.5t5 -12.5v-65q0 -18 -16 -18h-223q-10 0 -13 -3t-3 -10v-120q0 -17 16 -17h184q16 0 16 -18v-64q0 -17 -16 -17h-185q-9 0 -12 -3.5t-3 -11.5v-138q0 -9 4 -12t14 -3h226z M374 679q0 -9 -3 -11t-14 -2h-212q-11 0 -15 1.5t-4 11.5v51q0 11 3.5 14t14.5 3h212q11 0 14.5 -3t3.5 -13v-52z" />
<glyph unicode="&#x113;" horiz-adv-x="458" d="M418 230q0 -14 -8 -22t-20 -8h-216q-11 0 -15.5 -5t-4.5 -12v-15q0 -32 21 -55.5t56 -23.5q30 0 50.5 15t34.5 32q5 6 10 8.5t14 -3.5l49 -31q9 -6 13.5 -12t-0.5 -15q-26 -47 -71.5 -68t-97.5 -21q-43 0 -78 12t-59.5 34.5t-38 54t-13.5 69.5v113q0 39 13.5 71 t38.5 55.5t59.5 36t75.5 12.5q40 0 74.5 -12t59.5 -35t39 -55.5t14 -72.5v-47zM232 357q-33 0 -53 -20.5t-23 -49.5q0 -14 17 -14h121q8 0 11.5 5.5t2.5 13.5q-4 30 -25.5 47.5t-50.5 17.5zM356 540q0 -9 -3 -11t-14 -2h-212q-11 0 -15 1.5t-4 11.5v51q0 11 3.5 14t14.5 3 h212q11 0 14.5 -3t3.5 -13v-52z" />
<glyph unicode="&#x114;" horiz-adv-x="468" d="M418 101q16 0 16 -17v-66q0 -18 -16 -18h-339q-18 0 -18 17v583q0 17 18 17h333q7 0 12 -3.5t5 -12.5v-65q0 -18 -16 -18h-223q-10 0 -13 -3t-3 -10v-120q0 -17 16 -17h184q16 0 16 -18v-64q0 -17 -16 -17h-185q-9 0 -12 -3.5t-3 -11.5v-138q0 -9 4 -12t14 -3h226z M110 774q0 8 2.5 11t13.5 3h40q10 0 12.5 -2.5t2.5 -10.5q1 -26 15 -42t40 -16q27 0 41 16.5t18 42.5q1 8 3.5 10.5t12.5 2.5h36q10 0 12.5 -2t2.5 -13q-2 -26 -10 -49.5t-23.5 -41t-38.5 -28t-55 -10.5q-30 0 -52.5 10.5t-38.5 28.5t-24.5 41t-9.5 49z" />
<glyph unicode="&#x115;" horiz-adv-x="458" d="M418 230q0 -14 -8 -22t-20 -8h-216q-11 0 -15.5 -5t-4.5 -12v-15q0 -32 21 -55.5t56 -23.5q30 0 50.5 15t34.5 32q5 6 10 8.5t14 -3.5l49 -31q9 -6 13.5 -12t-0.5 -15q-26 -47 -71.5 -68t-97.5 -21q-43 0 -78 12t-59.5 34.5t-38 54t-13.5 69.5v113q0 39 13.5 71 t38.5 55.5t59.5 36t75.5 12.5q40 0 74.5 -12t59.5 -35t39 -55.5t14 -72.5v-47zM106 627q0 8 2.5 11t13.5 3h40q10 0 12.5 -2.5t2.5 -10.5q1 -26 15 -42t40 -16q27 0 41 16.5t18 42.5q1 8 3.5 10.5t12.5 2.5h36q10 0 12.5 -2t2.5 -13q-2 -26 -10 -49.5t-23.5 -41t-38.5 -28 t-55 -10.5q-30 0 -52.5 10.5t-38.5 28.5t-24.5 41t-9.5 49zM232 357q-33 0 -53 -20.5t-23 -49.5q0 -14 17 -14h121q8 0 11.5 5.5t2.5 13.5q-4 30 -25.5 47.5t-50.5 17.5z" />
<glyph unicode="&#x116;" horiz-adv-x="468" d="M418 101q16 0 16 -17v-66q0 -18 -16 -18h-339q-18 0 -18 17v583q0 17 18 17h333q7 0 12 -3.5t5 -12.5v-65q0 -18 -16 -18h-223q-10 0 -13 -3t-3 -10v-120q0 -17 16 -17h184q16 0 16 -18v-64q0 -17 -16 -17h-185q-9 0 -12 -3.5t-3 -11.5v-138q0 -9 4 -12t14 -3h226z M308 709q0 -25 -17 -42t-43 -17t-43.5 16t-17.5 42q0 24 17.5 41.5t42.5 17.5q26 0 43.5 -17t17.5 -41z" />
<glyph unicode="&#x117;" horiz-adv-x="458" d="M418 230q0 -14 -8 -22t-20 -8h-216q-11 0 -15.5 -5t-4.5 -12v-15q0 -32 21 -55.5t56 -23.5q30 0 50.5 15t34.5 32q5 6 10 8.5t14 -3.5l49 -31q9 -6 13.5 -12t-0.5 -15q-26 -47 -71.5 -68t-97.5 -21q-43 0 -78 12t-59.5 34.5t-38 54t-13.5 69.5v113q0 39 13.5 71 t38.5 55.5t59.5 36t75.5 12.5q40 0 74.5 -12t59.5 -35t39 -55.5t14 -72.5v-47zM232 357q-33 0 -53 -20.5t-23 -49.5q0 -14 17 -14h121q8 0 11.5 5.5t2.5 13.5q-4 30 -25.5 47.5t-50.5 17.5zM297 559q0 -25 -17 -42t-43 -17t-43.5 16t-17.5 42q0 24 17.5 41.5t42.5 17.5 q26 0 43.5 -17t17.5 -41z" />
<glyph unicode="&#x118;" horiz-adv-x="468" d="M418 101q16 0 16 -17v-66q0 -18 -16 -18h-41q-22 -23 -35.5 -53t-13.5 -55q0 -11 4.5 -18.5t18.5 -7.5q8 0 24 5.5t27 11.5q13 7 15 7q5 0 8 -5l17 -22q5 -7 1 -12t-10 -10q-16 -13 -42 -23.5t-51 -10.5q-45 0 -64.5 21.5t-19.5 56.5q0 29 16 60.5t37 54.5h-230 q-18 0 -18 17v583q0 17 18 17h333q7 0 12 -3.5t5 -12.5v-65q0 -18 -16 -18h-223q-10 0 -13 -3t-3 -10v-120q0 -17 16 -17h184q16 0 16 -18v-64q0 -17 -16 -17h-185q-9 0 -12 -3.5t-3 -11.5v-138q0 -9 4 -12t14 -3h226z" />
<glyph unicode="&#x119;" horiz-adv-x="458" d="M418 230q0 -14 -8 -22t-20 -8h-216q-11 0 -15.5 -5t-4.5 -12v-15q0 -32 21 -55.5t56 -23.5q30 0 50.5 15t34.5 32q5 6 10 8.5t14 -3.5l49 -31q9 -6 13.5 -12t-0.5 -15q-17 -29 -40 -47.5t-51 -28.5q-21 -23 -33.5 -52t-12.5 -53q0 -11 4.5 -18.5t18.5 -7.5q8 0 24 5.5 t27 11.5q13 7 15 7q5 0 8 -5l17 -22q5 -7 1 -12t-10 -10q-16 -13 -42 -23.5t-51 -10.5q-45 0 -64.5 21.5t-19.5 56.5q0 25 11.5 51t28.5 48q-43 0 -78 12t-59.5 34.5t-38 54t-13.5 69.5v113q0 39 13.5 71t38.5 55.5t59.5 36t75.5 12.5q40 0 74.5 -12t59.5 -35t39 -55.5 t14 -72.5v-47zM232 357q-33 0 -53 -20.5t-23 -49.5q0 -14 17 -14h121q8 0 11.5 5.5t2.5 13.5q-4 30 -25.5 47.5t-50.5 17.5z" />
<glyph unicode="&#x11a;" horiz-adv-x="468" d="M418 101q16 0 16 -17v-66q0 -18 -16 -18h-339q-18 0 -18 17v583q0 17 18 17h333q7 0 12 -3.5t5 -12.5v-65q0 -18 -16 -18h-223q-10 0 -13 -3t-3 -10v-120q0 -17 16 -17h184q16 0 16 -18v-64q0 -17 -16 -17h-185q-9 0 -12 -3.5t-3 -11.5v-138q0 -9 4 -12t14 -3h226z M295 651q-5 -5 -9.5 -7.5t-12.5 -2.5h-67q-13 0 -21 10l-100 114q-4 5 -5.5 10t6.5 8l31 16q8 4 12 3.5t9 -5.5l93 -75q7 -5 14 1l94 73q5 5 9.5 5.5t12.5 -3.5l32 -15q8 -3 6.5 -8t-5.5 -10z" />
<glyph unicode="&#x11b;" horiz-adv-x="458" d="M418 230q0 -14 -8 -22t-20 -8h-216q-11 0 -15.5 -5t-4.5 -12v-15q0 -32 21 -55.5t56 -23.5q30 0 50.5 15t34.5 32q5 6 10 8.5t14 -3.5l49 -31q9 -6 13.5 -12t-0.5 -15q-26 -47 -71.5 -68t-97.5 -21q-43 0 -78 12t-59.5 34.5t-38 54t-13.5 69.5v113q0 39 13.5 71 t38.5 55.5t59.5 36t75.5 12.5q40 0 74.5 -12t59.5 -35t39 -55.5t14 -72.5v-47zM291 496q-5 -5 -9.5 -8t-12.5 -3h-67q-8 0 -12.5 3t-8.5 8l-100 130q-4 6 -5.5 11.5t6.5 9.5l31 18q8 5 12 4t9 -6l93 -92q6 -7 14 1l94 90q5 5 9.5 6t12.5 -4l32 -17q8 -4 6.5 -9.5t-5.5 -11.5 zM232 357q-33 0 -53 -20.5t-23 -49.5q0 -14 17 -14h121q8 0 11.5 5.5t2.5 13.5q-4 30 -25.5 47.5t-50.5 17.5z" />
<glyph unicode="&#x11c;" horiz-adv-x="512" d="M257 627q27 0 54 -4.5t51.5 -15t46 -28.5t37.5 -46q4 -6 3.5 -13t-8.5 -12l-57 -41q-8 -4 -14.5 -0.5t-12.5 10.5q-36 49 -96 49q-41 0 -65 -24t-24 -59v-271q0 -35 25 -56t65 -21q36 0 60.5 21t24.5 60v62q0 11 -10 11h-54q-18 0 -18 16v65q0 16 18 16h157q20 0 20 -16 v-160q0 -42 -15 -74.5t-42 -55t-63.5 -34.5t-79.5 -12t-79.5 12t-63.5 34.5t-42 55t-15 73.5v282q0 40 15 72.5t41.5 55.5t62.5 35.5t78 12.5zM411 677q4 -5 5.5 -10t-6.5 -8l-32 -15q-8 -4 -12.5 -3.5t-9.5 5.5l-94 73q-7 6 -14 1l-93 -75q-5 -5 -9 -5.5t-12 3.5l-31 16 q-8 3 -6.5 8t5.5 10l100 114q8 10 21 10h67q8 0 12.5 -2.5t9.5 -7.5z" />
<glyph unicode="&#x11d;" horiz-adv-x="470" d="M462 372q0 -8 -2.5 -11t-12.5 -2q-8 1 -23 0.5t-26 -2.5q-4 -1 -6.5 -4t-0.5 -8q13 -29 13 -60q0 -36 -15 -67t-40.5 -53.5t-60 -35t-73.5 -12.5h-24q-20 -1 -34.5 -16t-20.5 -33q-2 -5 0.5 -7t5.5 -1q26 5 55 7.5t44 2.5q39 0 77 -7t67 -23t47 -42t18 -65q0 -20 -8 -40 t-21 -37.5t-30.5 -31.5t-36.5 -23q-10 -4 -19 -5.5t-14 6.5l-31 47q-10 13 10 26q5 3 12 8.5t13.5 13t11 16t4.5 17.5q0 15 -9.5 25t-24.5 16t-32 8t-32 2q-16 0 -36 -1.5t-41.5 -4l-43 -5t-39.5 -5.5q-14 -2 -20.5 1.5t-11.5 9.5q-11 14 -15.5 31.5t-4.5 43.5q0 23 15 50 t40 43q11 7 2 15q-24 20 -39.5 52t-15.5 74q0 35 15 65.5t40.5 53t58 35t68.5 12.5q65 0 116 -34q10 -7 18 0q46 33 96 33q17 0 17 -17v-61zM377 527q4 -6 5.5 -11.5t-6.5 -9.5l-32 -17q-8 -5 -12.5 -4t-9.5 6l-94 90q-8 7 -14 1l-93 -92q-5 -5 -9 -6t-12 4l-31 18 q-8 4 -6.5 9.5t5.5 11.5l100 130q4 5 8.5 8t12.5 3h67q8 0 12.5 -3t9.5 -8zM295 280q0 30 -20.5 52t-54.5 22q-37 0 -58.5 -22.5t-21.5 -51.5t20 -50.5t55 -21.5q39 0 59.5 21.5t20.5 50.5z" />
<glyph unicode="&#x11e;" horiz-adv-x="512" d="M257 627q27 0 54 -4.5t51.5 -15t46 -28.5t37.5 -46q4 -6 3.5 -13t-8.5 -12l-57 -41q-8 -4 -14.5 -0.5t-12.5 10.5q-36 49 -96 49q-41 0 -65 -24t-24 -59v-271q0 -35 25 -56t65 -21q36 0 60.5 21t24.5 60v62q0 11 -10 11h-54q-18 0 -18 16v65q0 16 18 16h157q20 0 20 -16 v-160q0 -42 -15 -74.5t-42 -55t-63.5 -34.5t-79.5 -12t-79.5 12t-63.5 34.5t-42 55t-15 73.5v282q0 40 15 72.5t41.5 55.5t62.5 35.5t78 12.5zM131 774q0 8 2.5 11t13.5 3h40q10 0 12.5 -2.5t2.5 -10.5q1 -26 15 -42t40 -16q27 0 41 16.5t18 42.5q1 8 3.5 10.5t12.5 2.5h36 q10 0 12.5 -2t2.5 -13q-2 -26 -10 -49.5t-23.5 -41t-38.5 -28t-55 -10.5q-30 0 -52.5 10.5t-38.5 28.5t-24.5 41t-9.5 49z" />
<glyph unicode="&#x11f;" horiz-adv-x="470" d="M462 372q0 -8 -2.5 -11t-12.5 -2q-8 1 -23 0.5t-26 -2.5q-4 -1 -6.5 -4t-0.5 -8q13 -29 13 -60q0 -36 -15 -67t-40.5 -53.5t-60 -35t-73.5 -12.5h-24q-20 -1 -34.5 -16t-20.5 -33q-2 -5 0.5 -7t5.5 -1q26 5 55 7.5t44 2.5q39 0 77 -7t67 -23t47 -42t18 -65q0 -20 -8 -40 t-21 -37.5t-30.5 -31.5t-36.5 -23q-10 -4 -19 -5.5t-14 6.5l-31 47q-10 13 10 26q5 3 12 8.5t13.5 13t11 16t4.5 17.5q0 15 -9.5 25t-24.5 16t-32 8t-32 2q-16 0 -36 -1.5t-41.5 -4l-43 -5t-39.5 -5.5q-14 -2 -20.5 1.5t-11.5 9.5q-11 14 -15.5 31.5t-4.5 43.5q0 23 15 50 t40 43q11 7 2 15q-24 20 -39.5 52t-15.5 74q0 35 15 65.5t40.5 53t58 35t68.5 12.5q65 0 116 -34q10 -7 18 0q46 33 96 33q17 0 17 -17v-61zM96 627q0 8 2.5 11t13.5 3h40q10 0 12.5 -2.5t2.5 -10.5q1 -26 15 -42t40 -16q27 0 41 16.5t18 42.5q1 8 3.5 10.5t12.5 2.5h36 q10 0 12.5 -2t2.5 -13q-2 -26 -10 -49.5t-23.5 -41t-38.5 -28t-55 -10.5q-30 0 -52.5 10.5t-38.5 28.5t-24.5 41t-9.5 49zM295 280q0 30 -20.5 52t-54.5 22q-37 0 -58.5 -22.5t-21.5 -51.5t20 -50.5t55 -21.5q39 0 59.5 21.5t20.5 50.5z" />
<glyph unicode="&#x120;" horiz-adv-x="512" d="M257 627q27 0 54 -4.5t51.5 -15t46 -28.5t37.5 -46q4 -6 3.5 -13t-8.5 -12l-57 -41q-8 -4 -14.5 -0.5t-12.5 10.5q-36 49 -96 49q-41 0 -65 -24t-24 -59v-271q0 -35 25 -56t65 -21q36 0 60.5 21t24.5 60v62q0 11 -10 11h-54q-18 0 -18 16v65q0 16 18 16h157q20 0 20 -16 v-160q0 -42 -15 -74.5t-42 -55t-63.5 -34.5t-79.5 -12t-79.5 12t-63.5 34.5t-42 55t-15 73.5v282q0 40 15 72.5t41.5 55.5t62.5 35.5t78 12.5zM319 709q0 -25 -17 -42t-43 -17t-43.5 16t-17.5 42q0 24 17.5 41.5t42.5 17.5q26 0 43.5 -17t17.5 -41z" />
<glyph unicode="&#x121;" horiz-adv-x="470" d="M462 372q0 -8 -2.5 -11t-12.5 -2q-8 1 -23 0.5t-26 -2.5q-4 -1 -6.5 -4t-0.5 -8q13 -29 13 -60q0 -36 -15 -67t-40.5 -53.5t-60 -35t-73.5 -12.5h-24q-20 -1 -34.5 -16t-20.5 -33q-2 -5 0.5 -7t5.5 -1q26 5 55 7.5t44 2.5q39 0 77 -7t67 -23t47 -42t18 -65q0 -20 -8 -40 t-21 -37.5t-30.5 -31.5t-36.5 -23q-10 -4 -19 -5.5t-14 6.5l-31 47q-10 13 10 26q5 3 12 8.5t13.5 13t11 16t4.5 17.5q0 15 -9.5 25t-24.5 16t-32 8t-32 2q-16 0 -36 -1.5t-41.5 -4l-43 -5t-39.5 -5.5q-14 -2 -20.5 1.5t-11.5 9.5q-11 14 -15.5 31.5t-4.5 43.5q0 23 15 50 t40 43q11 7 2 15q-24 20 -39.5 52t-15.5 74q0 35 15 65.5t40.5 53t58 35t68.5 12.5q65 0 116 -34q10 -7 18 0q46 33 96 33q17 0 17 -17v-61zM295 280q0 30 -20.5 52t-54.5 22q-37 0 -58.5 -22.5t-21.5 -51.5t20 -50.5t55 -21.5q39 0 59.5 21.5t20.5 50.5zM288 559 q0 -25 -17 -42t-43 -17t-43.5 16t-17.5 42q0 24 17.5 41.5t42.5 17.5q26 0 43.5 -17t17.5 -41z" />
<glyph unicode="&#x122;" horiz-adv-x="512" d="M257 627q27 0 54 -4.5t51.5 -15t46 -28.5t37.5 -46q4 -6 3.5 -13t-8.5 -12l-57 -41q-8 -4 -14.5 -0.5t-12.5 10.5q-36 49 -96 49q-41 0 -65 -24t-24 -59v-271q0 -35 25 -56t65 -21q36 0 60.5 21t24.5 60v62q0 11 -10 11h-54q-18 0 -18 16v65q0 16 18 16h157q20 0 20 -16 v-160q0 -42 -15 -74.5t-42 -55t-63.5 -34.5t-79.5 -12t-79.5 12t-63.5 34.5t-42 55t-15 73.5v282q0 40 15 72.5t41.5 55.5t62.5 35.5t78 12.5zM262 -205q-5 -13 -11 -17t-17 -4h-26q-14 0 -16.5 10t-2.5 19l11 134q1 11 7 19t20 8h58q19 0 23.5 -9t0.5 -24z" />
<glyph unicode="&#x123;" horiz-adv-x="470" d="M462 372q0 -8 -2.5 -11t-12.5 -2q-8 1 -23 0.5t-26 -2.5q-4 -1 -6.5 -4t-0.5 -8q13 -29 13 -60q0 -36 -15 -67t-40.5 -53.5t-60 -35t-73.5 -12.5h-24q-20 -1 -34.5 -16t-20.5 -33q-2 -5 0.5 -7t5.5 -1q26 5 55 7.5t44 2.5q39 0 77 -7t67 -23t47 -42t18 -65q0 -20 -8 -40 t-21 -37.5t-30.5 -31.5t-36.5 -23q-10 -4 -19 -5.5t-14 6.5l-31 47q-10 13 10 26q5 3 12 8.5t13.5 13t11 16t4.5 17.5q0 15 -9.5 25t-24.5 16t-32 8t-32 2q-16 0 -36 -1.5t-41.5 -4l-43 -5t-39.5 -5.5q-14 -2 -20.5 1.5t-11.5 9.5q-11 14 -15.5 31.5t-4.5 43.5q0 23 15 50 t40 43q11 7 2 15q-24 20 -39.5 52t-15.5 74q0 35 15 65.5t40.5 53t58 35t68.5 12.5q65 0 116 -34q10 -7 18 0q46 33 96 33q17 0 17 -17v-61zM295 280q0 30 -20.5 52t-54.5 22q-37 0 -58.5 -22.5t-21.5 -51.5t20 -50.5t55 -21.5q39 0 59.5 21.5t20.5 50.5zM215 669 q5 13 11 17t17 4h26q14 0 16.5 -10t2.5 -19l-11 -134q-1 -11 -7 -19t-20 -8h-58q-19 0 -23.5 9t-0.5 24z" />
<glyph unicode="&#x124;" horiz-adv-x="550" d="M374 602q0 15 17 15h77q19 0 19 -14v-587q0 -16 -18 -16h-77q-18 0 -18 15v235q0 17 -17 17h-163q-11 0 -14 -4.5t-3 -12.5v-234q0 -16 -18 -16h-77q-19 0 -19 15v587q0 15 19 15h77q8 0 13 -3t5 -11v-219q0 -11 2.5 -14.5t11.5 -3.5h167q9 0 12.5 3.5t3.5 14.5v218z M424 677q4 -5 5.5 -10t-6.5 -8l-32 -15q-8 -4 -12.5 -3.5t-9.5 5.5l-94 73q-7 6 -14 1l-93 -75q-5 -5 -9 -5.5t-12 3.5l-31 16q-8 3 -6.5 8t5.5 10l100 114q8 10 21 10h67q8 0 12.5 -2.5t9.5 -7.5z" />
<glyph unicode="&#x125;" horiz-adv-x="481" d="M428 16q0 -16 -16 -16h-77q-17 0 -17 15v264q0 33 -18.5 55t-57.5 22q-36 0 -56.5 -23t-20.5 -56v-261q0 -16 -16 -16h-78q-16 0 -16 15q0 61 0.5 120.5t0.5 129t-0.5 155.5t-0.5 201q0 16 15 16h78q16 0 16 -16v-189q0 -16 17 -5q18 12 42 18t44 6q42 0 72 -13t50 -35.5 t29.5 -54.5t9.5 -69v-263zM271 677q4 -5 5.5 -10t-6.5 -8l-32 -15q-8 -4 -12.5 -3.5t-9.5 5.5l-94 73q-7 6 -14 1l-93 -75q-5 -5 -9 -5.5t-12 3.5l-31 16q-8 3 -6.5 8t5.5 10l100 114q8 10 21 10h67q8 0 12.5 -2.5t9.5 -7.5z" />
<glyph unicode="&#x126;" horiz-adv-x="561" d="M367 541q6 0 8.5 3t2.5 12v46q0 15 17 15h76q19 0 19 -14v-48q0 -14 13 -14h24q15 0 15 -15v-33q0 -16 -16 -16h-23q-8 0 -10.5 -4t-2.5 -11v-446q0 -16 -18 -16h-76q-18 0 -18 15v236q0 16 -17 16h-163q-11 0 -14 -3.5t-3 -11.5v-236q0 -16 -18 -16h-77q-19 0 -19 15 v447q0 7 -2 11t-10 4h-24q-9 0 -11.5 4t-2.5 12v33q0 7 2.5 11t10.5 4h25q5 0 8.5 3t3.5 11v47q0 15 19 15h77q8 0 13 -3t5 -11v-47q0 -9 2.5 -12t7.5 -3h176zM192 477q-7 0 -9 -4.5t-2 -10.5v-80q0 -11 2.5 -13.5t11.5 -2.5h167q9 0 12.5 3t3.5 13v80q0 6 -2 10.5t-10 4.5 h-174z" />
<glyph unicode="&#x127;" horiz-adv-x="481" d="M55 465q0 5 -1.5 9.5t-12.5 4.5h-17q-16 0 -16 14v41q0 14 15 14h18q14 0 14 14v59q0 16 15 16h78q16 0 16 -15v-60q0 -14 14 -14h128q15 0 15 -13v-41q0 -15 -14 -15h-129q-9 0 -11.5 -3.5t-2.5 -10.5v-62q0 -8 5 -9.5t12 3.5q16 11 41 17.5t45 6.5q42 0 72.5 -13 t50.5 -35.5t29.5 -54t9.5 -68.5v-234q0 -16 -15 -16h-79q-16 0 -16 15v234q0 33 -19 55t-58 22q-35 0 -56 -23t-21 -56v-231q0 -16 -15 -16h-78q-17 0 -17 15v450z" />
<glyph unicode="&#x128;" horiz-adv-x="257" d="M88 0q-18 0 -18 15v587q0 15 18 15h78q18 0 18 -15v-586q0 -16 -18 -16h-78zM277 738q-16 -29 -41.5 -45t-49.5 -16q-18 0 -33.5 5t-30 10.5t-29 10.5t-29.5 5q-8 0 -21 -5.5t-25 -19.5q-5 -6 -9 -6t-11 6l-28 27q-8 8 -2 18q14 24 39.5 41t54.5 17q16 0 32 -5t32 -11.5 t30.5 -11.5t26.5 -5q11 0 21 9.5t17 17.5q5 7 8.5 7.5t9.5 -3.5l34 -22q7 -5 8 -9t-4 -15z" />
<glyph unicode="&#x129;" horiz-adv-x="268" d="M82 428q0 16 15 16h78q16 0 16 -16v-412q0 -16 -15 -16h-78q-16 0 -16 15v413zM292 568q-16 -29 -41.5 -45t-49.5 -16q-18 0 -33.5 5t-30 10.5t-29 10.5t-29.5 5q-8 0 -21 -5.5t-25 -19.5q-5 -6 -9 -6t-11 6l-28 27q-8 8 -2 18q14 24 39.5 41t54.5 17q16 0 32 -5 t32 -11.5t30.5 -11.5t26.5 -5q11 0 21 9.5t17 17.5q5 7 8.5 7.5t9.5 -3.5l34 -22q7 -5 8 -9t-4 -15z" />
<glyph unicode="&#x12a;" horiz-adv-x="257" d="M88 0q-18 0 -18 15v587q0 15 18 15h78q18 0 18 -15v-586q0 -16 -18 -16h-78zM247 679q0 -9 -3 -11t-14 -2h-212q-11 0 -15 1.5t-4 11.5v51q0 11 3.5 14t14.5 3h212q11 0 14.5 -3t3.5 -13v-52z" />
<glyph unicode="&#x12b;" horiz-adv-x="246" d="M67 428q0 16 15 16h78q16 0 16 -16v-412q0 -16 -15 -16h-78q-16 0 -16 15v413zM248 540q0 -9 -3 -11t-14 -2h-212q-11 0 -15 1.5t-4 11.5v51q0 11 3.5 14t14.5 3h212q11 0 14.5 -3t3.5 -13v-52z" />
<glyph unicode="&#x12c;" horiz-adv-x="271" d="M104 0q-18 0 -18 15v587q0 15 18 15h78q18 0 18 -15v-586q0 -16 -18 -16h-78zM14 774q0 8 2.5 11t13.5 3h40q10 0 12.5 -2.5t2.5 -10.5q1 -26 15 -42t40 -16q27 0 41 16.5t18 42.5q1 8 3.5 10.5t12.5 2.5h36q10 0 12.5 -2t2.5 -13q-2 -26 -10 -49.5t-23.5 -41t-38.5 -28 t-55 -10.5q-30 0 -52.5 10.5t-38.5 28.5t-24.5 41t-9.5 49z" />
<glyph unicode="&#x12d;" horiz-adv-x="249" d="M70 428q0 16 15 16h78q16 0 16 -16v-412q0 -16 -15 -16h-78q-16 0 -16 15v413zM1 633q0 8 2.5 11t13.5 3h40q10 0 12.5 -2.5t2.5 -10.5q1 -26 15 -42t40 -16q27 0 41 16.5t18 42.5q1 8 3.5 10.5t12.5 2.5h36q10 0 12.5 -2t2.5 -13q-2 -26 -10 -49.5t-23.5 -41t-38.5 -28 t-55 -10.5q-30 0 -52.5 10.5t-38.5 28.5t-24.5 41t-9.5 49z" />
<glyph unicode="&#x12e;" horiz-adv-x="257" d="M138 0q-22 -23 -35.5 -53t-13.5 -55q0 -11 4.5 -18.5t18.5 -7.5q8 0 24 5.5t27 11.5q13 7 15 7q5 0 8 -5l17 -22q5 -7 1 -12t-10 -10q-16 -13 -42 -23.5t-51 -10.5q-45 0 -64.5 21.5t-19.5 56.5q0 31 17 63.5t40 55.5q-4 3 -4 11v587q0 15 18 15h78q18 0 18 -15v-586 q0 -16 -18 -16h-28z" />
<glyph unicode="&#x12f;" horiz-adv-x="224" d="M57 428q0 16 15 16h78q16 0 16 -16v-412q0 -16 -15 -16h-26q-22 -23 -35.5 -53t-13.5 -55q0 -11 4.5 -18.5t18.5 -7.5q8 0 24 5.5t27 11.5q13 7 15 7q5 0 8 -5l17 -22q5 -7 1 -12t-10 -10q-16 -13 -42 -23.5t-51 -10.5q-45 0 -64.5 21.5t-19.5 56.5q0 31 17 63.5t40 55.5 q-4 3 -4 11v413zM177 564q0 -25 -19 -44t-45 -19q-27 0 -46 18.5t-19 44.5t18.5 44t45.5 18q26 0 45.5 -18t19.5 -44z" />
<glyph unicode="&#x130;" horiz-adv-x="257" d="M88 0q-18 0 -18 15v587q0 15 18 15h78q18 0 18 -15v-586q0 -16 -18 -16h-78zM190 729q0 -25 -17 -42t-43 -17t-43.5 16t-17.5 42q0 24 17.5 41.5t42.5 17.5q26 0 43.5 -17t17.5 -41z" />
<glyph unicode="&#x131;" horiz-adv-x="224" d="M57 428q0 16 15 16h78q16 0 16 -16v-412q0 -16 -15 -16h-78q-16 0 -16 15v413z" />
<glyph unicode="&#x132;" horiz-adv-x="501" d="M83 0q-18 0 -18 15v587q0 15 18 15h78q18 0 18 -15v-586q0 -16 -18 -16h-78zM199 -77q-2 8 -0.5 13.5t12.5 10.5q30 12 51.5 26t35 32t20 42t6.5 57v500q0 13 15 13h82q15 0 15 -13v-509q0 -46 -9.5 -85.5t-32 -71t-59 -54.5t-91.5 -36q-8 -2 -15.5 0t-9.5 13z" />
<glyph unicode="&#x133;" horiz-adv-x="445" d="M177 564q0 -25 -19 -44t-45 -19q-27 0 -46 18.5t-19 44.5t18.5 44t45.5 18q26 0 45.5 -18t19.5 -44zM57 428q0 16 15 16h78q16 0 16 -16v-412q0 -16 -15 -16h-78q-16 0 -16 15v413zM398 564q0 -26 -19.5 -44.5t-45.5 -18.5q-27 0 -46 18t-19 45q0 26 19 44t46 18 q26 0 45.5 -18t19.5 -44zM387 -52q0 -27 -7 -51t-22.5 -42t-40.5 -29t-62 -11q-22 0 -37 2.5t-25 4.5q-8 2 -14 6.5t-4 17.5l10 58q2 10 7.5 12.5t19.5 0.5q5 -1 13.5 -2t13.5 -1q21 1 30 12t9 35v467q0 16 16 16h78q15 0 15 -16v-480z" />
<glyph unicode="&#x134;" horiz-adv-x="309" d="M-4 -76q-2 8 -0.5 13.5t12.5 10.5q30 12 51.5 26t35 32t20 42t6.5 57v500q0 13 15 13h82q15 0 15 -13v-509q0 -46 -9.5 -85.5t-32 -71t-59 -54.5t-91.5 -36q-8 -2 -15.5 0t-9.5 13zM328 679q4 -5 5.5 -10t-6.5 -8l-32 -15q-8 -4 -12.5 -3.5t-9.5 5.5l-94 73q-7 6 -14 1 l-93 -75q-5 -5 -9 -5.5t-12 3.5l-31 16q-8 3 -6.5 8t5.5 10l100 114q8 10 21 10h67q8 0 12.5 -2.5t9.5 -7.5z" />
<glyph unicode="&#x135;" horiz-adv-x="293" d="M201 -52q0 -27 -7 -51t-22.5 -42t-40.5 -29t-62 -11q-22 0 -37 2.5t-25 4.5q-8 2 -14 6.5t-4 17.5l10 58q2 10 7.5 12.5t19.5 0.5q5 -1 13.5 -2t13.5 -1q21 1 30 12t9 35v467q0 16 16 16h78q15 0 15 -16v-480zM302 527q4 -6 5.5 -11.5t-6.5 -9.5l-32 -17q-8 -5 -12.5 -4 t-9.5 6l-94 90q-8 7 -14 1l-93 -92q-5 -5 -9 -6t-12 4l-31 18q-8 4 -6.5 9.5t5.5 11.5l100 130q4 5 8.5 8t12.5 3h67q8 0 12.5 -3t9.5 -8z" />
<glyph unicode="&#x136;" horiz-adv-x="534" d="M485 16q0 -16 -14 -16h-80q-15 0 -16 15l-12 181q-1 16 -5.5 32.5t-14.5 30t-27 21.5t-43 8q-45 0 -70 -27t-25 -68l-1 -177q0 -16 -14 -16h-85q-14 0 -14 15v586q0 16 17 16h81q15 0 15 -15v-208q0 -8 4 -7t8 4l173 215q6 7 11 9t16 2h89q9 0 11.5 -5.5t-2.5 -12.5 l-175 -218q-8 -11 4 -11h15.5t15.5 -2q63 -10 94 -54t31 -111zM269 -185q-5 -13 -11 -17t-17 -4h-26q-14 0 -16.5 10t-2.5 19l11 134q1 11 7 19t20 8h58q19 0 23.5 -9t0.5 -24z" />
<glyph unicode="&#x137;" horiz-adv-x="475" d="M433 18v-3q0 -15 -16 -15h-76q-10 0 -13 4t-4 12l-5 93q-1 18 -5 33.5t-12.5 27t-23 18.5t-36.5 7q-23 0 -38 -7.5t-24 -20t-12.5 -28.5t-3.5 -33v-92q0 -14 -15 -14h-81q-13 0 -13 14v607q0 16 15 16h78q15 0 15 -15v-316q0 -8 4.5 -9t8.5 3l117 133q6 6 10.5 7.5 t15.5 1.5h97q9 0 11 -6t-3 -11q-31 -35 -61.5 -69t-62.5 -68q-3 -6 -3 -7q0 -5 6 -5q36 -2 59.5 -16t38 -36.5t20.5 -52t8 -61.5zM249 -205q-5 -13 -11 -17t-17 -4h-26q-14 0 -16.5 10t-2.5 19l11 134q1 11 7 19t20 8h58q19 0 23.5 -9t0.5 -24z" />
<glyph unicode="&#x138;" horiz-adv-x="475" d="M433 18v-3q0 -15 -16 -15h-76q-10 0 -13 4t-4 12l-5 93q-1 18 -5 33.5t-12.5 27t-23 18.5t-36.5 7q-23 0 -38 -7.5t-24 -20t-12.5 -28.5t-3.5 -33v-92q0 -14 -15 -14h-81q-13 0 -13 14v414q0 16 15 16h78q15 0 15 -15v-123q0 -8 4.5 -9t8.5 3l117 133q6 6 10.5 7.5 t15.5 1.5h97q9 0 11 -6t-3 -11q-31 -35 -61.5 -69t-62.5 -68q-3 -6 -3 -7q0 -5 6 -5q36 -2 59.5 -16t38 -36.5t20.5 -52t8 -61.5z" />
<glyph unicode="&#x139;" horiz-adv-x="451" d="M419 101q16 0 16 -17v-66q0 -18 -15 -18h-336q-18 0 -18 17v585q0 15 17 15h78q18 0 18 -14v-487q0 -8 1.5 -11.5t11.5 -3.5h227zM277 746q8 -9 3.5 -16t-9.5 -9l-154 -78q-9 -5 -14 -2t-10 9l-20 26q-10 12 3 22l121 92q13 10 23 11.5t18 -8.5z" />
<glyph unicode="&#x13a;" horiz-adv-x="251" d="M170 142q0 -29 8 -39.5t32 -10.5h11q9 0 11.5 -6.5t2.5 -11.5v-62q0 -11 -5 -14t-13 -4q-9 -2 -19.5 -2h-14.5q-68 0 -95 33t-27 104v494q0 14 13 14h82q14 0 14 -13v-482zM277 782q8 -9 3.5 -16t-9.5 -9l-154 -78q-9 -5 -14 -2t-10 9l-20 26q-10 12 3 22l121 92 q13 10 23 11.5t18 -8.5z" />
<glyph unicode="&#x13b;" horiz-adv-x="451" d="M419 101q16 0 16 -17v-66q0 -18 -15 -18h-336q-18 0 -18 17v585q0 15 17 15h78q18 0 18 -14v-487q0 -8 1.5 -11.5t11.5 -3.5h227zM239 -205q-5 -13 -11 -17t-17 -4h-26q-14 0 -16.5 10t-2.5 19l11 134q1 11 7 19t20 8h58q19 0 23.5 -9t0.5 -24z" />
<glyph unicode="&#x13c;" horiz-adv-x="251" d="M170 142q0 -29 8 -39.5t32 -10.5h11q9 0 11.5 -6.5t2.5 -11.5v-62q0 -11 -5 -14t-13 -4q-9 -2 -19.5 -2h-14.5q-68 0 -95 33t-27 104v494q0 14 13 14h82q14 0 14 -13v-482zM146 -205q-5 -13 -11 -17t-17 -4h-26q-14 0 -16.5 10t-2.5 19l11 134q1 11 7 19t20 8h58 q19 0 23.5 -9t0.5 -24z" />
<glyph unicode="&#x13d;" horiz-adv-x="451" d="M419 101q16 0 16 -17v-66q0 -18 -15 -18h-336q-18 0 -18 17v585q0 15 17 15h78q18 0 18 -14v-487q0 -8 1.5 -11.5t11.5 -3.5h227zM354 451q-5 -13 -11 -17t-17 -4h-26q-14 0 -16.5 10t-2.5 19l11 134q1 11 7 19t20 8h58q19 0 23.5 -9t0.5 -24z" />
<glyph unicode="&#x13e;" horiz-adv-x="346" d="M306 464q-5 -13 -11 -17t-17 -4h-26q-14 0 -16.5 10t-2.5 19l11 134q1 11 7 19t20 8h58q19 0 23.5 -9t0.5 -24zM170 142q0 -29 8 -39.5t32 -10.5h11q9 0 11.5 -6.5t2.5 -11.5v-62q0 -11 -5 -14t-13 -4q-9 -2 -19.5 -2h-14.5q-68 0 -95 33t-27 104v494q0 14 13 14h82 q14 0 14 -13v-482z" />
<glyph unicode="&#x13f;" horiz-adv-x="451" d="M419 101q16 0 16 -17v-66q0 -18 -15 -18h-336q-18 0 -18 17v585q0 15 17 15h78q18 0 18 -14v-487q0 -8 1.5 -11.5t11.5 -3.5h227zM362 309q0 -25 -17 -42t-43 -17t-43.5 16t-17.5 42q0 24 17.5 41.5t42.5 17.5q26 0 43.5 -17t17.5 -41z" />
<glyph unicode="&#x140;" horiz-adv-x="336" d="M342 349q0 -25 -17 -42t-43 -17t-43.5 16t-17.5 42q0 24 17.5 41.5t42.5 17.5q26 0 43.5 -17t17.5 -41zM170 142q0 -29 8 -39.5t32 -10.5h11q9 0 11.5 -6.5t2.5 -11.5v-62q0 -11 -5 -14t-13 -4q-9 -2 -19.5 -2h-14.5q-68 0 -95 33t-27 104v494q0 14 13 14h82q14 0 14 -13 v-482z" />
<glyph unicode="&#x141;" horiz-adv-x="473" d="M328 354q5 -5 2 -11.5t-9 -9.5l-105 -60q-8 -5 -8 -16v-141q0 -17 16 -17h222q18 0 18 -15v-67q0 -17 -17 -17h-334q-18 0 -18 17v175q0 9 -7 6q-11 -6 -21 -12.5t-21 -11.5q-12 -8 -20 5l-18 31q-3 6 -3 10.5t8 8.5l72 44q5 3 7.5 6t2.5 9v313q0 16 17 16h77 q19 0 19 -16v-248q0 -7 4 -7h1l76 45q13 8 20 -5z" />
<glyph unicode="&#x142;" horiz-adv-x="324" d="M100 206q0 13 -5 13q-2 0 -8 -3l-45 -27q-5 -3 -9 -3q-7 0 -10 7l-20 33q-2 4 -2 7q0 6 8 11q20 12 40.5 24t40.5 23q6 4 8 8t2 13v315q0 10 9 10h89q10 0 10 -9v-254q0 -9 7 -9q2 0 6.5 2.5t5.5 3.5l56 33q3 2 8 2q7 0 10 -6l20 -33q2 -4 2.5 -8t-4.5 -7l-98 -59 q-10 -6 -11.5 -10.5t-1.5 -13.5q0 -32 0.5 -64t0.5 -64q0 -29 8 -39t32 -10h11q9 0 11 -6.5t2 -11.5v-62q0 -11 -4.5 -14t-12.5 -4q-8 -2 -20 -2h-14q-66 0 -94 29.5t-28 94.5v90v0z" />
<glyph unicode="&#x143;" horiz-adv-x="549" d="M135 617q14 0 20.5 -4t11.5 -14l208 -365q2 -2 3 -1.5t1 2.5v366q0 16 17 16h72q18 0 18 -16v-581q0 -12 -6 -16t-15 -4h-51q-12 0 -18.5 2t-12.5 13l-204 355q-2 5 -5 4.5t-3 -6.5v-354q0 -14 -19 -14h-72q-19 0 -19 14v579q0 24 23 24h51zM430 746q8 -9 3.5 -16 t-9.5 -9l-154 -78q-9 -5 -14 -2t-10 9l-20 26q-10 12 3 22l121 92q13 10 23 11.5t18 -8.5z" />
<glyph unicode="&#x144;" horiz-adv-x="480" d="M427 16q0 -16 -15 -16h-78q-16 0 -16 15v263q0 34 -18 55.5t-60 21.5q-35 0 -55.5 -21.5t-20.5 -54.5v-263q0 -16 -17 -16h-77q-16 0 -16 15v413q0 16 16 16h78q14 0 14 -15v-8t1 -7q2 -11 11 0q17 16 46.5 26t55.5 10q79 0 115 -47.5t36 -122.5v-264zM221 490 q-5 -5 -11.5 -5.5t-13.5 3.5l-28 17q-13 7 -6 21l87 143q4 7 11 9t13 -1l60 -33q11 -6 9 -14t-6 -12z" />
<glyph unicode="&#x145;" horiz-adv-x="549" d="M135 617q14 0 20.5 -4t11.5 -14l208 -365q2 -2 3 -1.5t1 2.5v366q0 16 17 16h72q18 0 18 -16v-581q0 -12 -6 -16t-15 -4h-51q-12 0 -18.5 2t-12.5 13l-204 355q-2 5 -5 4.5t-3 -6.5v-354q0 -14 -19 -14h-72q-19 0 -19 14v579q0 24 23 24h51zM278 -185q-5 -13 -11 -17 t-17 -4h-26q-14 0 -16.5 10t-2.5 19l11 134q1 11 7 19t20 8h58q19 0 23.5 -9t0.5 -24z" />
<glyph unicode="&#x146;" horiz-adv-x="480" d="M427 16q0 -16 -15 -16h-78q-16 0 -16 15v263q0 34 -18 55.5t-60 21.5q-35 0 -55.5 -21.5t-20.5 -54.5v-263q0 -16 -17 -16h-77q-16 0 -16 15v413q0 16 16 16h78q14 0 14 -15v-8t1 -7q2 -11 11 0q17 16 46.5 26t55.5 10q79 0 115 -47.5t36 -122.5v-264zM253 -205 q-5 -13 -11 -17t-17 -4h-26q-14 0 -16.5 10t-2.5 19l11 134q1 11 7 19t20 8h58q19 0 23.5 -9t0.5 -24z" />
<glyph unicode="&#x147;" horiz-adv-x="549" d="M135 617q14 0 20.5 -4t11.5 -14l208 -365q2 -2 3 -1.5t1 2.5v366q0 16 17 16h72q18 0 18 -16v-581q0 -12 -6 -16t-15 -4h-51q-12 0 -18.5 2t-12.5 13l-204 355q-2 5 -5 4.5t-3 -6.5v-354q0 -14 -19 -14h-72q-19 0 -19 14v579q0 24 23 24h51zM322 651q-5 -5 -9.5 -7.5 t-12.5 -2.5h-67q-13 0 -21 10l-100 114q-4 5 -5.5 10t6.5 8l31 16q8 4 12 3.5t9 -5.5l93 -75q7 -5 14 1l94 73q5 5 9.5 5.5t12.5 -3.5l32 -15q8 -3 6.5 -8t-5.5 -10z" />
<glyph unicode="&#x148;" horiz-adv-x="480" d="M427 16q0 -16 -15 -16h-78q-16 0 -16 15v263q0 34 -18 55.5t-60 21.5q-35 0 -55.5 -21.5t-20.5 -54.5v-263q0 -16 -17 -16h-77q-16 0 -16 15v413q0 16 16 16h78q14 0 14 -15v-8t1 -7q2 -11 11 0q17 16 46.5 26t55.5 10q79 0 115 -47.5t36 -122.5v-264zM272 496 q-5 -5 -9.5 -8t-12.5 -3h-67q-8 0 -12.5 3t-8.5 8l-100 130q-4 6 -5.5 11.5t6.5 9.5l31 18q8 5 12 4t9 -6l93 -92q6 -7 14 1l94 90q5 5 9.5 6t12.5 -4l32 -17q8 -4 6.5 -9.5t-5.5 -11.5z" />
<glyph unicode="&#x149;" horiz-adv-x="534" d="M481 16q0 -16 -15 -16h-78q-16 0 -16 15v263q0 34 -18 55.5t-60 21.5q-35 0 -55.5 -21.5t-20.5 -54.5v-263q0 -16 -17 -16h-77q-16 0 -16 15v413q0 16 16 16h78q14 0 14 -15v-8t1 -7q2 -11 11 0q17 16 46.5 26t55.5 10q79 0 115 -47.5t36 -122.5v-264zM71 454 q-5 -13 -11 -17t-17 -4h-26q-14 0 -16.5 10t-2.5 19l11 134q1 11 7 19t20 8h58q19 0 23.5 -9t0.5 -24z" />
<glyph unicode="&#x14a;" horiz-adv-x="545" d="M482 -46q0 -33 -7 -60.5t-24.5 -47t-45.5 -30.5t-70 -11q-14 0 -34 3t-34 9q-11 4 -10.5 7.5t0.5 11.5l4 26t5 26q2 10 8 10.5t14 0.5q12 -2 23 -2.5t18 -0.5q50 0 50 44v46q1 27 -9 52.5t-24 48.5q-8 13 -21.5 35.5t-30 50.5t-34.5 58.5t-34.5 58l-30 50t-21.5 35.5 q0 2 -1.5 2t-1.5 -2v-361q0 -14 -19 -14h-72q-19 0 -19 14v587q0 16 19 16h55q14 0 20.5 -4t11.5 -14q51 -91 101.5 -179.5t101.5 -177.5q4 -8 4 0v359q0 16 18 16h71q19 0 19 -16v-647v0z" />
<glyph unicode="&#x14b;" horiz-adv-x="480" d="M318 278q0 33 -17.5 55.5t-59.5 22.5q-35 0 -56 -22t-21 -55v-263q0 -16 -17 -16h-77q-16 0 -16 15v413q0 16 15 16h78q6 0 10 -2.5t4 -10.5v-12q0 -5 4.5 -4.5t8.5 3.5q42 33 96 33q78 0 117.5 -48t39.5 -123v-312q0 -30 -7 -57t-24.5 -47.5t-47 -32.5t-73.5 -12 q-14 0 -31 2t-31 10q-7 4 -8 8t1 12l7 45q2 11 7 13t13 1q11 -1 17 -1.5t14 -0.5q32 0 43 15t11 50v305v0z" />
<glyph unicode="&#x14c;" horiz-adv-x="529" d="M469 176q0 -42 -15.5 -76t-42.5 -57.5t-64.5 -36t-81.5 -12.5t-81.5 12.5t-65 35.5t-43.5 57t-16 77v268q0 42 15.5 76t43 58t65 36.5t81.5 12.5q43 0 80 -12.5t65 -36t44 -57.5t16 -77v-268zM355 443q0 35 -22.5 59t-67.5 24t-69 -24t-24 -59v-266q0 -35 23.5 -58.5 t68.5 -23.5q42 0 66.5 23.5t24.5 58.5v266zM382 679q0 -9 -3 -11t-14 -2h-212q-11 0 -15 1.5t-4 11.5v51q0 11 3.5 14t14.5 3h212q11 0 14.5 -3t3.5 -13v-52z" />
<glyph unicode="&#x14d;" horiz-adv-x="468" d="M420 165q0 -84 -50.5 -127.5t-135.5 -43.5q-86 0 -136.5 45t-50.5 123v120q0 38 13.5 69t38 53.5t58.5 35t76 12.5q85 0 136 -44t51 -126v-117zM311 279q0 35 -20 56t-58 21q-37 0 -57 -21.5t-20 -55.5v-113q0 -34 19.5 -55.5t57.5 -21.5q36 0 57 21t21 56v113zM361 540 q0 -9 -3 -11t-14 -2h-212q-11 0 -15 1.5t-4 11.5v51q0 11 3.5 14t14.5 3h212q11 0 14.5 -3t3.5 -13v-52z" />
<glyph unicode="&#x14e;" horiz-adv-x="529" d="M469 176q0 -42 -15.5 -76t-42.5 -57.5t-64.5 -36t-81.5 -12.5t-81.5 12.5t-65 35.5t-43.5 57t-16 77v268q0 42 15.5 76t43 58t65 36.5t81.5 12.5q43 0 80 -12.5t65 -36t44 -57.5t16 -77v-268zM355 443q0 35 -22.5 59t-67.5 24t-69 -24t-24 -59v-266q0 -35 23.5 -58.5 t68.5 -23.5q42 0 66.5 23.5t24.5 58.5v266zM131 774q0 8 2.5 11t13.5 3h40q10 0 12.5 -2.5t2.5 -10.5q1 -26 15 -42t40 -16q27 0 41 16.5t18 42.5q1 8 3.5 10.5t12.5 2.5h36q10 0 12.5 -2t2.5 -13q-2 -26 -10 -49.5t-23.5 -41t-38.5 -28t-55 -10.5q-30 0 -52.5 10.5 t-38.5 28.5t-24.5 41t-9.5 49z" />
<glyph unicode="&#x14f;" horiz-adv-x="468" d="M420 165q0 -84 -50.5 -127.5t-135.5 -43.5q-86 0 -136.5 45t-50.5 123v120q0 38 13.5 69t38 53.5t58.5 35t76 12.5q85 0 136 -44t51 -126v-117zM311 279q0 35 -20 56t-58 21q-37 0 -57 -21.5t-20 -55.5v-113q0 -34 19.5 -55.5t57.5 -21.5q36 0 57 21t21 56v113zM109 627 q0 8 2.5 11t13.5 3h40q10 0 12.5 -2.5t2.5 -10.5q1 -26 15 -42t40 -16q27 0 41 16.5t18 42.5q1 8 3.5 10.5t12.5 2.5h36q10 0 12.5 -2t2.5 -13q-2 -26 -10 -49.5t-23.5 -41t-38.5 -28t-55 -10.5q-30 0 -52.5 10.5t-38.5 28.5t-24.5 41t-9.5 49z" />
<glyph unicode="&#x150;" horiz-adv-x="529" d="M469 176q0 -42 -15.5 -76t-42.5 -57.5t-64.5 -36t-81.5 -12.5t-81.5 12.5t-65 35.5t-43.5 57t-16 77v268q0 42 15.5 76t43 58t65 36.5t81.5 12.5q43 0 80 -12.5t65 -36t44 -57.5t16 -77v-268zM355 443q0 35 -22.5 59t-67.5 24t-69 -24t-24 -59v-266q0 -35 23.5 -58.5 t68.5 -23.5q42 0 66.5 23.5t24.5 58.5v266zM333 777q11 -8 7.5 -15.5t-7.5 -10.5l-134 -109q-8 -6 -13 -4.5t-12 6.5l-25 21q-7 5 -7 11t5 11l99 116q11 12 20 15.5t19 -4.5zM483 777q11 -8 7.5 -15.5t-7.5 -10.5l-134 -109q-8 -6 -13 -4.5t-12 6.5l-25 21q-7 5 -7 11t5 11 l99 116q11 12 20 15.5t19 -4.5z" />
<glyph unicode="&#x151;" horiz-adv-x="468" d="M420 165q0 -84 -50.5 -127.5t-135.5 -43.5q-86 0 -136.5 45t-50.5 123v120q0 38 13.5 69t38 53.5t58.5 35t76 12.5q85 0 136 -44t51 -126v-117zM311 279q0 35 -20 56t-58 21q-37 0 -57 -21.5t-20 -55.5v-113q0 -34 19.5 -55.5t57.5 -21.5q36 0 57 21t21 56v113zM352 669 q5 7 10.5 10t13.5 -2l60 -33q11 -6 9 -14t-5 -12l-113 -123q-13 -14 -32 -4l-24 14q-14 7 -5 21zM210 669q5 7 10.5 10t13.5 -2l60 -33q11 -6 9 -14t-5 -12l-113 -123q-13 -14 -32 -4l-24 14q-14 7 -5 21z" />
<glyph unicode="&#x152;" horiz-adv-x="703" d="M653 101q16 0 16 -17v-67q0 -17 -16 -17h-338q-12 -3 -28 -4.5t-31 -1.5q-45 0 -81.5 11.5t-62.5 33.5t-40 55t-14 77v278q0 42 14.5 75t41 56t62.5 35t79 12q18 0 36 -2.5t34 -7.5h322q17 0 17 -15v-67q0 -17 -16 -17h-224q-16 0 -16 -13v-124q0 -9 2.5 -12.5t12.5 -3.5 h185q16 0 16 -16v-68q0 -16 -15 -16h-187q-9 0 -11.5 -3.5t-2.5 -11.5v-134q0 -9 4 -12t14 -3h227zM257 95q21 0 38 6v419q-18 6 -37 6q-41 0 -64.5 -22t-23.5 -56v-276q0 -35 22.5 -56t64.5 -21z" />
<glyph unicode="&#x153;" horiz-adv-x="723" d="M686 230q0 -14 -8 -22t-19 -8h-217q-11 0 -15.5 -5t-4.5 -12v-15q0 -32 21.5 -55.5t56.5 -23.5q29 0 50 15t35 32q5 6 10 8.5t14 -3.5l49 -31q9 -6 13 -12t-1 -15q-26 -47 -71 -68t-98 -21q-36 0 -66.5 10t-53.5 31q-9 8 -14.5 7t-13.5 -7q-49 -41 -119 -41 q-40 0 -74.5 11.5t-59.5 33.5t-39 53t-14 70v120q0 38 13.5 69t38 53.5t59 35t75.5 12.5q35 0 68 -11.5t56 -32.5q6 -6 10.5 -5.5t10.5 5.5q20 21 53.5 32.5t68.5 11.5q40 0 74.5 -12t59 -35t38.5 -55.5t14 -72.5v-47zM576 292q-3 30 -24.5 47.5t-51.5 17.5 q-33 0 -52.5 -20.5t-22.5 -49.5q-2 -14 16 -14h121q8 0 11.5 5.5t2.5 13.5zM311 279q0 35 -21.5 56t-56.5 21q-32 0 -54.5 -21.5t-22.5 -55.5v-113q0 -34 22 -55.5t55 -21.5q34 0 55.5 20.5t22.5 55.5v114z" />
<glyph unicode="&#x154;" horiz-adv-x="513" d="M278 617q91 0 141 -47t50 -132q0 -53 -26.5 -97.5t-61.5 -76.5q-6 -7 -2 -15q0 -1 9 -20t23.5 -50.5t33.5 -72.5t40 -84q5 -10 0.5 -16t-14.5 -6h-76q-20 0 -26.5 6t-11.5 16l-92 207q-2 9 -13 9h-66q-9 0 -9 -11v-211q0 -16 -19 -16h-76q-18 0 -18 15v585q0 17 16 17 h198zM287 337q5 0 11 2t9 4q24 19 35.5 44.5t11.5 44.5q0 37 -20.5 61.5t-64.5 24.5h-77q-9 0 -12 -3.5t-3 -11.5v-152q0 -7 2.5 -10.5t11.5 -3.5h96zM390 746q8 -9 3.5 -16t-9.5 -9l-154 -78q-9 -5 -14 -2t-10 9l-20 26q-10 12 3 22l121 92q13 10 23 11.5t18 -8.5z" />
<glyph unicode="&#x155;" horiz-adv-x="318" d="M306 356q-2 -11 -6.5 -13.5t-12.5 -1.5q-20 5 -33 5q-25 0 -42 -8t-27 -22.5t-14.5 -34t-4.5 -42.5v-223q0 -16 -17 -16h-77q-16 0 -16 15v413q0 16 16 16h68q16 0 16 -15v-31q0 -6 3.5 -7.5t7.5 3.5q16 22 44 40t64 18q8 0 18 -1t18 -4q11 -3 12.5 -8t-0.5 -13zM185 490 q-5 -5 -11.5 -5.5t-13.5 3.5l-28 17q-13 7 -6 21l87 143q4 7 11 9t13 -1l60 -33q11 -6 9 -14t-6 -12z" />
<glyph unicode="&#x156;" horiz-adv-x="513" d="M278 617q91 0 141 -47t50 -132q0 -53 -26.5 -97.5t-61.5 -76.5q-6 -7 -2 -15q0 -1 9 -20t23.5 -50.5t33.5 -72.5t40 -84q5 -10 0.5 -16t-14.5 -6h-76q-20 0 -26.5 6t-11.5 16l-92 207q-2 9 -13 9h-66q-9 0 -9 -11v-211q0 -16 -19 -16h-76q-18 0 -18 15v585q0 17 16 17 h198zM287 337q5 0 11 2t9 4q24 19 35.5 44.5t11.5 44.5q0 37 -20.5 61.5t-64.5 24.5h-77q-9 0 -12 -3.5t-3 -11.5v-152q0 -7 2.5 -10.5t11.5 -3.5h96zM265 -205q-5 -13 -11 -17t-17 -4h-26q-14 0 -16.5 10t-2.5 19l11 134q1 11 7 19t20 8h58q19 0 23.5 -9t0.5 -24z" />
<glyph unicode="&#x157;" horiz-adv-x="318" d="M306 356q-2 -11 -6.5 -13.5t-12.5 -1.5q-20 5 -33 5q-25 0 -42 -8t-27 -22.5t-14.5 -34t-4.5 -42.5v-223q0 -16 -17 -16h-77q-16 0 -16 15v413q0 16 16 16h68q16 0 16 -15v-31q0 -6 3.5 -7.5t7.5 3.5q16 22 44 40t64 18q8 0 18 -1t18 -4q11 -3 12.5 -8t-0.5 -13z M121 -205q-5 -13 -11 -17t-17 -4h-26q-14 0 -16.5 10t-2.5 19l11 134q1 11 7 19t20 8h58q19 0 23.5 -9t0.5 -24z" />
<glyph unicode="&#x158;" horiz-adv-x="513" d="M278 617q91 0 141 -47t50 -132q0 -53 -26.5 -97.5t-61.5 -76.5q-6 -7 -2 -15q0 -1 9 -20t23.5 -50.5t33.5 -72.5t40 -84q5 -10 0.5 -16t-14.5 -6h-76q-20 0 -26.5 6t-11.5 16l-92 207q-2 9 -13 9h-66q-9 0 -9 -11v-211q0 -16 -19 -16h-76q-18 0 -18 15v585q0 17 16 17 h198zM287 337q5 0 11 2t9 4q24 19 35.5 44.5t11.5 44.5q0 37 -20.5 61.5t-64.5 24.5h-77q-9 0 -12 -3.5t-3 -11.5v-152q0 -7 2.5 -10.5t11.5 -3.5h96zM279 651q-5 -5 -9.5 -7.5t-12.5 -2.5h-67q-13 0 -21 10l-100 114q-4 5 -5.5 10t6.5 8l31 16q8 4 12 3.5t9 -5.5l93 -75 q7 -5 14 1l94 73q5 5 9.5 5.5t12.5 -3.5l32 -15q8 -3 6.5 -8t-5.5 -10z" />
<glyph unicode="&#x159;" horiz-adv-x="318" d="M306 356q-2 -11 -6.5 -13.5t-12.5 -1.5q-20 5 -33 5q-25 0 -42 -8t-27 -22.5t-14.5 -34t-4.5 -42.5v-223q0 -16 -17 -16h-77q-16 0 -16 15v413q0 16 16 16h68q16 0 16 -15v-31q0 -6 3.5 -7.5t7.5 3.5q16 22 44 40t64 18q8 0 18 -1t18 -4q11 -3 12.5 -8t-0.5 -13zM224 496 q-5 -5 -9.5 -8t-12.5 -3h-67q-8 0 -12.5 3t-8.5 8l-100 130q-4 6 -5.5 11.5t6.5 9.5l31 18q8 5 12 4t9 -6l93 -92q6 -7 14 1l94 90q5 5 9.5 6t12.5 -4l32 -17q8 -4 6.5 -9.5t-5.5 -11.5z" />
<glyph unicode="&#x15a;" horiz-adv-x="487" d="M453 177q0 -44 -16.5 -77.5t-45 -57t-68 -35.5t-84.5 -12q-55 0 -108.5 18t-91.5 57q-9 8 -10 15t8 18l39 44q9 10 15.5 8t16.5 -10q26 -23 62.5 -37t65.5 -14q54 0 78.5 22t24.5 56q0 21 -10 36t-28 27t-41.5 21.5t-50.5 18.5q-29 10 -57.5 23.5t-51.5 33.5t-37.5 48.5 t-14.5 68.5q0 41 15.5 73.5t42 55.5t61.5 35t75 12q50 0 93.5 -11t80.5 -35q11 -8 10.5 -14.5t-7.5 -17.5l-26 -48q-5 -8 -13 -9.5t-17 2.5q-29 15 -58.5 25t-56.5 10q-35 0 -61.5 -17t-26.5 -60q0 -18 10.5 -31.5t26 -23.5t34 -17t34.5 -13q32 -12 65.5 -25.5t60.5 -34 t44.5 -51.5t17.5 -77zM371 746q8 -9 3.5 -16t-9.5 -9l-154 -78q-9 -5 -14 -2t-10 9l-20 26q-10 12 3 22l121 92q13 10 23 11.5t18 -8.5z" />
<glyph unicode="&#x15b;" horiz-adv-x="413" d="M381 129q0 -32 -13 -57t-36 -42t-54 -26t-67 -9q-26 0 -52 4.5t-49.5 15t-43 27.5t-32.5 43q-3 6 -3 12t7 10l56 31q14 8 23 -4q40 -50 97 -50q20 0 39.5 11t19.5 31q0 17 -12 27t-35 18q-14 5 -33 10.5t-38 11.5q-49 17 -80 45t-31 78q0 33 13 58.5t35.5 42.5t51.5 25.5 t61 8.5q38 0 80 -12.5t74 -41.5q5 -5 4 -11.5t-5 -12.5l-32 -47q-5 -5 -11 -5q-5 0 -13 5t-18 10q-23 11 -43 17t-40 6q-22 0 -37 -10t-15 -29q0 -26 47 -42q29 -9 61.5 -19.5t60 -27t45.5 -41t18 -61.5zM212 490q-5 -5 -11.5 -5.5t-13.5 3.5l-28 17q-13 7 -6 21l87 143 q4 7 11 9t13 -1l60 -33q11 -6 9 -14t-6 -12z" />
<glyph unicode="&#x15c;" horiz-adv-x="487" d="M453 177q0 -44 -16.5 -77.5t-45 -57t-68 -35.5t-84.5 -12q-55 0 -108.5 18t-91.5 57q-9 8 -10 15t8 18l39 44q9 10 15.5 8t16.5 -10q26 -23 62.5 -37t65.5 -14q54 0 78.5 22t24.5 56q0 21 -10 36t-28 27t-41.5 21.5t-50.5 18.5q-29 10 -57.5 23.5t-51.5 33.5t-37.5 48.5 t-14.5 68.5q0 41 15.5 73.5t42 55.5t61.5 35t75 12q50 0 93.5 -11t80.5 -35q11 -8 10.5 -14.5t-7.5 -17.5l-26 -48q-5 -8 -13 -9.5t-17 2.5q-29 15 -58.5 25t-56.5 10q-35 0 -61.5 -17t-26.5 -60q0 -18 10.5 -31.5t26 -23.5t34 -17t34.5 -13q32 -12 65.5 -25.5t60.5 -34 t44.5 -51.5t17.5 -77zM401 677q4 -5 5.5 -10t-6.5 -8l-32 -15q-8 -4 -12.5 -3.5t-9.5 5.5l-94 73q-7 6 -14 1l-93 -75q-5 -5 -9 -5.5t-12 3.5l-31 16q-8 3 -6.5 8t5.5 10l100 114q8 10 21 10h67q8 0 12.5 -2.5t9.5 -7.5z" />
<glyph unicode="&#x15d;" horiz-adv-x="413" d="M381 129q0 -32 -13 -57t-36 -42t-54 -26t-67 -9q-26 0 -52 4.5t-49.5 15t-43 27.5t-32.5 43q-3 6 -3 12t7 10l56 31q14 8 23 -4q40 -50 97 -50q20 0 39.5 11t19.5 31q0 17 -12 27t-35 18q-14 5 -33 10.5t-38 11.5q-49 17 -80 45t-31 78q0 33 13 58.5t35.5 42.5t51.5 25.5 t61 8.5q38 0 80 -12.5t74 -41.5q5 -5 4 -11.5t-5 -12.5l-32 -47q-5 -5 -11 -5q-5 0 -13 5t-18 10q-23 11 -43 17t-40 6q-22 0 -37 -10t-15 -29q0 -26 47 -42q29 -9 61.5 -19.5t60 -27t45.5 -41t18 -61.5zM357 527q4 -6 5.5 -11.5t-6.5 -9.5l-32 -17q-8 -5 -12.5 -4t-9.5 6 l-94 90q-8 7 -14 1l-93 -92q-5 -5 -9 -6t-12 4l-31 18q-8 4 -6.5 9.5t5.5 11.5l100 130q4 5 8.5 8t12.5 3h67q8 0 12.5 -3t9.5 -8z" />
<glyph unicode="&#x15e;" horiz-adv-x="487" d="M343 -120q0 -15 -6 -30t-19 -27t-32 -19.5t-45 -7.5q-49 0 -82 24q-6 4 -6 9q0 3 3 8l19 23q6 7 10 7q3 0 13 -5q8 -5 19 -8.5t22 -3.5q22 0 32 8.5t10 20.5q0 13 -7.5 21t-26.5 8h-30q-19 0 -27.5 10t-4.5 27l13 53q-45 5 -86.5 22.5t-72.5 49.5q-9 8 -10 15t8 18l39 44 q9 10 15.5 8t16.5 -10q26 -23 62.5 -37t65.5 -14q54 0 78.5 22t24.5 56q0 21 -10 36t-28 27t-41.5 21.5t-50.5 18.5q-29 10 -57.5 23.5t-51.5 33.5t-37.5 48.5t-14.5 68.5q0 41 15.5 73.5t42 55.5t61.5 35t75 12q50 0 93.5 -11t80.5 -35q11 -8 10.5 -14.5t-7.5 -17.5 l-26 -48q-5 -8 -13 -9.5t-17 2.5q-29 15 -58.5 25t-56.5 10q-35 0 -61.5 -17t-26.5 -60q0 -18 10.5 -31.5t26 -23.5t34 -17t34.5 -13q32 -12 65.5 -25.5t60.5 -34t44.5 -51.5t17.5 -77q0 -42 -15 -75t-42 -56t-63.5 -36t-79.5 -14q-2 -8 -3.5 -15.5t-3.5 -15.5v-1q0 -3 7 -3 h7q35 0 59 -21.5t24 -59.5z" />
<glyph unicode="&#x15f;" horiz-adv-x="413" d="M304 -120q0 -15 -6 -30t-19 -27t-32 -19.5t-45 -7.5q-49 0 -82 24q-6 4 -6 9q0 3 3 8l19 23q6 7 10 7q3 0 13 -5q8 -5 19 -8.5t22 -3.5q22 0 32 8.5t10 20.5q0 13 -7.5 21t-26.5 8h-30q-19 0 -27.5 10t-4.5 27l14 55q-39 6 -73 26t-53 59q-3 6 -3 12t7 10l56 31 q14 8 23 -4q40 -50 97 -50q20 0 39.5 11t19.5 31q0 17 -12 27t-35 18q-14 5 -33 10.5t-38 11.5q-49 17 -80 45t-31 78q0 33 13 58.5t35.5 42.5t51.5 25.5t61 8.5q38 0 80 -12.5t74 -41.5q5 -5 4 -11.5t-5 -12.5l-32 -47q-5 -5 -11 -5q-5 0 -13 5t-18 10q-23 11 -43 17t-40 6 q-22 0 -37 -10t-15 -29q0 -26 47 -42q29 -9 61.5 -19.5t60 -27t45.5 -41t18 -61.5q0 -32 -13 -56.5t-35.5 -42t-53 -26.5t-65.5 -9l-7 -30v-1q0 -3 7 -3h7q35 0 59 -21.5t24 -59.5z" />
<glyph unicode="&#x160;" horiz-adv-x="487" d="M453 177q0 -44 -16.5 -77.5t-45 -57t-68 -35.5t-84.5 -12q-55 0 -108.5 18t-91.5 57q-9 8 -10 15t8 18l39 44q9 10 15.5 8t16.5 -10q26 -23 62.5 -37t65.5 -14q54 0 78.5 22t24.5 56q0 21 -10 36t-28 27t-41.5 21.5t-50.5 18.5q-29 10 -57.5 23.5t-51.5 33.5t-37.5 48.5 t-14.5 68.5q0 41 15.5 73.5t42 55.5t61.5 35t75 12q50 0 93.5 -11t80.5 -35q11 -8 10.5 -14.5t-7.5 -17.5l-26 -48q-5 -8 -13 -9.5t-17 2.5q-29 15 -58.5 25t-56.5 10q-35 0 -61.5 -17t-26.5 -60q0 -18 10.5 -31.5t26 -23.5t34 -17t34.5 -13q32 -12 65.5 -25.5t60.5 -34 t44.5 -51.5t17.5 -77zM296 651q-5 -5 -9.5 -7.5t-12.5 -2.5h-67q-13 0 -21 10l-100 114q-4 5 -5.5 10t6.5 8l31 16q8 4 12 3.5t9 -5.5l93 -75q7 -5 14 1l94 73q5 5 9.5 5.5t12.5 -3.5l32 -15q8 -3 6.5 -8t-5.5 -10z" />
<glyph unicode="&#x161;" horiz-adv-x="413" d="M381 129q0 -32 -13 -57t-36 -42t-54 -26t-67 -9q-26 0 -52 4.5t-49.5 15t-43 27.5t-32.5 43q-3 6 -3 12t7 10l56 31q14 8 23 -4q40 -50 97 -50q20 0 39.5 11t19.5 31q0 17 -12 27t-35 18q-14 5 -33 10.5t-38 11.5q-49 17 -80 45t-31 78q0 33 13 58.5t35.5 42.5t51.5 25.5 t61 8.5q38 0 80 -12.5t74 -41.5q5 -5 4 -11.5t-5 -12.5l-32 -47q-5 -5 -11 -5q-5 0 -13 5t-18 10q-23 11 -43 17t-40 6q-22 0 -37 -10t-15 -29q0 -26 47 -42q29 -9 61.5 -19.5t60 -27t45.5 -41t18 -61.5zM267 496q-5 -5 -9.5 -8t-12.5 -3h-67q-8 0 -12.5 3t-8.5 8l-100 130 q-4 6 -5.5 11.5t6.5 9.5l31 18q8 5 12 4t9 -6l93 -92q6 -7 14 1l94 90q5 5 9.5 6t12.5 -4l32 -17q8 -4 6.5 -9.5t-5.5 -11.5z" />
<glyph unicode="&#x162;" horiz-adv-x="441" d="M423 536q0 -8 -3 -13t-12 -5h-118q-16 0 -16 -13l-1 -489q0 -16 -18 -16h-77q-18 0 -18 15l1 489q0 7 -2.5 10.5t-12.5 3.5h-112q-17 0 -17 18v64q0 17 17 17h374q15 0 15 -16v-65zM216 -205q-5 -13 -11 -17t-17 -4h-26q-14 0 -16.5 10t-2.5 19l11 134q1 11 7 19t20 8h58 q19 0 23.5 -9t0.5 -24z" />
<glyph unicode="&#x163;" horiz-adv-x="330" d="M318 30q2 -14 -4 -18.5t-14 -7.5q-18 -6 -41 -7.5t-45 -2.5q-39 0 -64.5 10t-41 27.5t-21.5 41.5t-6 51v220q0 11 -12 11h-37q-17 0 -17 15v58q0 16 16 16h35q14 0 14 14v75q0 16 16 20l73 16q11 2 15.5 -2t4.5 -12v-98q0 -5 2.5 -9t11.5 -4h79q16 0 16 -16v-57 q0 -16 -16 -16h-81q-12 0 -12 -10v-202q0 -24 9.5 -37t33.5 -13q8 0 22.5 2t22.5 4q17 3 23 -1t8 -15zM163 -205q-5 -13 -11 -17t-17 -4h-26q-14 0 -16.5 10t-2.5 19l11 134q1 11 7 19t20 8h58q19 0 23.5 -9t0.5 -24z" />
<glyph unicode="&#x164;" horiz-adv-x="441" d="M423 536q0 -8 -3 -13t-12 -5h-118q-16 0 -16 -13l-1 -489q0 -16 -18 -16h-77q-18 0 -18 15l1 489q0 7 -2.5 10.5t-12.5 3.5h-112q-17 0 -17 18v64q0 17 17 17h374q15 0 15 -16v-65zM275 651q-5 -5 -9.5 -7.5t-12.5 -2.5h-67q-13 0 -21 10l-100 114q-4 5 -5.5 10t6.5 8 l31 16q8 4 12 3.5t9 -5.5l93 -75q7 -5 14 1l94 73q5 5 9.5 5.5t12.5 -3.5l32 -15q8 -3 6.5 -8t-5.5 -10z" />
<glyph unicode="&#x165;" horiz-adv-x="377" d="M341 518q-5 -13 -11 -17t-17 -4h-26q-14 0 -16.5 10t-2.5 19l11 134q1 11 7 19t20 8h58q19 0 23.5 -9t0.5 -24zM318 30q2 -14 -4 -18.5t-14 -7.5q-18 -6 -41 -7.5t-45 -2.5q-39 0 -64.5 10t-41 27.5t-21.5 41.5t-6 51v220q0 11 -12 11h-37q-17 0 -17 15v58q0 16 16 16h35 q14 0 14 14v75q0 16 16 20l73 16q11 2 15.5 -2t4.5 -12v-98q0 -5 2.5 -9t11.5 -4h79q16 0 16 -16v-57q0 -16 -16 -16h-81q-12 0 -12 -10v-202q0 -24 9.5 -37t33.5 -13q8 0 22.5 2t22.5 4q17 3 23 -1t8 -15z" />
<glyph unicode="&#x166;" horiz-adv-x="441" d="M161 287q0 7 -1 10.5t-9 3.5h-93q-13 0 -13 17v35q0 16 14 16h91q5 0 8 3t3 12v120q0 7 -1.5 10.5t-10.5 3.5h-114q-17 0 -17 18v64q0 17 17 17h372q16 0 16 -16v-65q0 -18 -16 -18h-117q-16 0 -16 -13v-121q0 -9 2 -12t9 -3h96q15 0 15 -16v-35q0 -17 -14 -17h-97 q-11 0 -11 -14v-271q0 -16 -18 -16h-77q-18 0 -18 15v272z" />
<glyph unicode="&#x167;" horiz-adv-x="330" d="M199 457q0 -5 2.5 -9t11.5 -4h79q16 0 16 -16v-57q0 -16 -16 -16h-81q-12 0 -12 -10v-43q0 -9 2.5 -12t9.5 -3h82q15 0 15 -13v-36q0 -14 -15 -14h-80q-14 0 -14 -15v-66q0 -24 9.5 -37t33.5 -13q8 0 22.5 2t22.5 4q17 3 23 -1t8 -15l10 -53q2 -14 -4 -18.5t-14 -7.5 q-18 -6 -41 -7.5t-45 -2.5q-39 0 -65 10t-41.5 27.5t-21.5 41.5t-6 51v85q0 8 -2 11.5t-11 3.5h-41q-16 0 -16 13v37q0 13 15 13h41q14 0 14 16v41q0 11 -12 11h-41q-17 0 -17 15v58q0 16 16 16h41q13 0 13 14v75q0 15 15 20l74 16q11 2 15.5 -2t4.5 -12v-98v0z" />
<glyph unicode="&#x168;" horiz-adv-x="529" d="M172 174q0 -33 25 -56t67 -23t67 23t25 57v427q0 15 18 15h77q19 0 19 -14v-429q0 -42 -16 -75.5t-44 -57t-65.5 -35.5t-79.5 -12q-43 0 -80.5 12t-65.5 35.5t-44 57t-16 75.5v428q0 15 18 15h77q8 0 13 -3t5 -11v-429zM410 718q-16 -29 -41.5 -45t-49.5 -16 q-18 0 -33.5 5t-30 10.5t-29 10.5t-29.5 5q-8 0 -21 -5.5t-25 -19.5q-5 -6 -9 -6t-11 6l-28 27q-8 8 -2 18q14 24 39.5 41t54.5 17q16 0 32 -5t32 -11.5t30.5 -11.5t26.5 -5q11 0 21 9.5t17 17.5q5 7 8.5 7.5t9.5 -3.5l34 -22q7 -5 8 -9t-4 -15z" />
<glyph unicode="&#x169;" horiz-adv-x="474" d="M421 16q0 -16 -16 -16h-79q-14 0 -14 14v11q0 4 -4 4t-7 -3q-15 -14 -38.5 -23.5t-48.5 -9.5q-39 0 -70 12.5t-52.5 35t-33 54t-11.5 69.5v264q0 16 15 16h78q17 0 17 -15v-264q0 -32 21 -54.5t56 -22.5t56 22t21 55v263q0 16 16 16h77q17 0 17 -15v-413zM389 568 q-16 -29 -41.5 -45t-49.5 -16q-18 0 -33.5 5t-30 10.5t-29 10.5t-29.5 5q-8 0 -21 -5.5t-25 -19.5q-5 -6 -9 -6t-11 6l-28 27q-8 8 -2 18q14 24 39.5 41t54.5 17q16 0 32 -5t32 -11.5t30.5 -11.5t26.5 -5q11 0 21 9.5t17 17.5q5 7 8.5 7.5t9.5 -3.5l34 -22q7 -5 8 -9t-4 -15 z" />
<glyph unicode="&#x16a;" horiz-adv-x="529" d="M172 174q0 -33 25 -56t67 -23t67 23t25 57v427q0 15 18 15h77q19 0 19 -14v-429q0 -42 -16 -75.5t-44 -57t-65.5 -35.5t-79.5 -12q-43 0 -80.5 12t-65.5 35.5t-44 57t-16 75.5v428q0 15 18 15h77q8 0 13 -3t5 -11v-429zM384 679q0 -9 -3 -11t-14 -2h-212q-11 0 -15 1.5 t-4 11.5v51q0 11 3.5 14t14.5 3h212q11 0 14.5 -3t3.5 -13v-52z" />
<glyph unicode="&#x16b;" horiz-adv-x="474" d="M421 16q0 -16 -16 -16h-79q-14 0 -14 14v11q0 4 -4 4t-7 -3q-15 -14 -38.5 -23.5t-48.5 -9.5q-39 0 -70 12.5t-52.5 35t-33 54t-11.5 69.5v264q0 16 15 16h78q17 0 17 -15v-264q0 -32 21 -54.5t56 -22.5t56 22t21 55v263q0 16 16 16h77q17 0 17 -15v-413zM358 540 q0 -9 -3 -11t-14 -2h-212q-11 0 -15 1.5t-4 11.5v51q0 11 3.5 14t14.5 3h212q11 0 14.5 -3t3.5 -13v-52z" />
<glyph unicode="&#x16c;" horiz-adv-x="529" d="M172 174q0 -33 25 -56t67 -23t67 23t25 57v427q0 15 18 15h77q19 0 19 -14v-429q0 -42 -16 -75.5t-44 -57t-65.5 -35.5t-79.5 -12q-43 0 -80.5 12t-65.5 35.5t-44 57t-16 75.5v428q0 15 18 15h77q8 0 13 -3t5 -11v-429zM136 777q0 8 2.5 11t13.5 3h40q10 0 12.5 -2.5 t2.5 -10.5q1 -26 15 -42t40 -16q27 0 41 16.5t18 42.5q1 8 3.5 10.5t12.5 2.5h36q10 0 12.5 -2t2.5 -13q-2 -26 -10 -49.5t-23.5 -41t-38.5 -28t-55 -10.5q-30 0 -52.5 10.5t-38.5 28.5t-24.5 41t-9.5 49z" />
<glyph unicode="&#x16d;" horiz-adv-x="474" d="M421 16q0 -16 -16 -16h-79q-14 0 -14 14v11q0 4 -4 4t-7 -3q-15 -14 -38.5 -23.5t-48.5 -9.5q-39 0 -70 12.5t-52.5 35t-33 54t-11.5 69.5v264q0 16 15 16h78q17 0 17 -15v-264q0 -32 21 -54.5t56 -22.5t56 22t21 55v263q0 16 16 16h77q17 0 17 -15v-413zM111 627 q0 8 2.5 11t13.5 3h40q10 0 12.5 -2.5t2.5 -10.5q1 -26 15 -42t40 -16q27 0 41 16.5t18 42.5q1 8 3.5 10.5t12.5 2.5h36q10 0 12.5 -2t2.5 -13q-2 -26 -10 -49.5t-23.5 -41t-38.5 -28t-55 -10.5q-30 0 -52.5 10.5t-38.5 28.5t-24.5 41t-9.5 49z" />
<glyph unicode="&#x16e;" horiz-adv-x="529" d="M172 174q0 -33 25 -56t67 -23t67 23t25 57v427q0 15 18 15h77q19 0 19 -14v-429q0 -42 -16 -75.5t-44 -57t-65.5 -35.5t-79.5 -12q-43 0 -80.5 12t-65.5 35.5t-44 57t-16 75.5v428q0 15 18 15h77q8 0 13 -3t5 -11v-429zM350 739q0 -18 -7 -34t-19 -27.5t-28.5 -18.5 t-35.5 -7q-18 0 -34 7t-28 19t-18.5 27.5t-6.5 33.5q0 36 24.5 62t62.5 26q37 0 63.5 -25.5t26.5 -62.5zM298 739q0 15 -11.5 27t-26.5 12t-25.5 -11t-10.5 -28q0 -16 10.5 -26.5t25.5 -10.5q16 0 27 11t11 26z" />
<glyph unicode="&#x16f;" horiz-adv-x="474" d="M421 16q0 -16 -16 -16h-79q-14 0 -14 14v11q0 4 -4 4t-7 -3q-15 -14 -38.5 -23.5t-48.5 -9.5q-39 0 -70 12.5t-52.5 35t-33 54t-11.5 69.5v264q0 16 15 16h78q17 0 17 -15v-264q0 -32 21 -54.5t56 -22.5t56 22t21 55v263q0 16 16 16h77q17 0 17 -15v-413zM328 577 q0 -18 -7 -34t-19 -27.5t-28.5 -18.5t-35.5 -7q-18 0 -34 7t-28 19t-18.5 27.5t-6.5 33.5q0 36 24.5 62t62.5 26q37 0 63.5 -25.5t26.5 -62.5zM276 577q0 15 -11.5 27t-26.5 12t-25.5 -11t-10.5 -28q0 -16 10.5 -26.5t25.5 -10.5q16 0 27 11t11 26z" />
<glyph unicode="&#x170;" horiz-adv-x="529" d="M172 174q0 -33 25 -56t67 -23t67 23t25 57v427q0 15 18 15h77q19 0 19 -14v-429q0 -42 -16 -75.5t-44 -57t-65.5 -35.5t-79.5 -12q-43 0 -80.5 12t-65.5 35.5t-44 57t-16 75.5v428q0 15 18 15h77q8 0 13 -3t5 -11v-429zM325 777q11 -8 7.5 -15.5t-7.5 -10.5l-134 -109 q-8 -6 -13 -4.5t-12 6.5l-25 21q-7 5 -7 11t5 11l99 116q11 12 20 15.5t19 -4.5zM475 777q11 -8 7.5 -15.5t-7.5 -10.5l-134 -109q-8 -6 -13 -4.5t-12 6.5l-25 21q-7 5 -7 11t5 11l99 116q11 12 20 15.5t19 -4.5z" />
<glyph unicode="&#x171;" horiz-adv-x="474" d="M421 16q0 -16 -16 -16h-79q-14 0 -14 14v11q0 4 -4 4t-7 -3q-15 -14 -38.5 -23.5t-48.5 -9.5q-39 0 -70 12.5t-52.5 35t-33 54t-11.5 69.5v264q0 16 15 16h78q17 0 17 -15v-264q0 -32 21 -54.5t56 -22.5t56 22t21 55v263q0 16 16 16h77q17 0 17 -15v-413zM360 669 q5 7 10.5 10t13.5 -2l60 -33q11 -6 9 -14t-5 -12l-113 -123q-13 -14 -32 -4l-24 14q-14 7 -5 21zM218 669q5 7 10.5 10t13.5 -2l60 -33q11 -6 9 -14t-5 -12l-113 -123q-13 -14 -32 -4l-24 14q-14 7 -5 21z" />
<glyph unicode="&#x172;" horiz-adv-x="529" d="M172 174q0 -33 25 -56t67 -23t67 23t25 57v427q0 15 18 15h77q19 0 19 -14v-429q0 -40 -14.5 -72t-39.5 -55t-59 -36.5t-73 -15.5q-20 -23 -32 -51.5t-12 -51.5q0 -11 4.5 -18.5t18.5 -7.5q8 0 24 5.5t27 11.5q13 7 15 7q5 0 8 -5l17 -22q5 -7 1 -12t-10 -10 q-16 -13 -42 -23.5t-51 -10.5q-45 0 -64.5 21.5t-19.5 56.5q0 29 15.5 59.5t35.5 53.5q-35 6 -64 20t-50.5 36.5t-33.5 52.5t-12 67v428q0 15 18 15h77q8 0 13 -3t5 -11v-429v0z" />
<glyph unicode="&#x173;" horiz-adv-x="474" d="M421 16q0 -16 -16 -16h-32q-22 -23 -35.5 -53t-13.5 -55q0 -11 4.5 -18.5t18.5 -7.5q8 0 24 5.5t27 11.5q13 7 15 7q5 0 8 -5l17 -22q5 -7 1 -12t-10 -10q-16 -13 -42 -23.5t-51 -10.5q-45 0 -64.5 21.5t-19.5 56.5q0 16 5 33t13.5 33t19.5 30.5t22 25.5v7v11q0 4 -4 4 t-7 -3q-15 -14 -38.5 -23.5t-48.5 -9.5q-39 0 -70 12.5t-52.5 35t-33 54t-11.5 69.5v264q0 16 15 16h78q17 0 17 -15v-264q0 -32 21 -54.5t56 -22.5t56 22t21 55v263q0 16 16 16h77q17 0 17 -15v-413v0z" />
<glyph unicode="&#x174;" horiz-adv-x="720" d="M573 13q-4 -13 -23 -13h-80q-8 0 -14.5 2t-8.5 10l-70 322q-5 20 -8.5 39.5t-7.5 39.5q0 2 -2 2q-1 0 -1 -1q-2 0 -2 -1q-4 -22 -9 -45t-9 -46q-17 -78 -34 -154.5t-34 -154.5q-2 -8 -7.5 -10.5t-15.5 -2.5h-80q-9 0 -14 1.5t-8 9.5l-134 587v6q0 5 2.5 9t13.5 4h83 q16 0 18 -15l61 -306l19 -111q1 -3 3 -2.5t3 3.5l21 107l68 311q1 5 5 9t15 4h73q6 0 11 -3t7 -11q18 -78 37 -155.5t34 -155.5l22 -106q1 -5 3.5 -5.5t3.5 4.5q5 27 9.5 54.5t8.5 54.5q4 26 11.5 66.5t16 84.5t16.5 86t13 72q3 14 19 14h78q11 0 15 -4t4 -10q0 -4 -1 -7z M509 677q4 -5 5.5 -10t-6.5 -8l-32 -15q-8 -4 -12.5 -3.5t-9.5 5.5l-94 73q-7 6 -14 1l-93 -75q-5 -5 -9 -5.5t-12 3.5l-31 16q-8 3 -6.5 8t5.5 10l100 114q8 10 21 10h67q8 0 12.5 -2.5t9.5 -7.5z" />
<glyph unicode="&#x175;" horiz-adv-x="657" d="M527 18q-3 -11 -9.5 -14.5t-14.5 -3.5h-64q-11 0 -16.5 2.5t-9.5 14.5l-50 159l-33 122q-2 3 -4 4t-4 -4l-35 -129l-47 -153q-4 -12 -10.5 -14t-14.5 -2h-64q-11 0 -16.5 3t-9.5 14l-113 406q-4 8 -0.5 14.5t14.5 6.5h76q22 0 26 -19l32 -140l27 -126q1 -4 4 -4t5 4 l34 124l42 139q3 10 8 16t16 6h62q8 0 13.5 -3t10.5 -17l48 -157l30 -108q1 -3 4.5 -3.5t4.5 3.5l22 107l34 157q3 9 8.5 15t19.5 6h74q12 0 14.5 -7t0.5 -14zM483 527q4 -6 5.5 -11.5t-6.5 -9.5l-32 -17q-8 -5 -12.5 -4t-9.5 6l-94 90q-8 7 -14 1l-93 -92q-5 -5 -9 -6 t-12 4l-31 18q-8 4 -6.5 9.5t5.5 11.5l100 130q4 5 8.5 8t12.5 3h67q8 0 12.5 -3t9.5 -8z" />
<glyph unicode="&#x176;" horiz-adv-x="465" d="M108 617q11 0 17.5 -2.5t11.5 -13.5l90 -243q6 -6 9 -1q23 60 46 121t44 121q5 10 10.5 14t20.5 4h74q16 0 18 -6.5t-1 -13.5l-154 -356q-4 -8 -5 -13t-1 -13v-197q0 -18 -18 -18h-77q-18 0 -18 17v200q0 12 -5 22l-155 357q-3 8 -1.5 14.5t15.5 6.5h79zM384 677 q4 -5 5.5 -10t-6.5 -8l-32 -15q-8 -4 -12.5 -3.5t-9.5 5.5l-94 73q-7 6 -14 1l-93 -75q-5 -5 -9 -5.5t-12 3.5l-31 16q-8 3 -6.5 8t5.5 10l100 114q8 10 21 10h67q8 0 12.5 -2.5t9.5 -7.5z" />
<glyph unicode="&#x177;" horiz-adv-x="434" d="M240 -161q-3 -8 -10 -14.5t-19 -6.5h-65q-11 0 -15.5 6t0.5 20l43 139q2 8 1.5 12.5t-9.5 4.5h-11q-11 0 -16.5 5t-8.5 16l-116 403q-6 22 15 22h80q11 0 16 -5.5t8 -13.5l46 -187l29 -121q2 -8 6 -8t7 8l35 120l58 186q2 8 7.5 14.5t18.5 6.5h72q10 0 15 -7t1 -18z M373 527q4 -6 5.5 -11.5t-6.5 -9.5l-32 -17q-8 -5 -12.5 -4t-9.5 6l-94 90q-8 7 -14 1l-93 -92q-5 -5 -9 -6t-12 4l-31 18q-8 4 -6.5 9.5t5.5 11.5l100 130q4 5 8.5 8t12.5 3h67q8 0 12.5 -3t9.5 -8z" />
<glyph unicode="&#x178;" horiz-adv-x="465" d="M108 617q11 0 17.5 -2.5t11.5 -13.5l90 -243q6 -6 9 -1q23 60 46 121t44 121q5 10 10.5 14t20.5 4h74q16 0 18 -6.5t-1 -13.5l-154 -356q-4 -8 -5 -13t-1 -13v-197q0 -18 -18 -18h-77q-18 0 -18 17v200q0 12 -5 22l-155 357q-3 8 -1.5 14.5t15.5 6.5h79zM378 709 q0 -25 -17 -41.5t-43 -16.5t-43.5 16.5t-17.5 41.5t17.5 42t43.5 17q25 0 42.5 -17t17.5 -42zM202 709q0 -25 -17 -41.5t-43 -16.5t-43 16.5t-17 41.5t17 42t43 17t43 -17t17 -42z" />
<glyph unicode="&#x179;" horiz-adv-x="441" d="M414 16q0 -16 -17 -16h-338q-16 0 -22.5 7.5t-6.5 18.5v29q0 18 10 35q8 15 25.5 47.5t39.5 74t46.5 86.5t46.5 86.5t39.5 74t25.5 47.5q2 5 0.5 8.5t-8.5 3.5h-190q-16 0 -16 18v66q0 15 18 15h311q26 0 26 -22v-35q0 -12 -4.5 -24t-8.5 -20l-216 -403q-9 -12 5 -12h217 q7 0 12 -4t5 -13v-68zM352 746q8 -9 3.5 -16t-9.5 -9l-154 -78q-9 -5 -14 -2t-10 9l-20 26q-10 12 3 22l121 92q13 10 23 11.5t18 -8.5z" />
<glyph unicode="&#x17a;" horiz-adv-x="427" d="M395 16q0 -16 -16 -16h-320q-15 0 -21 6.5t-6 16.5v29q0 8 2.5 17.5t7.5 17.5l183 249q4 5 3 9t-8 4h-162q-17 0 -17 15v64q0 16 16 16h295q29 0 29 -23v-39q0 -8 -3 -17.5t-8 -16.5l-174 -239q-9 -14 8 -14h174q7 0 12 -4t5 -12v-63zM230 490q-5 -5 -11.5 -5.5 t-13.5 3.5l-28 17q-13 7 -6 21l87 143q4 7 11 9t13 -1l60 -33q11 -6 9 -14t-6 -12z" />
<glyph unicode="&#x17b;" horiz-adv-x="441" d="M414 16q0 -16 -17 -16h-338q-16 0 -22.5 7.5t-6.5 18.5v29q0 18 10 35q8 15 25.5 47.5t39.5 74t46.5 86.5t46.5 86.5t39.5 74t25.5 47.5q2 5 0.5 8.5t-8.5 3.5h-190q-16 0 -16 18v66q0 15 18 15h311q26 0 26 -22v-35q0 -12 -4.5 -24t-8.5 -20l-216 -403q-9 -12 5 -12h217 q7 0 12 -4t5 -13v-68zM291 715q0 -25 -17 -42t-43 -17t-43.5 16t-17.5 42q0 24 17.5 41.5t42.5 17.5q26 0 43.5 -17t17.5 -41z" />
<glyph unicode="&#x17c;" horiz-adv-x="427" d="M395 16q0 -16 -16 -16h-320q-15 0 -21 6.5t-6 16.5v29q0 8 2.5 17.5t7.5 17.5l183 249q4 5 3 9t-8 4h-162q-17 0 -17 15v64q0 16 16 16h295q29 0 29 -23v-39q0 -8 -3 -17.5t-8 -16.5l-174 -239q-9 -14 8 -14h174q7 0 12 -4t5 -12v-63zM284 559q0 -25 -17 -42t-43 -17 t-43.5 16t-17.5 42q0 24 17.5 41.5t42.5 17.5q26 0 43.5 -17t17.5 -41z" />
<glyph unicode="&#x17d;" horiz-adv-x="441" d="M414 16q0 -16 -17 -16h-338q-16 0 -22.5 7.5t-6.5 18.5v29q0 18 10 35q8 15 25.5 47.5t39.5 74t46.5 86.5t46.5 86.5t39.5 74t25.5 47.5q2 5 0.5 8.5t-8.5 3.5h-190q-16 0 -16 18v66q0 15 18 15h311q26 0 26 -22v-35q0 -12 -4.5 -24t-8.5 -20l-216 -403q-9 -12 5 -12h217 q7 0 12 -4t5 -13v-68zM291 654q-5 -5 -9.5 -7.5t-12.5 -2.5h-67q-13 0 -21 10l-100 114q-4 5 -5.5 10t6.5 8l31 16q8 4 12 3.5t9 -5.5l93 -75q7 -5 14 1l94 73q5 5 9.5 5.5t12.5 -3.5l32 -15q8 -3 6.5 -8t-5.5 -10z" />
<glyph unicode="&#x17e;" horiz-adv-x="427" d="M395 16q0 -16 -16 -16h-320q-15 0 -21 6.5t-6 16.5v29q0 8 2.5 17.5t7.5 17.5l183 249q4 5 3 9t-8 4h-162q-17 0 -17 15v64q0 16 16 16h295q29 0 29 -23v-39q0 -8 -3 -17.5t-8 -16.5l-174 -239q-9 -14 8 -14h174q7 0 12 -4t5 -12v-63zM271 496q-5 -5 -9.5 -8t-12.5 -3 h-67q-8 0 -12.5 3t-8.5 8l-100 130q-4 6 -5.5 11.5t6.5 9.5l31 18q8 5 12 4t9 -6l93 -92q6 -7 14 1l94 90q5 5 9.5 6t12.5 -4l32 -17q8 -4 6.5 -9.5t-5.5 -11.5z" />
<glyph unicode="&#x192;" horiz-adv-x="497" d="M317 280q-15 0 -15 -14l-28 -197q-7 -49 -22.5 -82t-37.5 -53.5t-49 -29t-56 -8.5q-21 0 -38.5 3t-29.5 6q-8 3 -14.5 7.5t-1.5 17.5l20 61q5 11 11.5 12.5t21.5 -1.5q38 -8 58 5t28 59l30 200q3 14 -9 14h-45q-9 0 -15 2.5t-6 12.5v59q1 17 22 17h56q14 0 14 12l13 84 q7 48 23 79.5t37.5 49.5t48 25t53.5 7q21 0 39.5 -3t29.5 -7q8 -2 14.5 -7t1.5 -18l-20 -60q-5 -11 -11.5 -13t-21.5 1q-35 10 -57.5 -3t-29.5 -60l-12 -76q-1 -5 0.5 -7.5t8.5 -2.5h55q10 0 16 -3.5t6 -14.5v-58q0 -11 -5.5 -13.5t-15.5 -2.5h-67z" />
<glyph unicode="&#x1fc;" horiz-adv-x="759" d="M711 101q16 0 16 -17v-68q0 -16 -16 -16h-342q-18 0 -18 15v108q0 6 -1.5 11.5t-12.5 5.5h-156q-8 0 -11 -4t-5 -9l-42 -113q-3 -8 -9 -11t-11 -3h-77q-13 0 -14.5 7t0.5 15q9 24 26.5 69.5t39.5 102t46 118.5t45.5 118.5t39 102t26.5 69.5q3 6 9 10.5t16 4.5h445 q16 0 16 -15v-66q0 -18 -15 -18h-227q-14 0 -14 -13v-124q0 -9 2.5 -12.5t11.5 -3.5h186q9 0 12 -3.5t3 -12.5v-66q0 -8 -3 -13t-12 -5h-187q-9 0 -11 -3.5t-2 -11.5v-134q0 -5 1.5 -10t12.5 -5h232zM206 245q-4 -9 6 -9h125q6 0 10 2.5t4 10.5v260q0 9 -10 9h-31 q-9 0 -11 -8zM602 746q8 -9 3.5 -16t-9.5 -9l-154 -78q-9 -5 -14 -2t-10 9l-20 26q-10 12 3 22l121 92q13 10 23 11.5t18 -8.5z" />
<glyph unicode="&#x1fd;" horiz-adv-x="715" d="M351 413q7 -5 11 -2q24 19 56 30t70 11q40 0 74.5 -12t59.5 -35t39 -55.5t14 -72.5v-47q0 -14 -8 -22t-20 -8h-216q-11 0 -15.5 -5t-4.5 -12v-15q0 -32 21 -55.5t56 -23.5q30 0 50.5 15t34.5 32q5 6 10 8.5t14 -3.5l49 -31q9 -6 13.5 -12t-0.5 -15q-26 -47 -71.5 -68 t-97.5 -21q-45 0 -80 13t-60 36q-6 6 -8.5 4t-6.5 -6q-23 -23 -54.5 -35t-73.5 -12q-36 0 -67 10.5t-53 30.5t-34.5 49t-12.5 65q0 35 12 64t33.5 50t53 32.5t70.5 11.5q19 0 41 -6.5t36 -16.5q5 -4 9.5 -3t4.5 9v14q0 30 -24 46.5t-61 16.5q-21 0 -49.5 -8.5t-47.5 -16.5 q-17 -7 -22 9l-18 49q-3 7 0 12.5t8 7.5q34 16 65 24t72 8q39 0 71.5 -10.5t56.5 -28.5zM292 153q-1 29 -21.5 50t-50.5 21q-32 0 -52.5 -20.5t-20.5 -50.5t20 -51t52 -21q35 0 54 22t19 50zM565 292q-4 30 -25.5 47.5t-50.5 17.5q-33 0 -53 -20.5t-23 -49.5q0 -14 17 -14 h121q8 0 11.5 5.5t1.5 13.5h1zM378 490q-5 -5 -11.5 -5.5t-13.5 3.5l-28 17q-13 7 -6 21l87 143q4 7 11 9t13 -1l60 -33q11 -6 9 -14t-6 -12z" />
<glyph unicode="&#x1fe;" horiz-adv-x="529" d="M119 2q-7 -12 -17 -6l-31 17q-7 4 -6.5 8.5t4.5 10.5l17 30q1 3 3 6.5t-2 6.5q-11 17 -20 43t-9 52v272q0 43 16 77t43.5 57.5t65.5 36t82 12.5q35 0 63.5 -7.5t56.5 -22.5q5 -2 7.5 -1.5t7.5 6.5l13 21q6 10 18 4l31 -16q7 -4 5.5 -9t-4.5 -10l-20 -35q-6 -9 0 -17 q12 -16 19 -39t7 -50v-277q0 -42 -16.5 -75.5t-44 -56t-64.5 -34.5t-78 -12q-36 0 -68 7t-54 21q-8 6 -12 0zM355 395q0 6 -1.5 6t-3.5 -3l-155 -270q-3 -7 1 -11q12 -11 29 -17.5t40 -6.5q38 0 64 23.5t26 58.5v220zM171 220q0 -6 3 -5.5t5 3.5l154 267q6 8 -1 15 q-11 13 -30 19.5t-39 6.5q-42 0 -67 -24.5t-25 -58.5v-223zM417 746q8 -9 3.5 -16t-9.5 -9l-154 -78q-9 -5 -14 -2t-10 9l-20 26q-10 12 3 22l121 92q13 10 23 11.5t18 -8.5z" />
<glyph unicode="&#x1ff;" horiz-adv-x="468" d="M400 382q-6 -7 -1 -13q12 -17 17 -39t5 -48v-116q0 -42 -14.5 -74t-39.5 -54t-59 -33t-74 -11q-63 0 -108 27q-5 2 -7.5 4t-6.5 -3l-19 -24q-6 -8 -17 1l-27 24q-2 2 -3.5 7.5t3.5 10.5l18 21q6 6 2 13l-6 12q-16 32 -16 75v120q0 38 13.5 69t38 53.5t59 35t75.5 12.5 q67 0 115 -31q5 -2 7 0l4 4l18 22q8 8 17 -1l25 -23q5 -3 6 -7.5t-4 -7.5zM156 181q0 -6 4 -2l123 152q5 6 -8 14q-19 11 -42 11q-32 0 -54.5 -21.5t-22.5 -55.5v-98zM189 118q-9 -11 -3 -14q20 -15 47 -15q34 0 55.5 20.5t22.5 55.5v97q0 2 -1 4t-4 -2zM255 490 q-5 -5 -11.5 -5.5t-13.5 3.5l-28 17q-13 7 -6 21l87 143q4 7 11 9t13 -1l60 -33q11 -6 9 -14t-6 -12z" />
<glyph unicode="&#x218;" horiz-adv-x="487" d="M453 177q0 -44 -16.5 -77.5t-45 -57t-68 -35.5t-84.5 -12q-55 0 -108.5 18t-91.5 57q-9 8 -10 15t8 18l39 44q9 10 15.5 8t16.5 -10q26 -23 62.5 -37t65.5 -14q54 0 78.5 22t24.5 56q0 21 -10 36t-28 27t-41.5 21.5t-50.5 18.5q-29 10 -57.5 23.5t-51.5 33.5t-37.5 48.5 t-14.5 68.5q0 41 15.5 73.5t42 55.5t61.5 35t75 12q50 0 93.5 -11t80.5 -35q11 -8 10.5 -14.5t-7.5 -17.5l-26 -48q-5 -8 -13 -9.5t-17 2.5q-29 15 -58.5 25t-56.5 10q-35 0 -61.5 -17t-26.5 -60q0 -18 10.5 -31.5t26 -23.5t34 -17t34.5 -13q32 -12 65.5 -25.5t60.5 -34 t44.5 -51.5t17.5 -77zM245 -205q-5 -13 -11 -17t-17 -4h-26q-14 0 -16.5 10t-2.5 19l11 134q1 11 7 19t20 8h58q19 0 23.5 -9t0.5 -24z" />
<glyph unicode="&#x219;" horiz-adv-x="413" d="M381 129q0 -32 -13 -57t-36 -42t-54 -26t-67 -9q-26 0 -52 4.5t-49.5 15t-43 27.5t-32.5 43q-3 6 -3 12t7 10l56 31q14 8 23 -4q40 -50 97 -50q20 0 39.5 11t19.5 31q0 17 -12 27t-35 18q-14 5 -33 10.5t-38 11.5q-49 17 -80 45t-31 78q0 33 13 58.5t35.5 42.5t51.5 25.5 t61 8.5q38 0 80 -12.5t74 -41.5q5 -5 4 -11.5t-5 -12.5l-32 -47q-5 -5 -11 -5q-5 0 -13 5t-18 10q-23 11 -43 17t-40 6q-22 0 -37 -10t-15 -29q0 -26 47 -42q29 -9 61.5 -19.5t60 -27t45.5 -41t18 -61.5zM218 -205q-5 -13 -11 -17t-17 -4h-26q-14 0 -16.5 10t-2.5 19l11 134 q1 11 7 19t20 8h58q19 0 23.5 -9t0.5 -24z" />
<glyph unicode="&#x259;" horiz-adv-x="458" d="M40 216q0 14 8 22t20 8h216q11 0 15.5 5t4.5 12v15q0 32 -21 55.5t-56 23.5q-30 0 -50.5 -15t-34.5 -32q-5 -6 -10 -8.5t-14 3.5l-49 31q-9 6 -13.5 12t0.5 15q13 23 32.5 40t42.5 28t49 16t52 5q86 0 134 -46.5t48 -123.5v-113q0 -39 -14 -71t-38.5 -55.5t-59 -36 t-75.5 -12.5t-75 12t-59 35t-39 55t-14 73v47zM150 154q4 -30 25.5 -47.5t50.5 -17.5q33 0 53 20.5t23 49.5q0 14 -17 14h-121q-8 0 -11.5 -5.5t-1.5 -13.5h-1z" />
<glyph unicode="&#x2b9;" horiz-adv-x="231" d="M84 379q-10 -16 -29 -5l-33 16q-10 6 -10 13.5t3 15.5l95 214q5 10 13.5 13.5t16.5 -0.5l65 -34q14 -7 12.5 -17.5t-6.5 -17.5z" />
<glyph unicode="&#x2c6;" horiz-adv-x="457" d="M387 527q4 -6 5.5 -11.5t-6.5 -9.5l-32 -17q-8 -5 -12.5 -4t-9.5 6l-94 90q-8 7 -14 1l-93 -92q-5 -5 -9 -6t-12 4l-31 18q-8 4 -6.5 9.5t5.5 11.5l100 130q4 5 8.5 8t12.5 3h67q8 0 12.5 -3t9.5 -8l99 -130v0z" />
<glyph unicode="&#x2c7;" horiz-adv-x="427" d="M302 496q-5 -5 -9.5 -8t-12.5 -3h-67q-8 0 -12.5 3t-8.5 8l-100 130q-4 6 -5.5 11.5t6.5 9.5l31 18q8 5 12 4t9 -6l93 -92q6 -7 14 1l94 90q5 5 9.5 6t12.5 -4l32 -17q8 -4 6.5 -9.5t-5.5 -11.5z" />
<glyph unicode="&#x2d8;" horiz-adv-x="470" d="M122 627q0 8 2.5 11t13.5 3h40q10 0 12.5 -2.5t2.5 -10.5q1 -26 15 -42t40 -16q27 0 41 16.5t18 42.5q1 8 3.5 10.5t12.5 2.5h36q10 0 12.5 -2t2.5 -13q-2 -26 -10 -49.5t-23.5 -41t-38.5 -28t-55 -10.5q-30 0 -52.5 10.5t-38.5 28.5t-24.5 41t-9.5 49z" />
<glyph unicode="&#x2d9;" horiz-adv-x="461" d="M313 559q0 -25 -17 -42t-43 -17t-43.5 16t-17.5 42q0 24 17.5 41.5t42.5 17.5q26 0 43.5 -17t17.5 -41z" />
<glyph unicode="&#x2da;" horiz-adv-x="462" d="M346 577q0 -18 -7 -34t-19 -27.5t-28.5 -18.5t-35.5 -7q-18 0 -34 7t-28 19t-18.5 27.5t-6.5 33.5q0 36 24.5 62t62.5 26q37 0 63.5 -25.5t26.5 -62.5zM294 577q0 15 -11.5 27t-26.5 12t-25.5 -11t-10.5 -28q0 -16 10.5 -26.5t25.5 -10.5q16 0 27 11t11 26z" />
<glyph unicode="&#x2db;" horiz-adv-x="453" d="M274 21q8 0 8 -7q0 -4 -3 -5q-26 -23 -42 -56.5t-16 -60.5q0 -11 4.5 -18.5t18.5 -7.5q8 0 24 5.5t27 11.5q13 7 15 7q5 0 8 -5l17 -22q5 -7 1 -12t-10 -10q-16 -13 -42 -23.5t-51 -10.5q-45 0 -64.5 21.5t-19.5 56.5q0 16 5.5 33t14 33.5t19.5 31.5t23 26q7 6 11.5 9 t11.5 3h40v0z" />
<glyph unicode="&#x2dc;" horiz-adv-x="457" d="M384 568q-16 -29 -41.5 -45t-49.5 -16q-18 0 -33.5 5t-30 10.5t-29 10.5t-29.5 5q-8 0 -21 -5.5t-25 -19.5q-5 -6 -9 -6t-11 6l-28 27q-8 8 -2 18q14 24 39.5 41t54.5 17q16 0 32 -5t32 -11.5t30.5 -11.5t26.5 -5q11 0 21 9.5t17 17.5q5 7 8.5 7.5t9.5 -3.5l34 -22 q7 -5 8 -9t-4 -15z" />
<glyph unicode="&#x2dd;" horiz-adv-x="468" d="M344 669q5 7 10.5 10t13.5 -2l60 -33q11 -6 9 -14t-5 -12l-113 -123q-13 -14 -32 -4l-24 14q-14 7 -5 21zM202 669q5 7 10.5 10t13.5 -2l60 -33q11 -6 9 -14t-5 -12l-113 -123q-13 -14 -32 -4l-24 14q-14 7 -5 21z" />
<glyph unicode="&#x384;" horiz-adv-x="455" d="M255 490q-5 -5 -11.5 -5.5t-13.5 3.5l-28 17q-13 7 -6 21l87 143q4 7 11 9t13 -1l60 -33q11 -6 9 -14t-6 -12z" />
<glyph unicode="&#x385;" horiz-adv-x="462" d="M451 563q0 -25 -17.5 -42t-42.5 -17q-26 0 -44 16.5t-18 41.5t17.5 42t43.5 17q25 0 43 -17t18 -41zM224 490q-5 -5 -11.5 -5.5t-13.5 3.5l-29 17q-12 7 -5 21l86 143q5 7 12 9t13 -1l60 -33q11 -6 9 -14t-6 -12zM163 563q0 -25 -17 -42t-43 -17t-43.5 16.5t-17.5 41.5 t17.5 42t42.5 17q26 0 43.5 -17t17.5 -41z" />
<glyph unicode="&#x386;" horiz-adv-x="482" d="M466 21q2 -5 0.5 -13t-15.5 -8h-81q-16 0 -20 13l-23 100q-2 8 -4.5 11t-8.5 3h-148q-8 0 -10 -4t-4 -9q-2 -8 -5 -21.5t-6.5 -29t-6.5 -29.5t-5 -21t-7.5 -10t-11.5 -3h-77q-14 0 -16.5 6t-0.5 14l146 583q5 14 21 14h114q7 0 12 -1.5t7 -11.5zM266 370l-24 115 q-1 4 -3.5 4.5t-3.5 -4.5l-23 -113l-31 -143q-1 -5 0 -7t7 -2h104q10 0 6 10zM-19 453q-5 -5 -11.5 -5.5t-13.5 3.5l-28 17q-13 7 -6 21l87 143q4 7 11 9t13 -1l60 -33q11 -6 9 -14t-6 -12z" />
<glyph unicode="&#x387;" horiz-adv-x="229" d="M181 330q0 -26 -19.5 -46t-46.5 -20q-28 0 -47.5 19.5t-19.5 45.5t19.5 45t46.5 19t47 -19t20 -44z" />
<glyph unicode="&#x388;" horiz-adv-x="468" d="M418 101q16 0 16 -17v-66q0 -18 -16 -18h-339q-18 0 -18 17v583q0 17 18 17h333q7 0 12 -3.5t5 -12.5v-65q0 -18 -16 -18h-223q-10 0 -13 -3t-3 -10v-120q0 -17 16 -17h184q16 0 16 -18v-64q0 -17 -16 -17h-185q-9 0 -12 -3.5t-3 -11.5v-138q0 -9 4 -12t14 -3h226z M-101 453q-5 -5 -11.5 -5.5t-13.5 3.5l-28 17q-13 7 -6 21l87 143q4 7 11 9t13 -1l60 -33q11 -6 9 -14t-6 -12z" />
<glyph unicode="&#x389;" horiz-adv-x="550" d="M374 602q0 15 17 15h77q19 0 19 -14v-587q0 -16 -18 -16h-77q-18 0 -18 15v235q0 17 -17 17h-163q-11 0 -14 -4.5t-3 -12.5v-234q0 -16 -18 -16h-77q-19 0 -19 15v587q0 15 19 15h77q8 0 13 -3t5 -11v-219q0 -11 2.5 -14.5t11.5 -3.5h167q9 0 12.5 3.5t3.5 14.5v218z M-101 453q-5 -5 -11.5 -5.5t-13.5 3.5l-28 17q-13 7 -6 21l87 143q4 7 11 9t13 -1l60 -33q11 -6 9 -14t-6 -12z" />
<glyph unicode="&#x38a;" horiz-adv-x="257" d="M88 0q-18 0 -18 15v587q0 15 18 15h78q18 0 18 -15v-586q0 -16 -18 -16h-78zM-81 453q-5 -5 -11.5 -5.5t-13.5 3.5l-28 17q-13 7 -6 21l87 143q4 7 11 9t13 -1l60 -33q11 -6 9 -14t-6 -12z" />
<glyph unicode="&#x38c;" horiz-adv-x="529" d="M469 176q0 -42 -15.5 -76t-42.5 -57.5t-64.5 -36t-81.5 -12.5t-81.5 12.5t-65 35.5t-43.5 57t-16 77v268q0 42 15.5 76t43 58t65 36.5t81.5 12.5q43 0 80 -12.5t65 -36t44 -57.5t16 -77v-268zM355 443q0 35 -22.5 59t-67.5 24t-69 -24t-24 -59v-266q0 -35 23.5 -58.5 t68.5 -23.5q42 0 66.5 23.5t24.5 58.5v266zM-59 453q-5 -5 -11.5 -5.5t-13.5 3.5l-28 17q-13 7 -6 21l87 143q4 7 11 9t13 -1l60 -33q11 -6 9 -14t-6 -12z" />
<glyph unicode="&#x38e;" horiz-adv-x="465" d="M108 617q11 0 17.5 -2.5t11.5 -13.5l90 -243q6 -6 9 -1q23 60 46 121t44 121q5 10 10.5 14t20.5 4h74q16 0 18 -6.5t-1 -13.5l-154 -356q-4 -8 -5 -13t-1 -13v-197q0 -18 -18 -18h-77q-18 0 -18 17v200q0 12 -5 22l-155 357q-3 8 -1.5 14.5t15.5 6.5h79zM-128 453 q-5 -5 -11.5 -5.5t-13.5 3.5l-28 17q-13 7 -6 21l87 143q4 7 11 9t13 -1l60 -33q11 -6 9 -14t-6 -12z" />
<glyph unicode="&#x38f;" horiz-adv-x="556" d="M488 97q16 0 16 -15v-67q0 -15 -16 -15h-156q-11 0 -15.5 3t-4.5 12v79q0 16 14 24q49 19 49 77v243q0 17 -5 33t-16.5 28.5t-30 20t-45.5 7.5q-25 0 -43.5 -8t-30.5 -20.5t-18 -28.5t-6 -32v-242q0 -30 13 -48.5t38 -30.5q8 -5 10 -10.5t2 -14.5v-76q0 -10 -4 -13 t-15 -3h-155q-17 0 -17 15v66q0 16 17 16h37q5 0 1 4q-25 17 -32.5 48t-7.5 62v228q0 40 15.5 74.5t43 60t66.5 39.5t86 14q101 0 156 -51t55 -137v-233q-1 -29 -10 -57.5t-31 -48.5q-2 -1 -1.5 -2t2.5 -1h39zM-61 453q-5 -5 -11.5 -5.5t-13.5 3.5l-28 17q-13 7 -6 21 l87 143q4 7 11 9t13 -1l60 -33q11 -6 9 -14t-6 -12z" />
<glyph unicode="&#x390;" horiz-adv-x="220" d="M167 16q0 -16 -16 -16h-78q-16 0 -16 15v413q0 16 15 16h78q7 0 12 -4t5 -12v-412zM318 563q0 -25 -17.5 -42t-42.5 -17q-26 0 -44 16.5t-18 41.5t17.5 42t43.5 17q25 0 43 -17t18 -41zM91 490q-5 -5 -11.5 -5.5t-13.5 3.5l-29 17q-12 7 -5 21l86 143q5 7 12 9t13 -1 l60 -33q11 -6 9 -14t-6 -12zM30 563q0 -25 -17 -42t-43 -17t-43.5 16.5t-17.5 41.5t17.5 42t42.5 17q26 0 43.5 -17t17.5 -41z" />
<glyph unicode="&#x391;" horiz-adv-x="482" d="M466 21q2 -5 0.5 -13t-15.5 -8h-81q-16 0 -20 13l-23 100q-2 8 -4.5 11t-8.5 3h-148q-8 0 -10 -4t-4 -9q-2 -8 -5 -21.5t-6.5 -29t-6.5 -29.5t-5 -21t-7.5 -10t-11.5 -3h-77q-14 0 -16.5 6t-0.5 14l146 583q5 14 21 14h114q7 0 12 -1.5t7 -11.5zM266 370l-24 115 q-1 4 -3.5 4.5t-3.5 -4.5l-23 -113l-31 -143q-1 -5 0 -7t7 -2h104q10 0 6 10z" />
<glyph unicode="&#x392;" horiz-adv-x="516" d="M461 454q0 -32 -19.5 -66.5t-48.5 -53.5q-4 -4 1 -6q45 -20 66 -59t21 -81t-13 -76.5t-37.5 -59.5t-59.5 -38.5t-80 -13.5h-213q-18 0 -18 17v583q0 17 18 17h202q84 0 132.5 -41.5t48.5 -121.5zM289 101q36 0 56 25t20 60q0 17 -4.5 33.5t-14.5 29.5t-26 21t-40 8h-92 q-9 0 -12 -3.5t-3 -11.5v-149q0 -8 3 -10.5t12 -2.5h101zM277 375q34 0 52 21.5t18 52.5q0 32 -19 50.5t-53 18.5h-90q-12 0 -12 -13v-114q0 -16 13 -16h91z" />
<glyph unicode="&#x393;" horiz-adv-x="441" d="M434 537q0 -15 -16 -15h-223q-10 0 -13 -4t-3 -11v-491q0 -16 -16 -16h-78q-16 0 -16 15v586q0 16 16 16h333q6 0 11 -3.5t5 -11.5v-65v0z" />
<glyph unicode="&#x394;" horiz-adv-x="489" d="M29 0q-11 0 -14 5.5t-1 13.5l156 584q3 14 19 14h109q16 0 18 -13l156 -582q2 -8 0.5 -15t-15.5 -7h-428zM330 106q-13 62 -28.5 121.5t-28.5 121.5q-7 33 -15 65.5t-15 64.5q0 4 -1.5 4t-3.5 -3q-6 -32 -14 -66t-15 -66l-54 -244q0 -5 0.5 -8t8.5 -3h158q5 0 7.5 4 t0.5 9z" />
<glyph unicode="&#x395;" horiz-adv-x="468" d="M418 101q16 0 16 -17v-66q0 -18 -16 -18h-339q-18 0 -18 17v583q0 17 18 17h333q7 0 12 -3.5t5 -12.5v-65q0 -18 -16 -18h-223q-10 0 -13 -3t-3 -10v-120q0 -17 16 -17h184q16 0 16 -18v-64q0 -17 -16 -17h-185q-9 0 -12 -3.5t-3 -11.5v-138q0 -9 4 -12t14 -3h226z" />
<glyph unicode="&#x396;" horiz-adv-x="441" d="M414 16q0 -16 -17 -16h-338q-16 0 -22.5 7.5t-6.5 18.5v29q0 18 10 35q8 15 25.5 47.5t39.5 74t46.5 86.5t46.5 86.5t39.5 74t25.5 47.5q2 5 0.5 8.5t-8.5 3.5h-190q-16 0 -16 18v66q0 15 18 15h311q26 0 26 -22v-35q0 -12 -4.5 -24t-8.5 -20l-216 -403q-9 -12 5 -12h217 q7 0 12 -4t5 -13v-68v0z" />
<glyph unicode="&#x397;" horiz-adv-x="550" d="M374 602q0 15 17 15h77q19 0 19 -14v-587q0 -16 -18 -16h-77q-18 0 -18 15v235q0 17 -17 17h-163q-11 0 -14 -4.5t-3 -12.5v-234q0 -16 -18 -16h-77q-19 0 -19 15v587q0 15 19 15h77q8 0 13 -3t5 -11v-219q0 -11 2.5 -14.5t11.5 -3.5h167q9 0 12.5 3.5t3.5 14.5v218z" />
<glyph unicode="&#x398;" horiz-adv-x="547" d="M488 178q0 -42 -15.5 -76t-44 -58t-68 -37t-86.5 -13q-48 0 -87.5 12.5t-68 36t-44 57.5t-15.5 78v263q0 42 16 76.5t44.5 58.5t68 37.5t85.5 13.5q100 0 157.5 -50t57.5 -136v-263zM375 439q0 35 -26 61t-75 26q-51 0 -76.5 -26t-25.5 -61v-260q0 -35 26 -60t75 -25 q51 0 76.5 25t25.5 60v260zM214 265q-16 0 -16 16v66q0 16 16 16h120q15 0 15 -16v-66q0 -16 -15 -16h-120z" />
<glyph unicode="&#x399;" horiz-adv-x="257" d="M88 0q-18 0 -18 15v587q0 15 18 15h78q18 0 18 -15v-586q0 -16 -18 -16h-78z" />
<glyph unicode="&#x39a;" horiz-adv-x="534" d="M485 16q0 -16 -14 -16h-80q-15 0 -16 15l-12 181q-1 16 -5.5 32.5t-14.5 30t-27 21.5t-43 8q-45 0 -70 -27t-25 -68l-1 -177q0 -16 -14 -16h-85q-14 0 -14 15v586q0 16 17 16h81q15 0 15 -15v-208q0 -8 4 -7t8 4l173 215q6 7 11 9t16 2h89q9 0 11.5 -5.5t-2.5 -12.5 l-175 -218q-8 -11 4 -11h15.5t15.5 -2q63 -10 94 -54t31 -111z" />
<glyph unicode="&#x39b;" horiz-adv-x="484" d="M270 351l-28 119q0 3 -2.5 4t-3.5 -4l-31 -140l-74 -316q-3 -14 -25 -14h-76q-14 0 -17 7t1 15q9 32 21.5 79t26.5 101t29 111t29.5 111t27 100.5t21.5 79.5q4 13 20 13h105q6 0 11.5 -2t7.5 -10q9 -33 21.5 -79.5t27 -100.5t29.5 -111.5t29.5 -111.5t27 -100.5 t21.5 -79.5q3 -6 1 -14t-16 -8h-83q-16 0 -19 13z" />
<glyph unicode="&#x39c;" horiz-adv-x="656" d="M602 17q0 -17 -18 -17h-73q-17 0 -17 15v319q0 5 -5 0l-41 -109l-73 -189q-4 -8 -9 -13t-15 -5h-46q-10 0 -16 2t-11 13l-71 187l-40 112q-1 1 -2.5 1.5t-1.5 -1.5v-317q0 -15 -18 -15h-73q-18 0 -18 17v580q0 20 21 20h62q12 0 18.5 -2t12.5 -15q3 -8 11.5 -29.5 t19.5 -50t23.5 -60.5t23 -60.5t19 -50t11.5 -29.5l49 -131q4 -10 9 0q2 7 9 26t15 40t15 40t10 26l108 279q8 17 31 17h59q21 0 21 -20v-580v0z" />
<glyph unicode="&#x39d;" horiz-adv-x="549" d="M135 617q14 0 20.5 -4t11.5 -14l208 -365q2 -2 3 -1.5t1 2.5v366q0 16 17 16h72q18 0 18 -16v-581q0 -12 -6 -16t-15 -4h-51q-12 0 -18.5 2t-12.5 13l-204 355q-2 5 -5 4.5t-3 -6.5v-354q0 -14 -19 -14h-72q-19 0 -19 14v579q0 24 23 24h51z" />
<glyph unicode="&#x39e;" horiz-adv-x="508" d="M464 18q0 -18 -16 -18h-386q-16 0 -16 18v64q0 19 16 19h120q10 0 14 3t4 12v134q0 8 -3 11.5t-12 3.5h-78q-9 0 -12 5t-3 13v64q0 9 3 13.5t12 4.5h77q16 0 16 16v124q0 7 -3 10t-14 3h-114q-16 0 -16 18v64q0 17 17 17h371q17 0 17 -17v-64q0 -18 -17 -18h-118 q-10 0 -13 -3t-3 -10v-124q0 -9 3 -12.5t13 -3.5h80q15 0 15 -18v-64q0 -18 -15 -18h-81q-9 0 -12 -3.5t-3 -11.5v-134q0 -9 4 -12t14 -3h123q16 0 16 -19v-64v0z" />
<glyph unicode="&#x39f;" horiz-adv-x="529" d="M469 176q0 -42 -15.5 -76t-42.5 -57.5t-64.5 -36t-81.5 -12.5t-81.5 12.5t-65 35.5t-43.5 57t-16 77v268q0 42 15.5 76t43 58t65 36.5t81.5 12.5q43 0 80 -12.5t65 -36t44 -57.5t16 -77v-268zM355 443q0 35 -22.5 59t-67.5 24t-69 -24t-24 -59v-266q0 -35 23.5 -58.5 t68.5 -23.5q42 0 66.5 23.5t24.5 58.5v266z" />
<glyph unicode="&#x3a0;" horiz-adv-x="570" d="M483 617q18 0 18 -16v-585q0 -16 -18 -16h-77q-18 0 -18 15v488q0 15 -17 15h-171q-11 0 -13.5 -3.5t-2.5 -11.5v-487q0 -16 -19 -16h-77q-19 0 -19 15v585q0 17 19 17h395v0z" />
<glyph unicode="&#x3a1;" horiz-adv-x="486" d="M460 432q0 -39 -14.5 -72t-40 -57t-60.5 -37.5t-77 -13.5h-80q-8 0 -10 -3.5t-2 -8.5v-224q0 -16 -18 -16h-77q-19 0 -19 16v586q0 15 19 15h186q45 0 80.5 -13.5t60.5 -38.5t38.5 -59t13.5 -74zM347 434q0 32 -20.5 58t-59.5 26h-78q-14 0 -14 -15v-137q0 -15 14 -15h78 q36 0 58 23t22 60z" />
<glyph unicode="&#x3a3;" horiz-adv-x="446" d="M406 101q16 0 16 -19v-64q0 -18 -16 -18h-342q-17 0 -21.5 8t-4.5 18v31q0 8 2.5 17t6.5 17l110 213q5 8 6.5 14.5t-4.5 17.5l-106 183q-5 7 -8 16.5t-3 18.5v39q0 10 5.5 17t22.5 7h318q17 0 17 -16v-65q0 -18 -16 -18h-196q-8 0 -9.5 -4t1.5 -9l94 -157q9 -17 9.5 -27 t-7.5 -24q-7 -12 -20.5 -37.5t-29 -53.5t-29.5 -53.5t-21 -37.5q-6 -14 10 -14h215z" />
<glyph unicode="&#x3a4;" horiz-adv-x="441" d="M423 536q0 -8 -3 -13t-12 -5h-118q-16 0 -16 -13l-1 -489q0 -16 -18 -16h-77q-18 0 -18 15l1 489q0 7 -2.5 10.5t-12.5 3.5h-112q-17 0 -17 18v64q0 17 17 17h374q15 0 15 -16v-65v0z" />
<glyph unicode="&#x3a5;" horiz-adv-x="465" d="M108 617q11 0 17.5 -2.5t11.5 -13.5l90 -243q6 -6 9 -1q23 60 46 121t44 121q5 10 10.5 14t20.5 4h74q16 0 18 -6.5t-1 -13.5l-154 -356q-4 -8 -5 -13t-1 -13v-197q0 -18 -18 -18h-77q-18 0 -18 17v200q0 12 -5 22l-155 357q-3 8 -1.5 14.5t15.5 6.5h79v0z" />
<glyph unicode="&#x3a6;" horiz-adv-x="616" d="M556 236q0 -35 -14.5 -65.5t-39.5 -54t-59.5 -38t-73.5 -17.5q-8 0 -8 -9v-37q0 -9 -4.5 -12t-13.5 -3h-75q-16 0 -16 14v39q0 8 -11 8q-40 3 -73.5 17t-57.5 37.5t-37.5 54t-13.5 66.5v163q0 36 14 66.5t38.5 53.5t58 37.5t73.5 18.5q8 0 8 6v21q0 15 17 15h75 q18 0 18 -14v-21q0 -7 8 -7q42 -3 76 -17t59 -37t38.5 -53.5t13.5 -67.5v-164zM449 388q0 16 -1.5 32t-10 29t-25 21.5t-46.5 9.5q-5 0 -5 -4v-315q0 -5 6 -5q36 4 59 25t23 52v155zM252 475q-1 5 -7 5q-40 -1 -60 -23.5t-20 -50.5v-159q0 -18 3 -34q6 -23 24 -38.5 t53 -18.5q7 0 7 5v314z" />
<glyph unicode="&#x3a7;" horiz-adv-x="480" d="M344 16q-25 49 -48.5 97.5t-48.5 97.5q-2 5 -5 5t-5 -5l-96 -195q-6 -12 -12.5 -14t-17.5 -2h-80q-18 0 -18 13q0 6 3 12l151 280q2 4 4 10.5t2 9.5q0 7 -7 18l-135 253q-2 6 -2 9q0 13 18 13h85q19 0 29 -17q2 -5 4.5 -10.5t5.5 -10.5l67 -143q4 -4 6 -4t5 5 q20 41 39 81t39 82q11 17 28 17h81q18 0 18 -12q0 -3 -1 -6t-3 -7l-135 -254q-4 -10 -4 -16t5 -16q38 -71 77 -143t77 -143q3 -5 3 -9q0 -12 -19 -12h-81q-11 0 -17.5 2.5t-11.5 13.5z" />
<glyph unicode="&#x3a8;" horiz-adv-x="611" d="M372 228q27 4 49 25t22 50v299q0 16 19 16h76q8 0 13 -3.5t5 -11.5v-297q0 -36 -14.5 -66.5t-39 -54t-57.5 -38.5t-70 -18q-15 -3 -15 -14v-99q0 -16 -17 -16h-77q-17 0 -17 15v99q0 5 -2.5 9t-10.5 6q-38 3 -71 17.5t-57 37.5t-38 54.5t-14 67.5v296q0 16 17 16h76 q8 0 13 -3.5t5 -11.5v-300q0 -28 21 -48t47 -23q13 -3 13 9v370q0 16 18 16h76q8 0 13 -3.5t5 -12.5v-372q0 -14 13 -11h-1z" />
<glyph unicode="&#x3a9;" horiz-adv-x="556" d="M488 97q16 0 16 -15v-67q0 -15 -16 -15h-156q-11 0 -15.5 3t-4.5 12v79q0 16 14 24q49 19 49 77v243q0 17 -5 33t-16.5 28.5t-30 20t-45.5 7.5q-25 0 -43.5 -8t-30.5 -20.5t-18 -28.5t-6 -32v-242q0 -30 13 -48.5t38 -30.5q8 -5 10 -10.5t2 -14.5v-76q0 -10 -4 -13 t-15 -3h-155q-17 0 -17 15v66q0 16 17 16h37q5 0 1 4q-25 17 -32.5 48t-7.5 62v228q0 40 15.5 74.5t43 60t66.5 39.5t86 14q101 0 156 -51t55 -137v-233q-1 -29 -10 -57.5t-31 -48.5q-2 -1 -1.5 -2t2.5 -1h39z" />
<glyph unicode="&#x3aa;" horiz-adv-x="257" d="M88 0q-18 0 -18 15v587q0 15 18 15h78q18 0 18 -15v-586q0 -16 -18 -16h-78zM269 709q0 -25 -17 -41.5t-43 -16.5t-43.5 16.5t-17.5 41.5t17.5 42t43.5 17q25 0 42.5 -17t17.5 -42zM93 709q0 -25 -17 -41.5t-43 -16.5t-43 16.5t-17 41.5t17 42t43 17t43 -17t17 -42z" />
<glyph unicode="&#x3ab;" horiz-adv-x="465" d="M108 617q11 0 17.5 -2.5t11.5 -13.5l90 -243q6 -6 9 -1q23 60 46 121t44 121q5 10 10.5 14t20.5 4h74q16 0 18 -6.5t-1 -13.5l-154 -356q-4 -8 -5 -13t-1 -13v-197q0 -18 -18 -18h-77q-18 0 -18 17v200q0 12 -5 22l-155 357q-3 8 -1.5 14.5t15.5 6.5h79zM376 709 q0 -25 -17 -41.5t-43 -16.5t-43.5 16.5t-17.5 41.5t17.5 42t43.5 17q25 0 42.5 -17t17.5 -42zM200 709q0 -25 -17 -41.5t-43 -16.5t-43 16.5t-17 41.5t17 42t43 17t43 -17t17 -42z" />
<glyph unicode="&#x3ac;" horiz-adv-x="455" d="M420 16q0 -16 -16 -16h-77q-14 0 -16 12v7q-2 11 -13 3q-13 -11 -33.5 -19t-40.5 -8q-86 0 -131.5 46t-45.5 121v117q0 35 11.5 66.5t33 55t52.5 37t70 13.5q22 0 41 -5.5t32 -14.5q11 -9 15 -10q9 -5 12 3l3 12q3 8 11 8h75q17 0 17 -15v-413zM311 279q0 32 -19.5 54 t-56.5 22q-33 0 -56 -21.5t-23 -53.5v-117q0 -32 22 -54.5t55 -22.5q38 0 57.5 22.5t19.5 54.5zM255 490q-5 -5 -11.5 -5.5t-13.5 3.5l-28 17q-13 7 -6 21l87 143q4 7 11 9t13 -1l60 -33q11 -6 9 -14t-6 -12z" />
<glyph unicode="&#x3ad;" horiz-adv-x="416" d="M218 88q22 0 45.5 10.5t40.5 28.5q9 8 16 11.5t16 -5.5l43 -41q8 -8 9 -15t-3 -12q-35 -42 -80.5 -57t-91.5 -15q-38 0 -70 8.5t-55 26.5t-36 45.5t-13 64.5q0 22 14 47t40 37q3 2 3 4.5t-3 4.5q-25 8 -38 30t-13 47q0 34 14 61t37 45.5t54 28t66 9.5q48 0 91.5 -15 t73.5 -57q5 -6 6 -13t-7 -13l-46 -39q-9 -8 -16 -6t-16 11q-16 19 -38 27.5t-42 8.5q-26 0 -46.5 -12.5t-20.5 -35.5t15.5 -31t36.5 -8h60q5 0 9.5 -3t4.5 -10v-56q0 -13 -14 -13h-62q-21 0 -36.5 -11t-15.5 -34q0 -26 22 -40t46 -14zM239 490q-5 -5 -11.5 -5.5t-13.5 3.5 l-28 17q-13 7 -6 21l87 143q4 7 11 9t13 -1l60 -33q11 -6 9 -14t-6 -12z" />
<glyph unicode="&#x3ae;" horiz-adv-x="480" d="M427 16q0 -16 -15 -16h-78q-16 0 -16 15v263q0 34 -18 55.5t-60 21.5q-35 0 -55.5 -21.5t-20.5 -54.5v-263q0 -16 -17 -16h-77q-16 0 -16 15v413q0 16 16 16h78q14 0 14 -15v-8t1 -7q2 -11 11 0q17 16 46.5 26t55.5 10q79 0 115 -47.5t36 -122.5v-264zM228 490 q-5 -5 -11.5 -5.5t-13.5 3.5l-28 17q-13 7 -6 21l87 143q4 7 11 9t13 -1l60 -33q11 -6 9 -14t-6 -12z" />
<glyph unicode="&#x3af;" horiz-adv-x="213" d="M167 16q0 -16 -16 -16h-78q-16 0 -16 15v413q0 16 15 16h78q7 0 12 -4t5 -12v-412zM128 490q-5 -5 -11.5 -5.5t-13.5 3.5l-28 17q-13 7 -6 21l87 143q4 7 11 9t13 -1l60 -33q11 -6 9 -14t-6 -12z" />
<glyph unicode="&#x3b0;" horiz-adv-x="454" d="M420 164q0 -38 -13.5 -70t-37.5 -54.5t-58.5 -35t-76.5 -12.5t-77 12t-59.5 34.5t-38 54.5t-13.5 71v264q0 16 16 16h77q17 0 17 -16v-264q0 -31 21 -54t56 -23t56 22.5t21 54.5v264q0 16 16 16h78q16 0 16 -16v-264zM441 563q0 -25 -17.5 -42t-42.5 -17q-26 0 -44 16.5 t-18 41.5t17.5 42t43.5 17q25 0 43 -17t18 -41zM214 490q-5 -5 -11.5 -5.5t-13.5 3.5l-29 17q-12 7 -5 21l86 143q5 7 12 9t13 -1l60 -33q11 -6 9 -14t-6 -12zM153 563q0 -25 -17 -42t-43 -17t-43.5 16.5t-17.5 41.5t17.5 42t42.5 17q26 0 43.5 -17t17.5 -41z" />
<glyph unicode="&#x3b1;" horiz-adv-x="474" d="M420 16q0 -16 -16 -16h-77q-14 0 -16 12v7q-2 11 -13 3q-13 -11 -33.5 -19t-40.5 -8q-86 0 -131.5 46t-45.5 121v117q0 35 11.5 66.5t33 55t52.5 37t70 13.5q22 0 41 -5.5t32 -14.5q11 -9 15 -10q9 -5 12 3l3 12q3 8 11 8h75q17 0 17 -15v-413zM311 279q0 32 -19.5 54 t-56.5 22q-33 0 -56 -21.5t-23 -53.5v-117q0 -32 22 -54.5t55 -22.5q38 0 57.5 22.5t19.5 54.5z" />
<glyph unicode="&#x3b2;" horiz-adv-x="480" d="M433 164q0 -37 -13 -68t-36 -54t-55 -36t-70 -13q-25 0 -43.5 6.5t-35.5 17.5q-11 7 -11 -5v-142q0 -16 -16 -16h-77q-16 0 -16 15v588q0 39 12.5 72t36 57t56.5 38t75 14q39 0 72.5 -11t58 -32t38.5 -52t14 -71q0 -15 -3 -31.5t-9.5 -32.5t-16.5 -29t-23 -20q-7 -4 0 -7 q32 -11 47 -41.5t15 -65.5v-81zM324 245q0 32 -22 52t-56 20h-26q-14 0 -14 14v55q0 14 13 14h30q27 0 46 18t19 46q0 31 -16.5 54t-54.5 23q-33 0 -53.5 -21.5t-20.5 -53.5v-301q0 -32 22.5 -54.5t54.5 -22.5q33 0 55.5 22t22.5 54v81z" />
<glyph unicode="&#x3b3;" horiz-adv-x="433" d="M165 363q13 -48 25 -94t24 -94q1 -6 6 -6q4 0 6 6q6 20 16.5 56t22.5 74t22 71t14 48q3 7 8.5 12.5t19.5 5.5h73q16 0 16 -13q0 -6 -1 -8q-31 -87 -62.5 -172t-60.5 -171q-7 -20 -13.5 -44.5t-6.5 -44.5v-154q0 -16 -17 -16h-77q-16 0 -16 15v143q0 18 -2.5 31t-4.5 21 q-18 63 -37.5 126t-38.5 127q-4 10 -6.5 19.5t-6.5 20.5q-3 10 -9 19t-20 9h-6q-8 0 -11.5 2.5t-5.5 12.5l-10 53q-3 12 12 17q22 9 37 12t27 3q38 0 54.5 -21.5t28.5 -65.5z" />
<glyph unicode="&#x3b4;" horiz-adv-x="462" d="M418 161q0 -40 -14.5 -71.5t-40 -53t-60 -33t-74.5 -11.5t-74 11.5t-58.5 33.5t-38.5 52t-14 68v109q2 39 19.5 76t52.5 54q5 2 6.5 3.5t1.5 3.5q0 4 -8 10q-29 25 -36.5 48.5t-7.5 37.5q0 35 12.5 61t35 43t53 25.5t66.5 8.5q42 -1 76 -7t67 -22q18 -8 11 -25l-19 -49 q-5 -11 -10.5 -12.5t-13.5 0.5q-23 5 -48.5 13.5t-55.5 8.5q-21 0 -40.5 -9.5t-19.5 -30.5q0 -14 11.5 -25t28 -20.5t34.5 -17l30 -12.5q28 -12 51.5 -27.5t40.5 -36t26.5 -47.5t9.5 -62v-95zM308 255q0 29 -14.5 54.5t-56.5 37.5q-6 2 -11 2q-6 0 -13 -3q-29 -11 -44.5 -34 t-15.5 -52v-99q0 -32 20.5 -53.5t55.5 -21.5q38 0 58.5 21t20.5 54v94z" />
<glyph unicode="&#x3b5;" horiz-adv-x="403" d="M218 88q22 0 45.5 10.5t40.5 28.5q9 8 16 11.5t16 -5.5l43 -41q8 -8 9 -15t-3 -12q-35 -42 -80.5 -57t-91.5 -15q-38 0 -70 8.5t-55 26.5t-36 45.5t-13 64.5q0 22 14 47t40 37q3 2 3 4.5t-3 4.5q-25 8 -38 30t-13 47q0 34 14 61t37 45.5t54 28t66 9.5q48 0 91.5 -15 t73.5 -57q5 -6 6 -13t-7 -13l-46 -39q-9 -8 -16 -6t-16 11q-16 19 -38 27.5t-42 8.5q-26 0 -46.5 -12.5t-20.5 -35.5t15.5 -31t36.5 -8h60q5 0 9.5 -3t4.5 -10v-56q0 -13 -14 -13h-62q-21 0 -36.5 -11t-15.5 -34q0 -26 22 -40t46 -14z" />
<glyph unicode="&#x3b6;" horiz-adv-x="406" d="M405 618q17 0 22 -7.5t5 -19.5v-35q0 -11 -3.5 -20.5t-11.5 -14.5q-39 -27 -86.5 -66t-88 -83t-68 -90.5t-27.5 -88.5q0 -29 17.5 -50t44 -36.5t58 -27t60.5 -22.5q38 -14 62 -33.5t21 -52.5q-2 -22 -16 -56.5t-47 -82.5q-4 -5 -7.5 -8.5t-8.5 -3.5q-4 0 -10 3l-43 21 q-8 4 -12 7.5t2 14.5q14 25 22 46t8 30q0 10 -6.5 17.5t-23.5 12.5q-33 10 -74 25t-76.5 38.5t-59.5 58t-24 85.5q0 52 22 100t55.5 91t73 79.5t74.5 65.5q2 2 2 4q0 3 -5 3h-168q-20 0 -20 19v59q0 18 20 18h317z" />
<glyph unicode="&#x3b7;" horiz-adv-x="480" d="M427 16q0 -16 -15 -16h-78q-16 0 -16 15v263q0 33 -21 55.5t-56 22.5t-56 -22t-21 -55v-263q0 -16 -17 -16h-77q-16 0 -16 15v413q0 16 15 16h78q8 0 10.5 -3.5t3.5 -11.5l1 -9q1 -5 4.5 -5t7.5 3q17 15 38 24t48 9q39 0 70 -12.5t52.5 -35.5t33 -54.5t11.5 -68.5v-264v0 z" />
<glyph unicode="&#x3b8;" horiz-adv-x="463" d="M420 167q0 -39 -13.5 -70.5t-38 -54.5t-59 -35.5t-76.5 -12.5t-76.5 12.5t-59 35t-38 54t-13.5 70.5v298q0 39 13.5 70.5t38 54t59 35t76.5 12.5t76.5 -12.5t59 -35t38 -54t13.5 -69.5v-298zM310 268q0 9 -2.5 11.5t-10.5 2.5h-129q-12 0 -12 -13v-103q0 -32 21 -54 t56 -22q32 0 54.5 22t22.5 54v102zM310 464q0 32 -22.5 54t-54.5 22q-34 0 -56 -21.5t-22 -53.5v-79q0 -16 15 -16h127q14 0 13 14v80z" />
<glyph unicode="&#x3b9;" horiz-adv-x="224" d="M167 16q0 -16 -16 -16h-78q-16 0 -16 15v413q0 16 15 16h78q7 0 12 -4t5 -12v-412v0z" />
<glyph unicode="&#x3ba;" horiz-adv-x="475" d="M433 18v-3q0 -15 -16 -15h-76q-10 0 -13 4t-4 12l-5 93q-1 18 -5 33.5t-12.5 27t-23 18.5t-36.5 7q-23 0 -38 -7.5t-24 -20t-12.5 -28.5t-3.5 -33v-92q0 -14 -15 -14h-81q-13 0 -13 14v414q0 16 15 16h78q15 0 15 -15v-123q0 -8 4.5 -9t8.5 3l117 133q6 6 10.5 7.5 t15.5 1.5h97q9 0 11 -6t-3 -11q-31 -35 -61.5 -69t-62.5 -68q-3 -6 -3 -7q0 -5 6 -5q36 -2 59.5 -16t38 -36.5t20.5 -52t8 -61.5z" />
<glyph unicode="&#x3bb;" horiz-adv-x="482" d="M426 16q0 -16 -16 -16h-77q-15 0 -15 15v265q0 31 -22 53t-56 22q-33 0 -55 -21.5t-22 -53.5v-264q0 -16 -16 -16h-78q-16 0 -16 15v264q0 37 12.5 68.5t35.5 54t54 35.5t69 13q21 0 43 -6.5t38 -21.5q8 -7 10.5 -4t2.5 6v40q0 32 -25 54.5t-60 22.5q-26 0 -43.5 -3.5 t-40.5 -11.5q-14 -5 -24 -7.5t-14 7.5l-18 52q-5 13 -2 18.5t13 10.5q24 14 62.5 21.5t73.5 7.5q89 0 137.5 -47.5t48.5 -123.5v-449v0z" />
<glyph unicode="&#x3bc;" horiz-adv-x="482" d="M422 15q0 -15 -16 -15h-75q-16 0 -16 15v8q0 5 -3 6.5t-8 -2.5q-17 -15 -38 -24t-43 -9q-30 0 -51 15q-14 10 -14 -6v-168q0 -16 -16 -16h-77q-16 0 -16 15v58.5v107.5v132v131.5v107v57.5q0 16 16 16h77q16 0 16 -15v-265q0 -31 22 -53t55 -22q34 0 55.5 21t21.5 53v265 q0 16 16 16h77q17 0 17 -15v-414v0z" />
<glyph unicode="&#x3bd;" horiz-adv-x="432" d="M275 13q-4 -13 -24 -13h-70q-11 0 -16 3t-9 14l-142 405q-4 8 -0.5 15t14.5 7h73q12 0 19 -5.5t9 -13.5l50 -170l33 -121q2 -5 4.5 -5t4.5 4l31 118l50 170q2 6 7.5 14.5t19.5 8.5h75q11 0 14 -7.5t1 -13.5z" />
<glyph unicode="&#x3be;" horiz-adv-x="396" d="M142 169q0 -38 33.5 -58t102.5 -37q35 -9 56.5 -19.5t33.5 -22.5t16 -25t4 -26q0 -20 -12.5 -56.5t-47.5 -92.5q-5 -11 -15 -10t-13 3l-49 24q-12 5 -13 11t4 16q19 35 24.5 52.5t5.5 22.5q0 15 -25 23q-46 15 -86.5 29t-71 33.5t-48 47.5t-17.5 72q0 46 25.5 86.5 t78.5 61.5q3 3 3 4q0 2 -4 3q-42 16 -59 44.5t-17 57.5q0 34 22.5 62t68.5 47q4 2 4 3q0 3 -8 3h-90q-20 0 -20 20v59q0 17 20 17h319q14 0 22.5 -4t8.5 -20v-33q0 -13 -3 -21t-16 -11q-43 -9 -80.5 -21.5t-65 -27.5t-43.5 -32.5t-16 -38.5q0 -30 26 -46t61 -16h88 q8 0 14 -3.5t6 -11.5v-53q0 -18 -20 -18h-92q-22 0 -42.5 -6.5t-36.5 -19t-26 -31t-10 -41.5z" />
<glyph unicode="&#x3bf;" horiz-adv-x="468" d="M420 165q0 -84 -50.5 -127.5t-135.5 -43.5q-86 0 -136.5 45t-50.5 123v120q0 38 13.5 69t38 53.5t58.5 35t76 12.5q85 0 136 -44t51 -126v-117zM311 279q0 35 -20 56t-58 21q-37 0 -57 -21.5t-20 -55.5v-113q0 -34 19.5 -55.5t57.5 -21.5q36 0 57 21t21 56v113z" />
<glyph unicode="&#x3c0;" horiz-adv-x="479" d="M424 16q0 -16 -15 -16h-77q-16 0 -16 15v317q0 7 -3.5 12t-12.5 5h-121q-11 0 -14 -3.5t-3 -11.5v-318q0 -16 -16 -16h-77q-16 0 -16 15v413q0 16 16 16h339q16 0 16 -15v-413v0z" />
<glyph unicode="&#x3c1;" horiz-adv-x="465" d="M421 165q0 -36 -11.5 -67.5t-32.5 -54.5t-51 -36.5t-68 -13.5q-26 0 -49 6.5t-34 15.5q-9 8 -13.5 6t-4.5 -8v-178q0 -16 -16 -16h-78q-16 0 -17 15v440q0 79 49 128.5t143 49.5q49 0 83.5 -13.5t56.5 -36.5t32.5 -55t10.5 -68v-114zM310 282q0 35 -19 54.5t-58 19.5 q-33 0 -55 -21.5t-22 -56.5l1 -112q0 -32 20.5 -54.5t55.5 -22.5q39 0 58.5 22t18.5 55v116z" />
<glyph unicode="&#x3c2;" horiz-adv-x="425" d="M382 130q0 -34 -14 -59.5t-37.5 -42.5t-55 -25.5t-65.5 -8.5q-52 0 -98 20.5t-72 70.5q-5 8 -4 13t9 10l57 32q10 6 16 1.5t10 -9.5q33 -47 84 -47q26 0 43 11t17 31q0 11 -6.5 18.5t-17.5 13.5t-26 11.5t-33 11.5q-21 8 -45.5 18t-45.5 25t-35 36t-14 51q0 33 13 59 t35.5 44t52 28t63.5 10q43 0 79 -7.5t58 -18.5q8 -3 14 -9t2 -18l-17 -51q-5 -15 -14.5 -15t-20.5 5q-20 8 -48 14.5t-49 6.5q-28 0 -45 -11t-17 -28q0 -27 47 -42q28 -10 60 -21t58.5 -27.5t44 -40.5t17.5 -60z" />
<glyph unicode="&#x3c3;" horiz-adv-x="471" d="M458 365q0 -15 -16 -15h-45q-8 0 -10 -4.5t2 -8.5q14 -14 20 -31t6 -34v-106q0 -39 -13.5 -71t-38 -54.5t-58.5 -34.5t-76 -12t-77 12t-59.5 34.5t-38 54t-13.5 70.5v107q0 38 12.5 69.5t36 54.5t57 35.5t75.5 12.5h219q17 0 17 -15v-64zM305 272q0 32 -22 54.5t-54 22.5 q-35 0 -57 -22t-22 -54v-107q0 -32 21.5 -54.5t56.5 -22.5q32 0 54 22t22 54z" />
<glyph unicode="&#x3c4;" horiz-adv-x="344" d="M325 28q3 -13 -3.5 -17.5t-14.5 -6.5q-13 -4 -38 -6.5t-48 -2.5q-65 0 -96.5 37.5t-31.5 91.5v220q0 11 -12 11h-51q-17 0 -17 15v58q0 16 16 16h267q16 0 16 -15v-58q0 -15 -16 -15h-83q-12 0 -12 -11v-203q0 -24 10 -36.5t34 -12.5q8 0 20 1.5t20 3.5q15 5 21 1.5 t8 -13.5l11 -58v0z" />
<glyph unicode="&#x3c5;" horiz-adv-x="463" d="M420 164q0 -38 -13.5 -70t-37.5 -54.5t-58.5 -35t-76.5 -12.5t-77 12t-59.5 34.5t-38 54.5t-13.5 71v264q0 16 16 16h77q17 0 17 -16v-264q0 -31 21 -54t56 -23t56 22.5t21 54.5v264q0 16 16 16h78q16 0 16 -16v-264v0z" />
<glyph unicode="&#x3c6;" horiz-adv-x="588" d="M544 160q0 -35 -14 -65t-39 -52.5t-58 -36t-71 -16.5q-9 -1 -11 -4.5t-2 -9.5v-141q0 -16 -16 -16h-77q-16 0 -16 15v141q0 5 -2.5 9.5t-10.5 5.5q-38 3 -71.5 16t-58 34.5t-38.5 51t-14 64.5v128q0 54 27.5 95t74.5 59q17 7 23 -6l32 -59q5 -9 1.5 -15t-11.5 -10 q-20 -9 -28.5 -26.5t-8.5 -35.5v-125q0 -30 21 -50.5t53 -23.5q6 -1 8 1t2 10v337q0 16 17 16h89q41 0 77 -12t63 -34t43 -54t16 -71v-120zM433 277q0 29 -19 49.5t-54 25.5q-12 0 -12 -10v-243q0 -8 4.5 -10t9.5 -1q29 5 50 24.5t21 48.5v116z" />
<glyph unicode="&#x3c7;" horiz-adv-x="408" d="M404 17q4 -6 -0.5 -11.5t-15.5 -5.5h-71q-11 0 -18 4t-15 17l-69 118q-5 8 -9 8t-9 -9l-70 -122q-7 -11 -14 -13.5t-17 -2.5h-70q-9 0 -13 3.5t-4 8.5q0 6 3 9l123 192q7 11 6.5 18.5t-6.5 16.5l-111 171q-6 10 -2.5 16.5t14.5 6.5h74q12 0 17 -2t12 -13l61 -107 q5 -7 7 -7q3 0 8 8l60 106q7 11 12.5 13t16.5 2h74q17 0 17 -11q0 -2 -1 -6t-3 -6l-111 -170q-8 -12 -7.5 -18.5t6.5 -17.5z" />
<glyph unicode="&#x3c8;" horiz-adv-x="586" d="M543 165q0 -35 -13.5 -65.5t-37.5 -54t-56.5 -38t-70.5 -18.5q-9 0 -12 -4.5t-3 -10.5v-139q0 -16 -16 -16h-77q-16 0 -16 15v141q0 6 -2.5 9.5t-13.5 4.5q-38 4 -70.5 18.5t-56.5 37.5t-37.5 53t-13.5 66v264q0 16 15 16h78q16 0 16 -15v-264q0 -29 19.5 -52.5 t51.5 -26.5q7 0 10 2.5t3 10.5v350q0 16 16 16h78q6 0 10.5 -4t4.5 -12v-349q0 -8 3 -11t12 -2q32 3 50.5 26t18.5 51v264q0 16 16 16h77q6 0 11.5 -3.5t5.5 -11.5v-264v0z" />
<glyph unicode="&#x3c9;" horiz-adv-x="652" d="M607 163q0 -79 -43.5 -124t-119.5 -45q-35 0 -62.5 11.5t-43.5 31.5q-9 11 -14.5 10.5t-13.5 -10.5q-17 -20 -45.5 -31.5t-60.5 -11.5q-77 0 -119 43t-42 120v127q0 37 13.5 68t37.5 53t57.5 34t73.5 12q18 0 18 -16v-61q0 -6 -3 -10t-12 -5q-40 -4 -58 -25t-18 -53v-121 q0 -41 17.5 -57t42.5 -16q28 0 44.5 23t16.5 52v133q0 15 15 15h72q16 0 16 -14v-134q0 -30 15.5 -52t46.5 -22q26 0 43 17.5t17 50.5v123q0 33 -18 54.5t-57 25.5q-16 2 -16 15v61q0 16 18 16q40 0 73.5 -12.5t57.5 -35t37.5 -54t13.5 -68.5v-118z" />
<glyph unicode="&#x3ca;" horiz-adv-x="224" d="M167 16q0 -16 -16 -16h-78q-16 0 -16 15v413q0 16 15 16h78q7 0 12 -4t5 -12v-412zM262 555q0 -25 -17 -42t-42 -17q-26 0 -44 16.5t-18 41.5t17.5 42t43.5 17q25 0 42.5 -17t17.5 -41zM26 496q-26 0 -43 16.5t-17 41.5t17 42t43 17t43 -17t18 -41q0 -25 -17.5 -42 t-43.5 -17z" />
<glyph unicode="&#x3cb;" horiz-adv-x="463" d="M420 164q0 -38 -13.5 -70t-37.5 -54.5t-58.5 -35t-76.5 -12.5t-77 12t-59.5 34.5t-38 54.5t-13.5 71v264q0 16 16 16h77q17 0 17 -16v-264q0 -31 21 -54t56 -23t56 22.5t21 54.5v264q0 16 16 16h78q16 0 16 -16v-264zM381 555q0 -25 -17 -42t-42 -17q-26 0 -44 16.5 t-18 41.5t17.5 42t43.5 17q25 0 42.5 -17t17.5 -41zM145 496q-26 0 -43 16.5t-17 41.5t17 42t43 17t43 -17t18 -41q0 -25 -17.5 -42t-43.5 -17z" />
<glyph unicode="&#x3cc;" horiz-adv-x="468" d="M420 165q0 -84 -50.5 -127.5t-135.5 -43.5q-86 0 -136.5 45t-50.5 123v120q0 38 13.5 69t38 53.5t58.5 35t76 12.5q85 0 136 -44t51 -126v-117zM311 279q0 35 -20 56t-58 21q-37 0 -57 -21.5t-20 -55.5v-113q0 -34 19.5 -55.5t57.5 -21.5q36 0 57 21t21 56v113zM246 490 q-5 -5 -11.5 -5.5t-13.5 3.5l-28 17q-13 7 -6 21l87 143q4 7 11 9t13 -1l60 -33q11 -6 9 -14t-6 -12z" />
<glyph unicode="&#x3cd;" horiz-adv-x="463" d="M420 164q0 -38 -13.5 -70t-37.5 -54.5t-58.5 -35t-76.5 -12.5t-77 12t-59.5 34.5t-38 54.5t-13.5 71v264q0 16 16 16h77q17 0 17 -16v-264q0 -31 21 -54t56 -23t56 22.5t21 54.5v264q0 16 16 16h78q16 0 16 -16v-264zM244 490q-5 -5 -11.5 -5.5t-13.5 3.5l-28 17 q-13 7 -6 21l87 143q4 7 11 9t13 -1l60 -33q11 -6 9 -14t-6 -12z" />
<glyph unicode="&#x3ce;" horiz-adv-x="652" d="M607 163q0 -79 -43.5 -124t-119.5 -45q-35 0 -62.5 11.5t-43.5 31.5q-9 11 -14.5 10.5t-13.5 -10.5q-17 -20 -45.5 -31.5t-60.5 -11.5q-77 0 -119 43t-42 120v127q0 37 13.5 68t37.5 53t57.5 34t73.5 12q18 0 18 -16v-61q0 -6 -3 -10t-12 -5q-40 -4 -58 -25t-18 -53v-121 q0 -41 17.5 -57t42.5 -16q28 0 44.5 23t16.5 52v133q0 15 15 15h72q16 0 16 -14v-134q0 -30 15.5 -52t46.5 -22q26 0 43 17.5t17 50.5v123q0 33 -18 54.5t-57 25.5q-16 2 -16 15v61q0 16 18 16q40 0 73.5 -12.5t57.5 -35t37.5 -54t13.5 -68.5v-118zM323 490 q-5 -5 -11.5 -5.5t-13.5 3.5l-28 17q-13 7 -6 21l87 143q4 7 11 9t13 -1l60 -33q11 -6 9 -14t-6 -12z" />
<glyph unicode="&#x401;" horiz-adv-x="468" d="M418 101q16 0 16 -17v-66q0 -18 -16 -18h-339q-18 0 -18 17v583q0 17 18 17h333q7 0 12 -3.5t5 -12.5v-65q0 -18 -16 -18h-223q-10 0 -13 -3t-3 -10v-120q0 -17 16 -17h184q16 0 16 -18v-64q0 -17 -16 -17h-185q-9 0 -12 -3.5t-3 -11.5v-138q0 -9 4 -12t14 -3h226z M391 709q0 -25 -17 -41.5t-43 -16.5t-43.5 16.5t-17.5 41.5t17.5 42t43.5 17q25 0 42.5 -17t17.5 -42zM215 709q0 -25 -17 -41.5t-43 -16.5t-43 16.5t-17 41.5t17 42t43 17t43 -17t17 -42z" />
<glyph unicode="&#x402;" horiz-adv-x="635" d="M461 217q0 17 -4.5 33t-16 28t-29.5 19t-45 7q-26 0 -49 -7.5t-38 -19.5q-4 -3 -6.5 -8t-2.5 -16v-238q0 -15 -19 -15h-76q-18 0 -18 14v490q0 6 -1.5 9.5t-12.5 3.5h-105q-16 0 -16 18v65q0 17 16 17h420q15 0 15 -17v-65q0 -18 -15 -18h-173q-9 0 -12 -3t-3 -9v-122 q0 -5 4 -4.5t7 2.5q37 14 61 18t51 4q84 0 133.5 -47t49.5 -130q0 -22 0.5 -43.5t0.5 -43.5q0 -37 -8 -70.5t-28 -60t-53.5 -44.5t-84.5 -23h-15.5t-8.5 14l-7 60q0 8 3 12t17 8q43 11 56 36t13 65v81z" />
<glyph unicode="&#x403;" horiz-adv-x="441" d="M434 537q0 -15 -16 -15h-223q-10 0 -13 -4t-3 -11v-491q0 -16 -16 -16h-78q-16 0 -16 15v586q0 16 16 16h333q6 0 11 -3.5t5 -11.5v-65zM365 746q8 -9 3.5 -16t-9.5 -9l-154 -78q-9 -5 -14 -2t-10 9l-20 26q-10 12 3 22l121 92q13 10 23 11.5t18 -8.5z" />
<glyph unicode="&#x404;" horiz-adv-x="477" d="M174 378q0 -8 2.5 -11.5t10.5 -3.5h162q9 0 12 -4.5t3 -13.5v-58q0 -8 -3 -13t-12 -5h-163q-8 0 -10 -2.5t-2 -10.5v-86q0 -32 23.5 -53.5t62.5 -21.5q28 0 51 12.5t39 32.5l10 10t15 0l62 -35q6 -4 8.5 -10.5t-1.5 -13.5q-32 -53 -80.5 -75t-105.5 -22q-42 0 -78.5 12 t-62.5 34.5t-41 55t-15 73.5v282q0 40 14.5 72.5t40.5 55.5t61.5 35.5t77.5 12.5q53 0 101.5 -19.5t83.5 -72.5q3 -6 3 -12.5t-8 -13.5l-58 -40q-17 -8 -27 8q-37 49 -93 49q-37 0 -60 -21.5t-23 -53.5v-73z" />
<glyph unicode="&#x405;" horiz-adv-x="487" d="M453 177q0 -44 -16.5 -77.5t-45 -57t-68 -35.5t-84.5 -12q-55 0 -108.5 18t-91.5 57q-9 8 -10 15t8 18l39 44q9 10 15.5 8t16.5 -10q26 -23 62.5 -37t65.5 -14q54 0 78.5 22t24.5 56q0 21 -10 36t-28 27t-41.5 21.5t-50.5 18.5q-29 10 -57.5 23.5t-51.5 33.5t-37.5 48.5 t-14.5 68.5q0 41 15.5 73.5t42 55.5t61.5 35t75 12q50 0 93.5 -11t80.5 -35q11 -8 10.5 -14.5t-7.5 -17.5l-26 -48q-5 -8 -13 -9.5t-17 2.5q-29 15 -58.5 25t-56.5 10q-35 0 -61.5 -17t-26.5 -60q0 -18 10.5 -31.5t26 -23.5t34 -17t34.5 -13q32 -12 65.5 -25.5t60.5 -34 t44.5 -51.5t17.5 -77z" />
<glyph unicode="&#x406;" horiz-adv-x="257" d="M88 0q-18 0 -18 15v587q0 15 18 15h78q18 0 18 -15v-586q0 -16 -18 -16h-78z" />
<glyph unicode="&#x407;" horiz-adv-x="257" d="M88 0q-18 0 -18 15v587q0 15 18 15h78q18 0 18 -15v-586q0 -16 -18 -16h-78zM269 709q0 -25 -17 -41.5t-43 -16.5t-43.5 16.5t-17.5 41.5t17.5 42t43.5 17q25 0 42.5 -17t17.5 -42zM93 709q0 -25 -17 -41.5t-43 -16.5t-43 16.5t-17 41.5t17 42t43 17t43 -17t17 -42z" />
<glyph unicode="&#x408;" horiz-adv-x="309" d="M-4 -77q-2 8 -0.5 13.5t12.5 10.5q30 12 51.5 26t35 32t20 42t6.5 57v500q0 13 15 13h82q15 0 15 -13v-509q0 -46 -9.5 -85.5t-32 -71t-59 -54.5t-91.5 -36q-8 -2 -15.5 0t-9.5 13z" />
<glyph unicode="&#x409;" horiz-adv-x="829" d="M472 617q17 0 18 -16v-215q1 -5 3 -7.5t10 -2.5h102q43 0 79 -14.5t61.5 -39.5t39.5 -59.5t14 -73.5q0 -41 -13.5 -75.5t-39 -59.5t-61.5 -39.5t-81 -14.5h-208q-12 0 -15.5 4.5t-3.5 12.5v488q0 13 -13 13h-115q-12 0 -12 -15v-74q0 -115 -6.5 -192.5t-25.5 -128 t-53 -79.5t-89 -47q-11 -4 -16.5 -1t-10.5 14l-20 52q-4 9 0 14.5t12 10.5q33 16 52.5 36.5t30.5 58t14.5 99t3.5 159.5v175q0 17 18 17h325zM688 187q0 40 -23.5 64.5t-62.5 24.5h-97q-15 0 -15 -14v-152q2 -10 15 -10h98q37 0 61 25.5t24 61.5z" />
<glyph unicode="&#x40a;" horiz-adv-x="793" d="M652 187q0 42 -24.5 65.5t-59.5 23.5h-100q-8 0 -11 -3t-3 -12v-146q0 -15 14 -15h100q37 0 60.5 24.5t23.5 62.5zM763 189q0 -41 -13.5 -75.5t-39 -59.5t-61.5 -39.5t-81 -14.5h-209q-18 0 -18 16v247q0 6 -2 9.5t-12 3.5h-135q-9 0 -12 -4t-3 -12v-244q0 -16 -17 -16 h-77q-19 0 -19 16v586q0 15 19 15h76q18 0 18 -14v-210q0 -10 2 -13.5t11 -3.5h139q12 0 12 17v210q0 14 18 14h77q18 0 18 -14v-215q0 -5 2 -8.5t10 -3.5h108q43 0 78 -14.5t60 -39.5t38 -59.5t13 -73.5z" />
<glyph unicode="&#x40b;" horiz-adv-x="629" d="M458 617q15 0 15 -17v-65q0 -18 -15 -18h-174q-9 0 -12 -3t-3 -9v-122q0 -3 3 -4t5 1q23 9 51.5 16t63.5 7q85 0 134.5 -47t49.5 -130v-211q0 -15 -19 -15h-77q-19 0 -19 14v190q0 19 -4 37.5t-14.5 32t-29 22t-48.5 8.5q-25 0 -48 -7.5t-37 -19.5q-5 -3 -8 -8t-3 -16 v-238q0 -15 -18 -15h-76q-19 0 -19 14q0 123 0.5 245t0.5 245q0 6 -2 9.5t-12 3.5h-106q-16 0 -16 18v65q0 17 16 17h421v0z" />
<glyph unicode="&#x40c;" horiz-adv-x="534" d="M485 16q0 -16 -14 -16h-80q-15 0 -16 15l-12 181q-1 16 -5.5 32.5t-14.5 30t-27 21.5t-43 8q-45 0 -70 -27t-25 -68l-1 -177q0 -16 -14 -16h-85q-14 0 -14 15v586q0 16 17 16h81q15 0 15 -15v-208q0 -8 4 -7t8 4l173 215q6 7 11 9t16 2h89q9 0 11.5 -5.5t-2.5 -12.5 l-175 -218q-8 -11 4 -11h15.5t15.5 -2q63 -10 94 -54t31 -111zM393 749q8 -9 3.5 -16t-9.5 -9l-154 -78q-9 -5 -14 -2t-10 9l-20 26q-10 12 3 22l121 92q13 10 23 11.5t18 -8.5z" />
<glyph unicode="&#x40e;" horiz-adv-x="463" d="M106 618q11 0 18 -2.5t9 -13.5q2 -9 9.5 -33l17.5 -56t21 -67.5t21 -67.5l17.5 -56t10.5 -33q1 -3 4 -3t3 2q24 84 48 162t47 151q3 10 9 13.5t20 3.5h69q16 0 18.5 -6.5t-1.5 -17.5l-157 -456q-13 -37 -25.5 -65.5t-30 -48t-42 -29.5t-62.5 -10h-43q-11 0 -14.5 3.5 t-3.5 14.5v58q0 11 3.5 13.5t11.5 2.5h22q21 0 34 5t23 23q6 11 8 18.5t2 14.5q0 5 -1 9.5t-3 9.5l-153 436q-9 25 17 25h73zM109 759q0 8 2.5 11t13.5 3h40q10 0 12.5 -2.5t2.5 -10.5q1 -26 15 -42t40 -16q27 0 41 16.5t18 42.5q1 8 3.5 10.5t12.5 2.5h36q10 0 12.5 -2 t2.5 -13q-2 -26 -10 -49.5t-23.5 -41t-38.5 -28t-55 -10.5q-30 0 -52.5 10.5t-38.5 28.5t-24.5 41t-9.5 49z" />
<glyph unicode="&#x40f;" horiz-adv-x="570" d="M89 0q-19 0 -19 18v583q0 16 17 16h81q16 0 16 -17v-484q0 -16 16 -16h171q11 0 14 4t3 12v485q0 16 16 16h82q9 0 12 -4.5t3 -12.5v-583q0 -17 -18 -17h-127q-10 0 -13 -3.5t-4 -10.5l1 -110q-1 -17 -7.5 -20t-14.5 -3h-62q-11 0 -15 5t-6 19v110q-1 7 -3.5 10t-14.5 3 h-128v0z" />
<glyph unicode="&#x410;" horiz-adv-x="482" d="M466 21q2 -5 0.5 -13t-15.5 -8h-81q-16 0 -20 13l-23 100q-2 8 -4.5 11t-8.5 3h-148q-8 0 -10 -4t-4 -9q-2 -8 -5 -21.5t-6.5 -29t-6.5 -29.5t-5 -21t-7.5 -10t-11.5 -3h-77q-14 0 -16.5 6t-0.5 14l146 583q5 14 21 14h114q7 0 12 -1.5t7 -11.5zM266 370l-24 115 q-1 4 -3.5 4.5t-3.5 -4.5l-23 -113l-31 -143q-1 -5 0 -7t7 -2h104q10 0 6 10z" />
<glyph unicode="&#x411;" horiz-adv-x="508" d="M173 387q0 -13 14 -13h99q45 0 81.5 -14.5t61.5 -39.5t38.5 -59t13.5 -73q0 -41 -14 -75.5t-39.5 -59.5t-61.5 -39t-80 -14h-207q-17 0 -17 16v583q0 11 5 14.5t13 3.5h326q7 0 12 -4t5 -12v-65q0 -17 -17 -17h-218q-9 0 -12 -3.5t-3 -10.5v-118zM276 97q39 0 66.5 23 t27.5 66q0 48 -27 69.5t-69 21.5h-85q-16 0 -16 -17v-147q0 -8 3 -12t13 -4h87z" />
<glyph unicode="&#x412;" horiz-adv-x="516" d="M461 454q0 -32 -19.5 -66.5t-48.5 -53.5q-4 -4 1 -6q45 -20 66 -59t21 -81t-13 -76.5t-37.5 -59.5t-59.5 -38.5t-80 -13.5h-213q-18 0 -18 17v583q0 17 18 17h202q84 0 132.5 -41.5t48.5 -121.5zM289 101q36 0 56 25t20 60q0 17 -4.5 33.5t-14.5 29.5t-26 21t-40 8h-92 q-9 0 -12 -3.5t-3 -11.5v-149q0 -8 3 -10.5t12 -2.5h101zM277 375q34 0 52 21.5t18 52.5q0 32 -19 50.5t-53 18.5h-90q-12 0 -12 -13v-114q0 -16 13 -16h91z" />
<glyph unicode="&#x413;" horiz-adv-x="441" d="M434 537q0 -15 -16 -15h-223q-10 0 -13 -4t-3 -11v-491q0 -16 -16 -16h-78q-16 0 -16 15v586q0 16 16 16h333q6 0 11 -3.5t5 -11.5v-65v0z" />
<glyph unicode="&#x414;" horiz-adv-x="585" d="M249 517q-5 0 -7 -4t-2 -7q-1 -18 -3 -49.5t-4 -65.5t-4.5 -64.5t-3.5 -46.5q-2 -18 -4 -41t-6 -46.5t-10.5 -46t-16.5 -39.5q-2 -4 0.5 -5t5.5 -1h183q2 0 6 1t4 8v395q0 12 -15 12h-123zM111 -119q-2 -14 -7 -17t-13 -3h-62q-10 0 -14.5 3t-5.5 14v182q0 16 4.5 23 t16.5 12q2 0 9 2.5t9 2.5q18 6 30 21t20 38.5t12.5 53.5t8.5 66q2 15 5 50.5t6 80.5t5.5 94t4.5 91q2 14 7.5 18t16.5 4h316q11 0 15.5 -4t4.5 -18v-485q0 -2 1.5 -5.5t6.5 -4.5h25q12 -1 14.5 -7t2.5 -16v-196q-1 -14 -6.5 -17t-13.5 -3h-63q-11 0 -15.5 4t-6.5 16v108 q0 8 -5.5 9.5t-10.5 1.5h-300q-11 0 -13.5 -2.5t-4.5 -12.5v-104z" />
<glyph unicode="&#x415;" horiz-adv-x="468" d="M418 101q16 0 16 -17v-66q0 -18 -16 -18h-339q-18 0 -18 17v583q0 17 18 17h333q7 0 12 -3.5t5 -12.5v-65q0 -18 -16 -18h-223q-10 0 -13 -3t-3 -10v-120q0 -17 16 -17h184q16 0 16 -18v-64q0 -17 -16 -17h-185q-9 0 -12 -3.5t-3 -11.5v-138q0 -9 4 -12t14 -3h226z" />
<glyph unicode="&#x416;" horiz-adv-x="804" d="M62 204q4 61 33.5 104t91.5 54q13 3 29 3q6 0 7 3t-4 8l-174 223q-5 7 -3 12.5t12 5.5h88q12 0 16.5 -2t10.5 -9l166 -213q2 -3 6 -4.5t5 5.5v208q0 15 15 15h80q17 0 17 -16v-208q0 -8 4 -6.5t8 5.5l165 214q6 7 10.5 9t15.5 2h89q9 0 11.5 -5.5t-2.5 -12.5l-175 -223 q-4 -5 -3 -8.5t7 -3.5t13 -0.5t13 -1.5q67 -11 97 -55.5t34 -111.5l12 -179q1 -16 -14 -16h-80q-15 0 -16 15l-13 180q-1 16 -6 32.5t-15 30t-26 21.5t-40 8q-44 0 -66.5 -28.5t-22.5 -66.5v-177q0 -15 -14 -15h-84q-14 0 -14 16v179q0 41 -21 66.5t-67 25.5q-24 0 -40.5 -8 t-27 -21.5t-15.5 -30t-6 -32.5l-12 -180q-2 -15 -16 -15h-80q-15 0 -14 16z" />
<glyph unicode="&#x417;" horiz-adv-x="497" d="M242 627q47 0 83.5 -12.5t61 -34t37.5 -52t13 -66.5q0 -41 -22 -76.5t-57 -49.5q-2 -1 -2.5 -3t1.5 -4q37 -12 64.5 -49t27.5 -88q0 -47 -16 -83.5t-45 -62t-68.5 -39t-86.5 -13.5q-29 0 -58 4t-55 14.5t-48.5 27.5t-38.5 44q-4 8 -3.5 13.5t8.5 11.5l53 39q9 6 14.5 5 t13.5 -10q15 -20 45 -34t64 -14q46 0 74.5 25t28.5 67q0 46 -29 71t-74 25h-64q-16 0 -16 17v58q0 9 3 13.5t13 4.5h75q36 0 59.5 21t23.5 56q0 28 -21.5 50t-69.5 22q-21 0 -48 -9.5t-50 -31.5q-6 -5 -14.5 -10.5t-16.5 1.5l-46 42q-9 6 -8.5 12.5t4.5 11.5q35 47 84 66.5 t106 19.5z" />
<glyph unicode="&#x418;" horiz-adv-x="549" d="M62 600q0 17 19 17h74q18 0 18 -17v-375q0 -3 1.5 -2.5t2.5 2.5q52 93 102 186.5t101 185.5q6 10 13 15t20 5h56q18 0 18 -17v-583q0 -17 -18 -17h-74q-18 0 -18 17v375q0 3 -1 3h-1l-1 -2q-51 -94 -102.5 -188t-102.5 -188q-7 -12 -13 -14.5t-19 -2.5h-56q-19 0 -19 17 v583z" />
<glyph unicode="&#x419;" horiz-adv-x="549" d="M62 600q0 17 19 17h74q18 0 18 -17v-375q0 -3 1.5 -2.5t2.5 2.5q52 93 102 186.5t101 185.5q6 10 13 15t20 5h56q18 0 18 -17v-583q0 -17 -18 -17h-74q-18 0 -18 17v375q0 3 -1 3h-1l-1 -2q-51 -94 -102.5 -188t-102.5 -188q-7 -12 -13 -14.5t-19 -2.5h-56q-19 0 -19 17 v583zM151 759q0 8 2.5 11t13.5 3h40q10 0 12.5 -2.5t2.5 -10.5q1 -26 15 -42t40 -16q27 0 41 16.5t18 42.5q1 8 3.5 10.5t12.5 2.5h36q10 0 12.5 -2t2.5 -13q-2 -26 -10 -49.5t-23.5 -41t-38.5 -28t-55 -10.5q-30 0 -52.5 10.5t-38.5 28.5t-24.5 41t-9.5 49z" />
<glyph unicode="&#x41a;" horiz-adv-x="534" d="M485 16q0 -16 -14 -16h-80q-15 0 -16 15l-12 181q-1 16 -5.5 32.5t-14.5 30t-27 21.5t-43 8q-45 0 -70 -27t-25 -68l-1 -177q0 -16 -14 -16h-85q-14 0 -14 15v586q0 16 17 16h81q15 0 15 -15v-208q0 -8 4 -7t8 4l173 215q6 7 11 9t16 2h89q9 0 11.5 -5.5t-2.5 -12.5 l-175 -218q-8 -11 4 -11h15.5t15.5 -2q63 -10 94 -54t31 -111z" />
<glyph unicode="&#x41b;" horiz-adv-x="562" d="M132 600q0 17 18 17h331q18 0 18 -17v-584q0 -16 -18 -16h-77q-18 0 -18 16v488q0 8 -3 11t-12 3h-121q-8 0 -10 -3.5t-2 -11.5v-94q0 -108 -7 -182t-26.5 -122.5t-53.5 -76.5t-89 -46q-11 -4 -15.5 -1.5t-9.5 12.5l-21 52q-4 10 -2 16t13 11q32 16 52.5 36t32 56t16 94 t4.5 151v191v0z" />
<glyph unicode="&#x41c;" horiz-adv-x="656" d="M602 17q0 -17 -18 -17h-73q-17 0 -17 15v319q0 5 -5 0l-41 -109l-73 -189q-4 -8 -9 -13t-15 -5h-46q-10 0 -16 2t-11 13l-71 187l-40 112q-1 1 -2.5 1.5t-1.5 -1.5v-317q0 -15 -18 -15h-73q-18 0 -18 17v580q0 20 21 20h62q12 0 18.5 -2t12.5 -15q3 -8 11.5 -29.5 t19.5 -50t23.5 -60.5t23 -60.5t19 -50t11.5 -29.5l49 -131q4 -10 9 0q2 7 9 26t15 40t15 40t10 26l108 279q8 17 31 17h59q21 0 21 -20v-580v0z" />
<glyph unicode="&#x41d;" horiz-adv-x="550" d="M374 602q0 15 17 15h77q19 0 19 -14v-587q0 -16 -18 -16h-77q-18 0 -18 15v235q0 17 -17 17h-163q-11 0 -14 -4.5t-3 -12.5v-234q0 -16 -18 -16h-77q-19 0 -19 15v587q0 15 19 15h77q8 0 13 -3t5 -11v-219q0 -11 2.5 -14.5t11.5 -3.5h167q9 0 12.5 3.5t3.5 14.5v218z" />
<glyph unicode="&#x41e;" horiz-adv-x="529" d="M469 176q0 -42 -15.5 -76t-42.5 -57.5t-64.5 -36t-81.5 -12.5t-81.5 12.5t-65 35.5t-43.5 57t-16 77v268q0 42 15.5 76t43 58t65 36.5t81.5 12.5q43 0 80 -12.5t65 -36t44 -57.5t16 -77v-268zM355 443q0 35 -22.5 59t-67.5 24t-69 -24t-24 -59v-266q0 -35 23.5 -58.5 t68.5 -23.5q42 0 66.5 23.5t24.5 58.5v266z" />
<glyph unicode="&#x41f;" horiz-adv-x="570" d="M483 617q18 0 18 -16v-585q0 -16 -18 -16h-77q-18 0 -18 15v488q0 15 -17 15h-171q-11 0 -13.5 -3.5t-2.5 -11.5v-487q0 -16 -19 -16h-77q-19 0 -19 15v585q0 17 19 17h395v0z" />
<glyph unicode="&#x420;" horiz-adv-x="486" d="M460 432q0 -39 -14.5 -72t-40 -57t-60.5 -37.5t-77 -13.5h-80q-8 0 -10 -3.5t-2 -8.5v-224q0 -16 -18 -16h-77q-19 0 -19 16v586q0 15 19 15h186q45 0 80.5 -13.5t60.5 -38.5t38.5 -59t13.5 -74zM347 434q0 32 -20.5 58t-59.5 26h-78q-14 0 -14 -15v-137q0 -15 14 -15h78 q36 0 58 23t22 60z" />
<glyph unicode="&#x421;" horiz-adv-x="472" d="M256 -6q-44 0 -80 12.5t-62 35.5t-40.5 56t-14.5 74v277q0 40 14.5 73t40.5 56t61.5 36t77.5 13q52 0 99.5 -18.5t85.5 -72.5q5 -6 4.5 -13t-9.5 -13l-54 -41q-8 -5 -15.5 -2t-11.5 10q-34 50 -95 50q-42 0 -63.5 -24.5t-21.5 -57.5v-273q0 -32 22 -54.5t64 -22.5 q28 0 52 13.5t41 33.5l10.5 10.5t15.5 -0.5l60 -37q7 -4 9.5 -10.5t-1.5 -13.5q-35 -53 -83.5 -75t-105.5 -22z" />
<glyph unicode="&#x422;" horiz-adv-x="441" d="M423 536q0 -8 -3 -13t-12 -5h-118q-16 0 -16 -13l-1 -489q0 -16 -18 -16h-77q-18 0 -18 15l1 489q0 7 -2.5 10.5t-12.5 3.5h-112q-17 0 -17 18v64q0 17 17 17h374q15 0 15 -16v-65v0z" />
<glyph unicode="&#x423;" horiz-adv-x="463" d="M106 618q11 0 18 -2.5t9 -13.5q2 -9 9.5 -33l17.5 -56t21 -67.5t21 -67.5l17.5 -56t10.5 -33q1 -3 4 -3t3 2q24 84 48 162t47 151q3 10 9 13.5t20 3.5h69q16 0 18.5 -6.5t-1.5 -17.5l-157 -456q-13 -37 -25.5 -65.5t-30 -48t-42 -29.5t-62.5 -10h-43q-11 0 -14.5 3.5 t-3.5 14.5v58q0 11 3.5 13.5t11.5 2.5h22q21 0 34 5t23 23q6 11 8 18.5t2 14.5q0 5 -1 9.5t-3 9.5l-153 436q-9 25 17 25h73z" />
<glyph unicode="&#x424;" horiz-adv-x="616" d="M556 236q0 -35 -14.5 -65.5t-39.5 -54t-59.5 -38t-73.5 -17.5q-8 0 -8 -9v-37q0 -9 -4.5 -12t-13.5 -3h-75q-16 0 -16 14v39q0 8 -11 8q-40 3 -73.5 17t-57.5 37.5t-37.5 54t-13.5 66.5v163q0 36 14 66.5t38.5 53.5t58 37.5t73.5 18.5q8 0 8 6v21q0 15 17 15h75 q18 0 18 -14v-21q0 -7 8 -7q42 -3 76 -17t59 -37t38.5 -53.5t13.5 -67.5v-164zM449 388q0 16 -1.5 32t-10 29t-25 21.5t-46.5 9.5q-5 0 -5 -4v-315q0 -5 6 -5q36 4 59 25t23 52v155zM252 475q-1 5 -7 5q-40 -1 -60 -23.5t-20 -50.5v-159q0 -18 3 -34q6 -23 24 -38.5 t53 -18.5q7 0 7 5v314z" />
<glyph unicode="&#x425;" horiz-adv-x="480" d="M344 16q-25 49 -48.5 97.5t-48.5 97.5q-2 5 -5 5t-5 -5l-96 -195q-6 -12 -12.5 -14t-17.5 -2h-80q-18 0 -18 13q0 6 3 12l151 280q2 4 4 10.5t2 9.5q0 7 -7 18l-135 253q-2 6 -2 9q0 13 18 13h85q19 0 29 -17q2 -5 4.5 -10.5t5.5 -10.5l67 -143q4 -4 6 -4t5 5 q20 41 39 81t39 82q11 17 28 17h81q18 0 18 -12q0 -3 -1 -6t-3 -7l-135 -254q-4 -10 -4 -16t5 -16q38 -71 77 -143t77 -143q3 -5 3 -9q0 -12 -19 -12h-81q-11 0 -17.5 2.5t-11.5 13.5z" />
<glyph unicode="&#x426;" horiz-adv-x="589" d="M89 0q-18 0 -18 18v583q0 16 18 16h77q18 0 18 -17v-484q0 -8 3 -12t15 -4h171q16 0 16 16v485q0 16 18 16h76q19 0 19 -17v-490q0 -3 1 -6t6 -4h38q14 0 16 -8.5t2 -17.5v-192q-1 -15 -7 -18t-14 -3h-61q-9 0 -16 2.5t-8 19.5v105q-1 9 -6 10.5t-10 1.5h-354z" />
<glyph unicode="&#x427;" horiz-adv-x="521" d="M346 252q0 4 -4 4q-3 0 -5 -1q-27 -11 -53 -17.5t-61 -6.5q-85 0 -135 47.5t-50 130.5v194q0 15 18 15h78q19 0 19 -15v-177q0 -41 22 -67.5t75 -26.5q24 0 46.5 7t37.5 18q4 3 8 9.5t4 16.5v220q0 15 18 15h76q19 0 19 -15v-589q0 -14 -19 -14h-76q-18 0 -18 14v238z " />
<glyph unicode="&#x428;" horiz-adv-x="797" d="M89 0q-19 0 -19 18v585q0 14 19 14h77q18 0 18 -14v-488q0 -8 3 -11.5t14 -3.5h129q8 0 10.5 4t3.5 9v490q0 14 17 14h77q18 0 18 -14v-488q0 -8 2.5 -11.5t11.5 -3.5h129q16 0 16 15v488q0 14 18 14h76q19 0 19 -14v-586q0 -17 -19 -17h-620z" />
<glyph unicode="&#x429;" horiz-adv-x="815" d="M89 0q-19 0 -19 18v585q0 14 19 14h77q18 0 18 -15v-488q0 -8 3 -11t14 -3h129q8 0 10.5 4t3.5 9v490q0 14 17 14h77q19 0 19 -15v-488q0 -8 2.5 -11t10.5 -3h129q10 0 13 4t3 12v485q0 16 19 16h76q18 0 18 -17v-490q0 -3 1.5 -6.5t6.5 -3.5h38q14 0 16.5 -8.5 t2.5 -17.5v-192q-1 -15 -7.5 -18t-13.5 -3h-61q-10 0 -16.5 3t-8.5 19v105q-1 9 -6 10.5t-10 1.5h-581z" />
<glyph unicode="&#x42a;" horiz-adv-x="634" d="M492 187q0 40 -23 64.5t-62 24.5h-98q-8 0 -11 -3t-3 -12v-146q0 -7 3 -11t12 -4h97q40 0 62.5 26.5t22.5 60.5zM183 505q0 8 -3 10t-10 2h-137q-16 0 -16 17v66q0 17 16 17h244q18 0 18 -18v-211q0 -5 2 -8.5t10 -3.5h102q48 0 84 -14.5t60.5 -39.5t37 -59.5t12.5 -73.5 q0 -41 -14 -75.5t-39.5 -59.5t-61.5 -39.5t-81 -14.5h-206q-19 0 -19 18z" />
<glyph unicode="&#x42b;" horiz-adv-x="722" d="M564 0q-18 0 -18 17v585q0 15 18 15h78q8 0 13 -3t5 -11v-586q0 -17 -18 -17h-78zM375 187q0 40 -23 64.5t-61 24.5h-99q-7 0 -11 -3t-4 -12v-146q0 -7 3 -11t12 -4h99q19 0 34.5 7.5t26.5 19.5t17 27.5t6 32.5zM486 189q0 -41 -14 -75.5t-39.5 -59.5t-61.5 -39.5 t-80 -14.5h-208q-18 0 -18 18v585q0 14 18 14h76q18 0 18 -14v-215q0 -12 13 -12h107q45 0 80 -14.5t59 -39.5t37 -59.5t13 -73.5z" />
<glyph unicode="&#x42c;" horiz-adv-x="516" d="M374 187q0 40 -22.5 64.5t-60.5 24.5h-99q-7 0 -10.5 -3t-3.5 -12v-146q0 -7 3 -11t12 -4h98q38 0 60.5 26.5t22.5 60.5zM487 189q0 -41 -14 -75.5t-39.5 -59.5t-62 -39.5t-80.5 -14.5h-207q-19 0 -19 18v585q0 14 19 14h75q19 0 19 -14v-215q0 -12 12 -12h105 q46 0 82 -14.5t60.5 -39.5t37 -59.5t12.5 -73.5z" />
<glyph unicode="&#x42d;" horiz-adv-x="477" d="M310 451q0 32 -21.5 53t-66.5 21q-21 0 -46 -11.5t-48 -37.5q-6 -6 -11.5 -8.5t-13.5 2.5l-54 41q-9 6 -9 13t4 13q17 27 39.5 44t47.5 27.5t51 14.5t52 4q91 0 139.5 -47.5t48.5 -128.5v-282q0 -41 -15.5 -73.5t-42.5 -55t-64 -34.5t-79 -12q-57 0 -105.5 21t-80.5 74 q-4 7 -1.5 13.5t8.5 10.5q4 2 12.5 7t18 11t17.5 11.5t13 7.5q10 6 15.5 0.5l10.5 -10.5q16 -20 39 -32.5t51 -12.5q39 0 64 21.5t26 53.5l1 93q0 14 -13 14h-164q-15 0 -15 17v60q0 18 16 18h162q8 0 11 1t3 10v68z" />
<glyph unicode="&#x42e;" horiz-adv-x="714" d="M654 171q0 -43 -15 -76t-41 -55.5t-61.5 -34t-76.5 -11.5t-77 11.5t-62 33.5t-41 55t-15 77v81q0 6 -2 10.5t-10 4.5h-62q-9 0 -11.5 -3.5t-2.5 -11.5v-236q0 -16 -17 -16h-78q-18 0 -18 15v587q0 15 18 15h77q18 0 18 -15v-218q0 -11 3 -14.5t9 -3.5h61q9 1 11.5 3 t3.5 10v70q0 42 15 75t41 56t61.5 35t76.5 12q40 0 76 -12t62 -34.5t41.5 -55.5t15.5 -76v-278zM541 448q0 35 -22 56.5t-59 21.5q-39 0 -61 -22t-22 -56v-276q0 -35 22 -56t60 -21t60 21t22 56v276z" />
<glyph unicode="&#x42f;" horiz-adv-x="521" d="M330 337q9 0 12 3.5t3 10.5v152q0 8 -3 11.5t-12 3.5h-77q-39 0 -62.5 -24.5t-23.5 -61.5q0 -18 8.5 -45t31.5 -44q9 -6 23 -6h100zM260 238q-7 0 -9.5 -3t-4.5 -7l-95 -207q-5 -9 -10.5 -15t-25.5 -6h-72q-5 0 -13 4t-1 18l106 225q4 9 -2 15q-35 32 -57.5 76t-22.5 99 q0 42 14 75.5t39 57t59 35.5t74 12h201q18 0 18 -17v-584q0 -16 -18 -16h-77q-19 0 -19 16v211q0 11 -8 11h-76z" />
<glyph unicode="&#x430;" horiz-adv-x="462" d="M409 14q0 -14 -13 -14h-78q-11 0 -11 11v8q0 15 -14 4t-36 -20t-54 -9q-77 0 -121 41t-44 114q0 70 45 113t126 43q41 0 77 -21q5 -3 9.5 -2.5t4.5 8.5v12q0 30 -18 45t-59 15q-11 0 -24.5 -2t-28 -5t-28.5 -7t-24 -8q-17 -7 -22 9l-18 51q-3 7 0 12.5t8 7.5 q34 16 71.5 24t75.5 8q48 0 81.5 -11.5t54.5 -33t30.5 -52.5t9.5 -69v-272zM292 151q-1 30 -20.5 51.5t-55.5 21.5q-38 0 -57.5 -21t-19.5 -52t19.5 -52.5t56.5 -21.5q40 0 58.5 22.5t18.5 51.5z" />
<glyph unicode="&#x431;" horiz-adv-x="468" d="M420 169q0 -87 -52 -131t-138 -44q-96 0 -139 54.5t-43 144.5v159q0 107 54 169.5t160 92.5q25 7 46.5 12.5t48.5 13.5q8 2 11 2q8 0 11 -11l14 -54q3 -11 -2 -15.5t-13 -6.5q-20 -7 -42 -12.5t-45 -12.5q-28 -8 -53 -19t-44 -27t-31 -37.5t-13 -51.5q0 -5 3 -5t4 1 q17 13 43 23t55 10q81 0 123 -45.5t42 -123.5v-86zM311 255q0 34 -20.5 56t-56.5 22q-35 0 -56.5 -20.5t-21.5 -55.5v-93q0 -13 3 -22q6 -25 25 -39.5t48 -14.5q33 0 56 21t23 55v91z" />
<glyph unicode="&#x432;" horiz-adv-x="471" d="M366 235q-2 -1 -1.5 -2.5t2.5 -2.5q29 -13 45.5 -40.5t16.5 -56.5q0 -62 -40 -97.5t-107 -35.5h-209q-20 0 -20 18v407q0 19 20 19h190q69 0 110 -30.5t41 -92.5q0 -23 -12.5 -47.5t-35.5 -38.5zM269 94q23 0 35 14t12 33q0 20 -11.5 35t-37.5 15h-97q-5 0 -7 -3t-2 -6 v-80q0 -3 1.5 -5.5t8.5 -2.5h98zM259 264q21 0 32.5 13.5t11.5 30.5q0 18 -11 29.5t-34 11.5h-88q-9 0 -9 -9v-69q0 -7 9 -7h89z" />
<glyph unicode="&#x433;" horiz-adv-x="369" d="M155 18q0 -18 -19 -18h-70q-20 0 -20 17v410q0 17 20 17h278q19 0 19 -16v-61q0 -17 -19 -17h-177q-9 0 -10.5 -3t-1.5 -9v-320v0z" />
<glyph unicode="&#x434;" horiz-adv-x="489" d="M225 351q-9 0 -11.5 -4.5t-2.5 -9.5q-2 -23 -4 -43.5t-4 -40.5t-5 -40t-6 -42q-3 -19 -8.5 -38.5t-13.5 -31.5q-4 -5 -1.5 -7t6.5 -2h131q5 0 9.5 1.5t4.5 11.5v229q0 11 -5 14t-14 3h-76zM405 444q10 0 14.5 -3.5t4.5 -16.5v-320q0 -13 14 -15h19q10 0 12 -5.5t2 -11.5 v-163q0 -14 -5 -16.5t-12 -2.5h-53q-12 0 -15.5 4t-3.5 15v81q-1 7 -4.5 8.5t-11.5 1.5h-254q-6 0 -9.5 -1.5t-5.5 -11.5v-77q0 -14 -4.5 -17t-12.5 -3h-52q-9 0 -12.5 3t-4.5 14v157q-1 9 2 15.5t14 8.5l16 4q16 4 26.5 20t17 37.5t10 45t6.5 41.5q4 24 8.5 72t10.5 114 q2 13 6 17.5t15 4.5h262z" />
</font>
</defs>
</svg>
