<?xml version="1.0" standalone="no"?>
<!DOCTYPE svg PUBLIC "-//W3C//DTD SVG 1.1//EN" "http://www.w3.org/Graphics/SVG/1.1/DTD/svg11.dtd" >
<svg xmlns="http://www.w3.org/2000/svg">
<metadata></metadata>
<defs>
<font id="pf_handbook_proregular" horiz-adv-x="1818" >
<font-face units-per-em="1000" ascent="750" descent="-250" />
<missing-glyph horiz-adv-x="210" />
<glyph unicode="fj" horiz-adv-x="439" d="M159 449q0 -10 11 -10h205q5 0 7 -3t2 -6v-486q0 -26 -6 -49t-19.5 -40.5t-34.5 -27.5t-50 -10q-20 0 -32 1.5t-24 4.5q-7 2 -10 5t-1 11l11 49q2 11 17 7q6 -2 13 -3t15 -1q15 0 23.5 5.5t12.5 14.5t5 20t1 22v407q0 5 -1.5 8t-9.5 3h-125q-10 0 -10 -10v-352 q0 -9 -10 -9h-60q-5 0 -7 3t-2 6v350q0 12 -10 12h-44q-8 0 -8 10v49q0 9 10 9h41q11 0 11 10v60q0 66 40 100t106 34q39 0 68.5 -8.5t47.5 -19.5q7 -5 8.5 -8t-2.5 -11l-21 -40q-5 -8 -18 -3q-14 5 -33.5 11t-48.5 6q-36 0 -52 -20.5t-16 -52.5v-48z" />
<glyph unicode="ffj" horiz-adv-x="663" d="M393 371q-10 0 -10 -10v-352q0 -9 -10 -9h-60q-5 0 -7 3t-2 6v350q0 12 -10 12h-125q-10 0 -10 -10v-352q0 -9 -10 -9h-60q-5 0 -7 3t-2 6v350q0 12 -10 12h-44q-8 0 -8 10v49q0 9 10 9h41q11 0 11 10v33q0 62 40 101t106 39q32 0 56.5 -6t43.5 -14q2 -1 5 -1.5t6 2.5 q19 19 48.5 29.5t64.5 10.5q39 0 68.5 -8.5t47.5 -19.5q7 -5 8.5 -8t-2.5 -11l-21 -40q-5 -8 -18 -3q-14 5 -33.5 11t-48.5 6q-32 0 -50 -20.5t-18 -52.5v-48q0 -10 11 -10h205q5 0 7 -3t2 -6v-486q0 -26 -6 -49t-19.5 -40.5t-34.5 -27.5t-50 -10q-20 0 -32 1.5t-24 4.5 q-7 2 -10 5t-1 11l11 48q2 11 17 7q12 -3 28 -3q15 0 23.5 5.5t12.5 14.5t5 20t1 22v407q0 5 -1.5 8t-9.5 3h-125zM293 439q11 0 11 10v74q0 10 -4 12q-13 5 -30.5 9.5t-42.5 4.5q-38 0 -53 -21t-15 -53v-26q0 -10 11 -10h123z" />
<glyph unicode="ff" horiz-adv-x="499" d="M226 626q32 0 56.5 -7t43.5 -15q1 -1 5 -1t6 2q19 19 49 29.5t65 10.5q29 0 54.5 -6.5t43.5 -15.5q7 -2 7 -10q0 -5 -2 -9l-14 -35q-6 -11 -13 -11q-3 0 -7 2q-13 5 -29 8.5t-39 3.5q-35 0 -51.5 -20t-16.5 -49v-54q0 -10 11 -10h83q10 0 10 -10v-49q0 -9 -10 -9h-84 q-10 0 -10 -10v-352q0 -9 -10 -9h-60q-5 0 -7 3t-2 6v350q0 12 -10 12h-126q-10 0 -10 -10v-352q0 -9 -10 -9h-60q-5 0 -7 3t-2 6v350q0 12 -10 12h-44q-8 0 -8 10v49q0 9 10 9h41q11 0 11 10v45q0 28 10.5 52t30 42t46 28t59.5 10zM293 439q11 0 11 10v78q0 10 -4 12 q-13 5 -30.5 9.5t-42.5 4.5q-38 0 -53 -21t-15 -53v-30q0 -10 11 -10h123z" />
<glyph unicode="fi" horiz-adv-x="440" d="M159 449q0 -10 11 -10h197q10 0 13.5 -4t3.5 -15v-411q0 -9 -10 -9h-60q-5 0 -7 3t-2 6v350q0 12 -10 12h-126q-10 0 -10 -10v-352q0 -9 -10 -9h-60q-5 0 -7 3t-2 6v350q0 12 -10 12h-44q-8 0 -8 10v49q0 9 10 9h41q11 0 11 10v68q0 62 40 95t106 33q39 0 68.5 -8.5 t47.5 -19.5q9 -6 9 -11q0 -2 -3 -8l-21 -40q-3 -6 -8 -6q-4 0 -10 3q-14 5 -33.5 11t-48.5 6q-39 0 -53.5 -20.5t-14.5 -52.5v-50z" />
<glyph unicode="fl" horiz-adv-x="472" d="M169 371q-10 0 -10 -10v-352q0 -9 -10 -9h-60q-5 0 -7 3t-2 6v350q0 12 -10 12h-44q-8 0 -8 10v49q0 9 10 9h41q11 0 11 10v68q0 62 40 95t106 33q26 0 49 -4.5t40 -10.5q4 -2 10 -2q5 0 7 1l29 7q10 2 12 2q11 0 11 -18v-496q0 -35 10 -45t34 -10h13q7 0 8 -5t1 -10v-47 q0 -11 -10 -13q-6 -2 -14.5 -2h-13.5q-34 0 -55 10t-33 28.5t-16 45t-4 59.5v412q0 6 -2 8.5t-7 4.5q-13 5 -29.5 8.5t-38.5 3.5q-38 0 -53 -20.5t-15 -52.5v-50q0 -10 11 -10h78q10 0 12.5 -3t2.5 -14v-37q0 -11 -4.5 -12.5t-10.5 -1.5h-79z" />
<glyph unicode="ffi" horiz-adv-x="664" d="M450 643q39 0 68.5 -8.5t47.5 -19.5q9 -6 9 -11q0 -2 -3 -8l-21 -40q-3 -6 -8 -6q-4 0 -10 3q-14 5 -33.5 11t-48.5 6q-32 0 -50 -20.5t-18 -52.5v-48q0 -10 11 -10h200q10 0 12 -4t2 -15v-411q0 -9 -10 -9h-60q-5 0 -7 3t-2 6v350q0 12 -10 12h-126q-10 0 -10 -10v-352 q0 -9 -10 -9h-60q-5 0 -7 3t-2 6v350q0 12 -10 12h-125q-10 0 -10 -10v-352q0 -9 -10 -9h-60q-5 0 -7 3t-2 6v350q0 12 -10 12h-44q-8 0 -8 10v49q0 9 10 9h41q11 0 11 10v43q0 28 10.5 52t30 42t46 28t59.5 10q32 0 56.5 -7t43.5 -15q1 -1 5 -1t6 2q19 19 48.5 29.5 t64.5 10.5zM293 439q11 0 11 10v77q0 10 -4 12q-13 5 -30.5 9.5t-42.5 4.5q-38 0 -53 -21t-15 -53v-29q0 -10 11 -10h123z" />
<glyph unicode="ffl" horiz-adv-x="669" d="M226 624q32 0 56.5 -7t43.5 -15q1 -1 5 -1t6 2q19 19 48.5 29.5t64.5 10.5q26 0 48.5 -4.5t39.5 -10.5q4 -2 10 -2q5 0 7 1l29 7q10 2 12 2q11 0 11 -18v-494q0 -35 10 -45t34 -10h13q7 0 8 -5t1 -10v-47q0 -11 -10 -13q-6 -2 -14.5 -2h-13.5q-34 0 -55 10t-33 28.5 t-16 45t-4 59.5v410q0 6 -2 8.5t-7 4.5q-13 5 -29.5 8.5t-38.5 3.5q-32 0 -50 -20.5t-18 -52.5v-48q0 -10 11 -10h78q10 0 12.5 -3t2.5 -14v-37q0 -11 -4.5 -12.5t-10.5 -1.5h-79q-10 0 -10 -10v-352q0 -9 -10 -9h-60q-5 0 -7 3t-2 6v350q0 12 -10 12h-124q-10 0 -10 -10 v-352q0 -9 -10 -9h-60q-5 0 -7 3t-2 6v350q0 12 -10 12h-44q-8 0 -8 10v49q0 9 10 9h41q11 0 11 10v43q0 28 10.5 52t30 42t46 28t59.5 10zM293 439q11 0 11 10v77q0 10 -4 12q-13 5 -30.5 9.5t-42.5 4.5q-38 0 -53 -21t-15 -53v-29q0 -10 11 -10h123z" />
<glyph unicode="ft" horiz-adv-x="521" d="M384 448q0 -10 10 -10h92q10 0 10 -9v-49q0 -10 -10 -10h-91q-11 0 -11 -10v-229q0 -29 12 -46t42 -17q10 0 26.5 2t24.5 5q6 2 8 2q5 0 7 -7l11 -49q1 -2 1 -6q0 -8 -12 -11q-13 -4 -35 -6.5t-42 -2.5q-63 0 -92.5 33.5t-29.5 87.5v244q0 10 -11 11h-125q-10 0 -10 -10 v-352q0 -9 -10 -9h-60q-5 0 -7 3t-2 6v350q0 12 -10 12h-44q-8 0 -8 10v49q0 9 10 9h41q11 0 11 10v67q0 26 8 49t23.5 40.5t38 27.5t52.5 10q20 0 39 -2.5t30 -5.5q12 -3 12 -10q0 -4 -1 -6l-11 -49q-1 -7 -8 -7q-5 0 -8 1q-21 6 -42 6q-30 0 -42 -19t-12 -44v-58 q0 -10 11 -10h123q12 0 12 12v84q0 8 9 11l58 14h3q9 0 9 -9v-103v0z" />
<glyph unicode=" "  horiz-adv-x="210" />
<glyph unicode="&#x09;" horiz-adv-x="210" />
<glyph unicode="&#xa0;" horiz-adv-x="210" />
<glyph unicode="!" horiz-adv-x="263" d="M166 170q0 -9 -9 -9h-35q-9 0 -9 8l-19 438q0 10 10 10h67q10 0 10 -9zM192 43q0 -22 -15.5 -37.5t-38.5 -15.5t-39 15.5t-16 37.5t16 37.5t38 15.5q23 0 39 -15t16 -38z" />
<glyph unicode="&#x22;" horiz-adv-x="288" d="M228 617q11 0 9 -8v-186q0 -8 -9 -8h-47q-10 0 -10 8v185q0 9 10 9h47zM114 617q4 0 7 -2t2 -6v-186q0 -8 -10 -8h-46q-10 0 -10 8v185q0 9 9 9h48z" />
<glyph unicode="#" horiz-adv-x="475" d="M445 380q-3 -10 -12 -10h-60q-9 0 -10 -6l-27 -122q-1 -7 0.5 -10t10.5 -3h62q10 0 8 -9l-7 -36q-3 -10 -12 -10h-69q-9 0 -10 -5l-26 -118q-1 -7 -9 -7h-41q-9 0 -10.5 3.5t-0.5 8.5l24 106q1 5 -0.5 9t-10.5 4h-78q-8 0 -9 -6l-29 -118q-1 -7 -8 -7h-42q-13 0 -11 11 q0 2 4 18.5t9 36.5l12 52q1 5 -0.5 8.5t-10.5 3.5h-52q-6 0 -7 2.5t-1 4.5q0 3 0.5 3.5t1 3.5t1.5 10t4 21q3 10 12 10h58q8 0 10 8l28 121q1 6 -0.5 9t-10.5 3h-61q-6 0 -7 2.5t-1 5.5l8 37q1 9 11 9h69q7 0 9 8l26 120q2 6 9 6h41q9 0 10.5 -3t0.5 -8l-24 -109 q-2 -6 0 -10t11 -4h78q7 0 9 8l28 120q0 6 9 6h40q9 0 10.5 -3t0.5 -8l-23 -109q-2 -6 -0.5 -9.5t10.5 -3.5h54q8 0 8.5 -5t-0.5 -10zM299 358q1 6 -0.5 9t-10.5 3h-75q-5 0 -9 -3t-4 -6l-26 -119q-1 -7 0 -10t11 -3h77q8 0 10 8z" />
<glyph unicode="$" horiz-adv-x="475" d="M341 173q0 24 -9 40.5t-24 28.5t-34 20t-38 14q-27 8 -57.5 19t-57 29.5t-44 47.5t-17.5 73q0 31 11.5 58t31 48t45 35t54.5 20q6 0 6 8v55q0 9 10 9h31q10 0 10 -9v-54q0 -5 8 -7q39 -3 72 -16.5t60 -36.5q8 -7 0 -17l-30 -37q-8 -11 -20 0q-27 25 -55 34t-55 9 q-18 0 -36.5 -6.5t-33.5 -19t-24.5 -31t-9.5 -43.5q0 -23 11 -39t28 -27t37 -18t38 -13q32 -9 62 -21.5t53.5 -32t38 -47.5t14.5 -68q0 -36 -11.5 -64.5t-31.5 -49.5t-47.5 -33.5t-59.5 -17.5q-8 -1 -8 -8v-62q0 -10 -10 -10h-31q-5 0 -7.5 1.5t-2.5 7.5v62q0 7 -8 7 q-39 3 -72.5 16t-65.5 40q-7 6 1 17l29 35q7 10 19 0q21 -19 51.5 -31.5t63.5 -12.5q24 0 44.5 6t36.5 18.5t25 31t9 42.5z" />
<glyph unicode="%" horiz-adv-x="700" d="M239 -23q-2 -5 -5 -6t-7 -1h-36q-9 0 -5 9l278 660q3 6 6.5 7t6.5 1h30q9 0 10 -3t-1 -9zM283 342q0 -51 -32.5 -79.5t-89.5 -28.5q-56 0 -88.5 27t-32.5 81v171q0 51 33 79.5t88 28.5q54 0 88 -28t34 -80v-171zM216 513q0 23 -14.5 38t-40.5 15t-40.5 -15t-14.5 -38 v-171q0 -24 14.5 -38.5t40.5 -14.5t40.5 14.5t14.5 38.5v171zM660 103q0 -51 -32.5 -78.5t-88.5 -27.5q-55 0 -87.5 26.5t-32.5 79.5v172q0 50 33 78.5t87 28.5t87.5 -28t33.5 -79v-172zM597 275q0 24 -16 39.5t-42 15.5t-41.5 -16t-15.5 -39v-172q0 -25 15 -40.5t42 -15.5 q26 0 42 15.5t16 40.5v172z" />
<glyph unicode="&#x26;" horiz-adv-x="570" d="M245 299q-10 0 -10 10v48q0 10 11 10h204q26 0 56 7.5t59 28.5q5 4 10 4t10 -6l19 -28q4 -5 4 -11q0 -5 -5 -10q-29 -28 -67 -39t-72 -13q-18 -2 -18 -16v-102q0 -41 -12.5 -75.5t-37 -59.5t-60 -39t-80.5 -14h-8q-94 0 -139 48t-45 130v221q0 39 14.5 70.5t40 53 t60 33.5t74.5 12h126q11 0 11 -10v-49q0 -10 -10 -10h-127q-48 0 -78.5 -27.5t-30.5 -71.5v-221q0 -21 3.5 -41t14.5 -35.5t31.5 -24.5t54.5 -9h8q33 0 54.5 10.5t34 28t17.5 39t5 42.5v106q0 2 -1 6t-9 4h-112z" />
<glyph unicode="'" horiz-adv-x="173" d="M54 608q0 9 9 9h48q10 0 10 -8l-1 -186q0 -8 -9 -8h-47q-10 0 -10 8v185v0z" />
<glyph unicode="(" horiz-adv-x="325" d="M139 265q0 -55 11.5 -107.5t30 -100.5t41.5 -90.5t46 -78.5q10 -14 -2 -23l-26 -17q-17 -10 -30 4q-27 34 -55 80t-51 99.5t-37.5 112.5t-14.5 121t16.5 125t41.5 119.5t53 103t51 76.5q8 10 23 2l28 -15q14 -8 4 -22q-27 -41 -50.5 -87.5t-41 -96.5t-28 -102t-10.5 -103 z" />
<glyph unicode=")" horiz-adv-x="325" d="M115 -148q-12 -15 -29 -4l-26 17q-13 8 -3 23q23 36 46 78.5t41.5 90.5t30 100.5t11.5 107.5q0 51 -10.5 103t-28 102t-41 96.5t-50.5 87.5q-10 14 4 22l28 15q15 8 23 -2q23 -30 51 -76.5t53 -103t41.5 -119.5t16.5 -125t-14.5 -121t-37.5 -112.5t-51 -99.5t-55 -80z " />
<glyph unicode="*" horiz-adv-x="370" d="M234 491q-4 -1 -5.5 -3.5t2.5 -6.5l60 -72q12 -15 0 -23l-27 -18q-10 -6 -15 -6t-11 11l-47 78q-5 11 -12 0l-49 -79q-5 -9 -10 -10t-15 6l-25 17q-16 11 -1 27l59 69q7 7 -2 9l-92 23q-14 3 -10 17l10 32q6 18 23 11l88 -36q7 -2 7 4l-11 99q-1 7 2.5 10.5t16.5 3.5h31 q19 0 17 -15l-10 -95q-1 -10 7 -7l86 35q17 8 23 -10l12 -30q2 -6 0.5 -11.5t-9.5 -7.5z" />
<glyph unicode="+" horiz-adv-x="475" d="M435 223q0 -15 -15 -15h-147q-5 0 -5 -4v-147q0 -14 -14 -14h-34q-15 0 -15 14v146q0 5 -4 5h-146q-15 0 -15 14v32q0 15 15 15h145q5 0 5 4v146q0 15 14 15h34q15 0 15 -15v-145q0 -5 5 -5h147q15 0 15 -15v-31v0z" />
<glyph unicode="," horiz-adv-x="213" d="M110 -101q-4 -13 -16 -13h-29q-8 0 -10.5 5.5t-1.5 12.5l11 180q2 17 16 17h67q20 0 14 -21z" />
<glyph unicode="-" horiz-adv-x="340" d="M277 215q0 -10 -9 -10h-204q-10 0 -10 10v46q0 10 9 10h204q10 0 10 -9v-47v0z" />
<glyph unicode="." horiz-adv-x="213" d="M106 98q23 0 39 -15t16 -38t-16 -38.5t-39 -15.5q-22 0 -37.5 16t-15.5 38t15.5 37.5t37.5 15.5z" />
<glyph unicode="/" horiz-adv-x="303" d="M62 -54q-5 -12 -17 -12h-31q-14 0 -9 14l234 715q4 12 20 12h29q5 0 8 -3t1 -9z" />
<glyph unicode="0" horiz-adv-x="475" d="M426 164q0 -81 -48.5 -125.5t-130.5 -44.5q-81 0 -130.5 42.5t-49.5 127.5v292q0 39 13 70.5t36.5 53.5t56.5 33.5t73 11.5q39 0 72 -11t57 -32.5t37.5 -53t13.5 -72.5v-292zM345 456q0 44 -27 72t-71 28q-45 0 -72 -28.5t-27 -71.5v-292q0 -45 26.5 -73t71.5 -28 t72 27.5t27 73.5v292z" />
<glyph unicode="1" horiz-adv-x="475" d="M295 10q0 -10 -10 -10h-62q-9 0 -9 9v490q0 10 -7 10q-3 0 -9 -3l-68 -40q-10 -5 -16 -5q-10 0 -10 11v46q0 7 1.5 12.5t8.5 10.5l107 66q8 5 13.5 7.5t12.5 2.5h33q15 0 15 -15v-592v0z" />
<glyph unicode="2" horiz-adv-x="475" d="M411 10q0 -10 -10 -10h-338q-17 0 -17 16v29q0 11 1.5 20t10.5 21l232 297q16 20 24 42.5t8 42.5q0 16 -5 32t-16 28.5t-29 20t-44 7.5q-15 0 -30 -4.5t-28.5 -12t-24.5 -16t-18 -16.5q-6 -7 -12.5 -10t-12.5 2l-32 26q-7 5 -7 9.5t3 9.5q27 42 72.5 61.5t93.5 19.5 q36 0 67.5 -10t55 -29.5t37 -48.5t13.5 -67q0 -35 -16.5 -69.5t-33.5 -55.5l-206 -264q-9 -12 5 -12h247q10 0 10 -9v-50v0z" />
<glyph unicode="3" horiz-adv-x="475" d="M396 167q0 -40 -13.5 -72t-38 -54.5t-58.5 -34.5t-74 -12q-33 0 -62.5 7.5t-54.5 27.5q-31 24 -43 48q-2 4 -2 8t8 9l43 27q6 4 9.5 4t8.5 -5l10 -14q16 -19 36 -31t47 -12q20 0 39 6.5t33.5 19t23 31.5t8.5 45v47q0 39 -26.5 65t-70.5 26h-62q-10 0 -10 9v51q0 9 9 9h63 q42 0 70.5 23.5t28.5 67.5q0 41 -24.5 67t-71.5 26q-30 0 -52.5 -13t-36.5 -34q-3 -5 -8.5 -9.5t-13.5 0.5l-44 26q-7 5 -6 9.5t4 9.5q26 42 69.5 61t91.5 19q85 0 128.5 -44.5t43.5 -114.5q0 -19 -6 -38t-16.5 -36t-26 -30.5t-33.5 -19.5q-5 -2 -5 -5t4 -4 q22 -5 37.5 -17.5t25 -29t14 -35t4.5 -36.5v-48v0z" />
<glyph unicode="4" horiz-adv-x="475" d="M323 617q6 0 9 -4.5t0 -9.5l-204 -393q-2 -3 -2 -7t8 -4h134q8 0 9 5t1 8v175q0 10 9 10h61q10 0 10 -10v-173q0 -8 1 -11.5t9 -3.5h59q10 0 10 -10v-46q0 -10 -10 -10h-56q-6 0 -9.5 -2.5t-3.5 -11.5v-109q0 -10 -10 -10h-61q-9 0 -9 10v109q0 14 -13 14h-217 q-10 0 -10 10v28q0 17 1.5 25t7.5 19l206 398q2 4 9 4h61z" />
<glyph unicode="5" horiz-adv-x="475" d="M402 170q0 -42 -14.5 -74.5t-39 -55t-58 -34.5t-71.5 -12q-60 0 -96.5 20.5t-62.5 65.5q-5 10 4 15l46 26q10 6 17 -2q19 -26 37.5 -41t53.5 -15q50 0 77 28.5t27 70.5v77q0 16 -4.5 32.5t-16 30t-31.5 21.5t-50 8q-17 0 -32.5 -5.5t-25.5 -12.5q-18 -14 -33 -8l-35 15 q-6 3 -10.5 7.5t-4.5 13.5v266q0 10 9 10h289q10 0 10 -9v-52q0 -8 -9 -8h-208q-12 0 -12 -11v-136q0 -19 22 -10q25 11 51 11q45 0 77 -12.5t53 -34.5t31 -52t10 -65v-68z" />
<glyph unicode="6" horiz-adv-x="475" d="M420 164q0 -39 -13 -70t-37 -53.5t-57 -34.5t-72 -12t-72.5 10t-57.5 30.5t-38 51.5t-14 73v281q0 44 14 78.5t39 58t59.5 36t75.5 12.5q54 0 91 -15t69 -57q9 -12 -3 -22l-38 -31q-5 -5 -11 -2.5t-10 7.5q-19 23 -43 37t-56 14q-27 0 -47 -8.5t-33.5 -23t-20 -33.5 t-6.5 -41v-81q0 -8 4 -10.5t9 2.5q20 17 45 25.5t49 8.5q37 0 68.5 -10.5t55 -31t37 -50t13.5 -67.5v-72zM340 236q1 44 -29 67t-71 23q-42 0 -71.5 -26.5t-29.5 -68.5v-72q0 -44 29.5 -70.5t71.5 -26.5t70 26.5t29 75.5z" />
<glyph unicode="7" horiz-adv-x="475" d="M423 573q0 -8 -3 -16.5t-5 -13.5q-64 -139 -115 -253q-22 -48 -43 -95.5t-38.5 -86.5t-29.5 -65.5t-15 -32.5q-5 -10 -13 -10h-65q-5 0 -8 3t0 9l233 517q4 8 1 13.5t-14 5.5h-162q-9 0 -11.5 -2.5t-2.5 -8.5v-46q0 -11 -9 -11h-51q-10 0 -10 10v117q0 10 9 10h332 q20 0 20 -14v-30v0z" />
<glyph unicode="8" horiz-adv-x="475" d="M239 628q39 0 72 -12t57 -33.5t37.5 -53t13.5 -70.5q0 -35 -16.5 -68.5t-44.5 -55.5q-9 -8 -2 -12q32 -19 52 -54t20 -82q0 -45 -15 -81t-41 -61t-61 -38t-75 -13q-41 0 -75.5 11t-59.5 33.5t-39 57t-14 81.5q0 48 22 87.5t57 57.5q5 2 5.5 5t-3.5 5q-17 8 -30 22.5 t-22 31.5t-13.5 36t-4.5 36q0 38 14 69.5t38 54t57 34.5t71 12zM339 460q0 42 -27.5 70.5t-72.5 28.5q-43 0 -72 -28.5t-29 -71.5q0 -41 28 -69.5t73 -28.5q20 0 38.5 7.5t32 21t21.5 31.5t8 39zM238 293q-20 0 -39.5 -8t-35 -23.5t-25 -37.5t-9.5 -50q0 -55 29.5 -83 t76.5 -28q21 0 41 8t36 23t25.5 37.5t9.5 51.5q0 27 -9 47.5t-24 34.5t-34.5 21t-41.5 7z" />
<glyph unicode="9" horiz-adv-x="475" d="M410 193q0 -94 -48 -146.5t-145 -52.5q-54 0 -95.5 21.5t-68.5 65.5q-7 12 3 17l46 27q6 4 10 1.5t7 -6.5q17 -23 41 -40t56 -17q58 0 86 33.5t28 94.5v61q0 7 -3.5 9.5t-8.5 -2.5q-20 -17 -45 -26t-50 -9q-37 0 -68.5 11.5t-55 32.5t-37 51.5t-13.5 68.5v65 q0 39 13.5 70.5t38.5 54t59 35t76 12.5q78 0 126 -45t48 -132v-255zM330 460q0 44 -29 70.5t-72 26.5q-41 0 -70 -27.5t-29 -68.5v-73q0 -45 24.5 -70t75.5 -25q42 0 71 26.5t29 68.5v72z" />
<glyph unicode=":" horiz-adv-x="213" d="M161 330q0 -23 -16 -39t-39 -16q-22 0 -37.5 15.5t-15.5 38.5q0 21 15.5 37t37.5 16t38.5 -16t16.5 -36zM106 98q23 0 39 -15t16 -38t-16 -38.5t-39 -15.5q-22 0 -37.5 16t-15.5 37q0 23 15.5 38t37.5 15v1z" />
<glyph unicode=";" horiz-adv-x="213" d="M161 330q0 -23 -16 -38.5t-39 -15.5q-22 0 -37.5 15t-15.5 38q0 21 15.5 37t37.5 16q23 0 39 -15t16 -37zM104 -101q-4 -13 -16 -13h-29q-7 0 -10 5t-2 13l11 179q1 8 5 13t12 5h66q20 0 14 -22z" />
<glyph unicode="&#x3c;" horiz-adv-x="475" d="M447 447q0 -5 -3 -12.5t-10 -10.5l-324 -163q-13 -7 0 -14l326 -162q9 -5 10 -12t1 -13v-40q-1 -6 -6.5 -10.5t-13.5 0.5l-383 198q-18 8 -18 21v44q0 16 13 23l388 199q7 4 13.5 2t6.5 -10v-40z" />
<glyph unicode="=" horiz-adv-x="475" d="M435 146q0 -15 -15 -15h-365q-15 0 -15 14v32q0 15 15 15h365q15 0 15 -15v-31zM435 317q0 -15 -15 -15h-365q-15 0 -15 14v32q0 15 15 15h365q15 0 15 -15v-31z" />
<glyph unicode="&#x3e;" horiz-adv-x="475" d="M448 229q0 -13 -17 -21l-385 -198q-8 -4 -14 0t-5 10v40q1 6 1.5 13t10.5 12l325 162q14 8 0 14l-324 163q-7 3 -9.5 10.5t-2.5 12.5l-1 40q0 8 6.5 10t13.5 -2l388 -199q13 -7 13 -23v-44v0z" />
<glyph unicode="?" horiz-adv-x="491" d="M419 469q0 -49 -25 -90t-73 -70q-42 -26 -63.5 -52t-21.5 -64v-21q0 -14 -9 -14h-58q-8 0 -11 2.5t-3 12.5v34q0 38 21 76t59 64q46 31 73.5 58.5t27.5 61.5q0 18 -5.5 34t-17 29t-28.5 20.5t-40 7.5q-28 0 -52 -17.5t-39 -38.5q-8 -11 -20 -3l-43 28q-11 7 -4 17 q26 42 69 63.5t91 21.5q37 0 68.5 -10.5t54.5 -31t36 -50.5t13 -68zM249 43q0 -22 -15.5 -37.5t-39.5 -15.5q-22 0 -38 15.5t-16 37.5t16 37.5t38 15.5q23 0 39 -15t16 -38z" />
<glyph unicode="@" horiz-adv-x="754" d="M565 181q13 0 28.5 6.5t28.5 23t22 45.5t9 75q0 55 -22.5 98.5t-58.5 73.5t-80.5 45.5t-87.5 15.5q-59 0 -109.5 -21t-87.5 -57.5t-58 -86.5t-21 -107q0 -58 20 -107.5t56 -86t87.5 -57.5t114.5 -21q20 0 42 2.5t44 6.5t42 9.5t36 12.5q8 4 13 3.5t10 -12.5l9 -24 q5 -13 -0.5 -16.5t-9.5 -5.5q-42 -14 -86.5 -23t-93.5 -9q-77 0 -140.5 22.5t-108.5 65t-70 103.5t-25 137q0 69 25 128t69 102.5t105.5 68.5t133.5 25q66 0 123 -21t99 -58.5t66 -89t24 -112.5q0 -60 -14 -100t-35.5 -64t-48.5 -34t-52 -10q-32 0 -54.5 9.5t-37.5 26.5 q-4 4 -8 1q-17 -16 -40.5 -26.5t-48.5 -10.5q-24 0 -45.5 8t-38 22.5t-26 35t-9.5 46.5q0 54 34.5 84t87.5 30q14 0 26 -3.5t23 -8.5q6 -2 10 2t4 9q0 19 -12 34t-48 15q-20 0 -39.5 -5.5t-36.5 -11.5q-9 -2 -12 6l-11 33q-3 9 4 12q22 11 49 17t50 6q69 0 96.5 -30.5 t27.5 -90.5v-94q0 -27 12.5 -44.5t44.5 -17.5zM377 301q-26 0 -43.5 -17.5t-17.5 -43.5t17.5 -43.5t43.5 -17.5t43.5 17.5t17.5 43.5q0 9 -3.5 20t-10.5 20t-19 15t-28 6z" />
<glyph unicode="A" horiz-adv-x="457" d="M366 0q-13 0 -14 7l-33 130q-2 4 -4 4h-177q-4 0 -4.5 -1t-1.5 -2l-32 -131q-1 -7 -13 -7h-54q-8 0 -11.5 3t-1.5 12l148 590q1 5 4.5 8.5t11.5 3.5h85q12 0 15 -10l152 -590q2 -5 1 -11t-10 -6h-61zM196 402l-45 -184q-1 -5 -0.5 -6.5t5.5 -1.5h138q5 0 6 1.5t0 6.5 l-44 180l-28 126q-1 3 -2.5 3t-2.5 -2z" />
<glyph unicode="B" horiz-adv-x="476" d="M438 184q0 -41 -12.5 -74.5t-36 -58t-56.5 -38t-74 -13.5h-193q-12 0 -12 11v595q0 11 11 11h179q81 0 128.5 -41t47.5 -120q0 -16 -5 -33t-14 -33t-21 -30t-26 -24q-2 -4 1 -7q41 -21 62 -61t21 -84zM355 181q0 21 -5.5 41.5t-18.5 36t-34 25.5t-51 10h-100q-8 0 -8 -8 v-204q0 -9 8 -9h111q46 0 72 30t26 78zM337 458q0 40 -24 63.5t-70 23.5h-97q-8 0 -8 -8v-163q0 -9 8 -9h98q47 0 70 27.5t23 65.5z" />
<glyph unicode="C" horiz-adv-x="430" d="M410 551q5 -6 5 -10.5t-8 -11.5l-38 -32q-4 -4 -10.5 -2.5t-10.5 6.5q-18 23 -47 37t-60 14q-48 0 -73.5 -27t-25.5 -70v-291q0 -42 28 -69.5t76 -27.5q31 0 58 15.5t44 32.5q5 6 10 9.5t13 -2.5l40 -33q3 -2 3.5 -7t-1.5 -9q-30 -39 -74 -59t-93 -20q-40 0 -74.5 11 t-59.5 32.5t-39.5 53t-14.5 72.5v292q0 39 13.5 70.5t37.5 53.5t57.5 34t73.5 12q46 0 89 -15t81 -59z" />
<glyph unicode="D" horiz-adv-x="492" d="M437 186q0 -93 -48.5 -139.5t-136.5 -46.5h-179q-12 0 -12 11v595q0 11 12 11h179q90 0 137.5 -47t47.5 -133v-251zM353 446q0 52 -29.5 75.5t-76.5 23.5h-93q-9 0 -9 -8v-455q0 -9 8 -9h101q50 0 74.5 26.5t24.5 73.5v273z" />
<glyph unicode="E" horiz-adv-x="440" d="M410 12q0 -12 -12 -12h-326q-12 0 -12 11v595q0 11 12 11h322q13 0 13 -11v-49q0 -12 -12 -12h-243q-8 0 -8 -8v-171q0 -8 7 -8h201q12 0 12 -12v-50q0 -11 -11 -11h-201q-8 0 -8 -9v-194q0 -9 7 -9h247q12 0 12 -11v-50v0z" />
<glyph unicode="F" horiz-adv-x="402" d="M390 556q0 -11 -12 -11h-228q-9 0 -9 -8v-175q0 -8 8 -8h195q11 0 11 -12v-50q0 -11 -11 -11h-194q-8 0 -8 -9v-260q0 -12 -11 -12h-61q-12 0 -12 11v595q0 11 12 11h308q12 0 12 -10v-51v0z" />
<glyph unicode="G" horiz-adv-x="480" d="M427 161q0 -37 -13 -67.5t-37 -52.5t-57.5 -34.5t-73.5 -12.5t-74.5 11t-59.5 32.5t-39.5 53t-14.5 72.5v292q0 39 14.5 70.5t40 53.5t60 34t74.5 12q49 0 96.5 -19t72.5 -62q4 -7 2.5 -11t-7.5 -9l-39 -31q-5 -4 -10.5 -1.5t-10.5 8.5q-21 29 -49 40t-54 11 q-55 0 -80.5 -30.5t-25.5 -73.5v-283q0 -42 28 -69.5t76 -27.5q43 0 69 25t26 70v92q0 8 -6 8h-74q-12 0 -12 11v51q0 12 12 12h153q13 0 13 -12v-163v0z" />
<glyph unicode="H" horiz-adv-x="522" d="M461 12q0 -12 -12 -12h-61q-12 0 -12 11v263q0 9 -8 9h-213q-8 0 -8 -9v-262q0 -12 -11 -12h-61q-12 0 -12 11v595q0 11 11 11h61q12 0 12 -10v-243q0 -9 8 -9h213q8 0 8 9v242q0 11 11 11h61q13 0 13 -10v-595v0z" />
<glyph unicode="I" horiz-adv-x="241" d="M162 12q0 -12 -12 -12h-62q-12 0 -12 11v595q0 11 12 11h62q12 0 12 -10v-595v0z" />
<glyph unicode="J" horiz-adv-x="269" d="M-10 -63q-2 8 -1.5 13t11.5 9q27 11 50 23t39 30t25 44t9 66v482q0 13 15 13h52q15 0 15 -13v-474q0 -47 -8.5 -86t-29.5 -70t-56 -53.5t-88 -37.5q-8 -2 -12.5 0.5t-7.5 13.5z" />
<glyph unicode="K" horiz-adv-x="499" d="M445 617q10 0 12 -4.5t-2 -9.5l-185 -227q-4 -5 -2 -7.5t7 -2.5q8 0 14.5 0.5t13.5 -0.5q69 -5 102.5 -48t38.5 -117l15 -191q0 -10 -10 -10h-58q-11 0 -11 9l-12 180q-1 16 -5 36t-15 37t-31 28.5t-54 11.5q-57 0 -86 -33t-29 -86v-173q0 -10 -9 -10h-65q-11 0 -11 9 v598q0 10 11 10h65q9 0 9 -9v-248q0 -9 4 -8t7 4l207 254q6 7 14 7h65z" />
<glyph unicode="L" horiz-adv-x="426" d="M407 12q0 -12 -11 -12h-318q-12 0 -12 11v595q0 11 11 11h61q11 0 11 -10v-525q0 -9 8 -9h238q12 0 12 -11v-50v0z" />
<glyph unicode="M" horiz-adv-x="627" d="M577 12q0 -12 -11 -12h-57q-11 0 -11 11v388q0 2 -1.5 2.5t-2.5 -1.5l-42 -117l-97 -249q-2 -3 -6 -8.5t-13 -5.5h-39q-8 0 -12.5 2.5t-7.5 10.5l-92 242l-43 122q-3 3 -3 0v-385q0 -12 -11 -12h-56q-12 0 -12 11v587q0 19 18 19h39q14 0 17 -2.5t8 -12.5l134 -358 l38 -110q5 -8 9 -1q10 27 19.5 56.5t19.5 56.5l133 357q5 8 9.5 11t14.5 3h40q11 0 14.5 -5t3.5 -13v-587v0z" />
<glyph unicode="N" horiz-adv-x="519" d="M118 617q12 0 17 -4.5t10 -11.5l233 -429q1 -2 2 -2.5t1 1.5v435q0 11 11 11h56q12 0 12 -10v-587q0 -13 -6.5 -16.5t-12.5 -3.5h-38q-11 0 -16.5 3.5t-9.5 11.5l-233 428q-3 3 -3 0v-431q0 -12 -11 -12h-57q-12 0 -12 11v581q0 13 3.5 19t17.5 6h36z" />
<glyph unicode="O" horiz-adv-x="497" d="M439 165q0 -41 -14.5 -72.5t-40 -53.5t-60 -33.5t-75.5 -11.5t-75.5 11t-60.5 32.5t-40.5 53.5t-14.5 74v290q0 40 15 71.5t40.5 53.5t60 33.5t74.5 11.5q39 0 73.5 -11t61 -32.5t41.5 -53.5t15 -73v-290zM355 453q0 43 -29 71t-77 28q-49 0 -78 -28.5t-29 -70.5v-286 q0 -45 27.5 -72.5t78.5 -27.5q50 0 78.5 27.5t28.5 72.5v286z" />
<glyph unicode="P" horiz-adv-x="458" d="M434 434q0 -37 -14 -70t-39 -57.5t-59 -38.5t-74 -14h-92q-8 0 -8 -9v-233q0 -12 -12 -12h-60q-12 0 -12 11v595q0 11 12 11h171q44 0 78.5 -14t58.5 -38.5t37 -58t13 -72.5zM156 545q-9 0 -9 -8v-203q0 -9 8 -9h92q47 0 75.5 29.5t28.5 80.5q0 19 -6.5 39t-19.5 35.5 t-32.5 25.5t-45.5 10h-91z" />
<glyph unicode="Q" horiz-adv-x="497" d="M439 165q0 -69 -39.5 -113.5t-104.5 -53.5q-9 -1 -9 -13q0 -22 9 -33.5t32 -11.5q11 0 29.5 4t32.5 10q10 5 15 4t7 -9l15 -34q2 -7 1 -12t-10 -10q-23 -13 -48.5 -18.5t-44.5 -5.5q-60 0 -89 30.5t-29 87.5q0 5 -3.5 8t-5.5 4q-30 7 -55 21t-44 34.5t-29.5 48 t-10.5 62.5v290q0 40 15 71.5t40.5 53.5t60 33.5t74.5 11.5q39 0 73.5 -11t61 -32.5t41.5 -53.5t15 -73v-290zM355 453q0 43 -29 71t-77 28q-49 0 -78 -28.5t-29 -70.5v-286q0 -45 27.5 -72.5t78.5 -27.5q50 0 78.5 27.5t28.5 72.5v286z" />
<glyph unicode="R" horiz-adv-x="483" d="M437 444q0 -26 -8 -51t-21.5 -47.5t-30 -41t-32.5 -32.5q-5 -3 -3 -7q1 -2 3.5 -7.5t13.5 -29t33.5 -71.5t63.5 -135q6 -13 0.5 -17.5t-11.5 -4.5h-52q-16 0 -21.5 5t-10.5 15l-102 225q-2 4 -5 6.5t-10 2.5h-88q-8 0 -8 -9v-233q0 -12 -12 -12h-60q-12 0 -12 11v595 q0 11 12 11h176q94 0 139.5 -47t45.5 -126zM156 545q-9 0 -9 -8v-203q0 -9 8 -9h122q5 0 9 1.5t7 3.5q27 19 43 50t16 55q0 19 -4.5 39t-17 35.5t-34 25.5t-55.5 10h-85z" />
<glyph unicode="S" horiz-adv-x="453" d="M207 68q57 0 93 25.5t36 76.5q0 25 -10.5 42.5t-27 29.5t-37 20.5t-40.5 15.5q-29 10 -61 23t-58.5 33t-44 49.5t-17.5 71.5q0 40 14 71.5t38.5 53.5t57.5 33.5t71 11.5q36 0 81 -9t88 -41q9 -7 6 -12.5t-5 -9.5l-24 -38q-5 -7 -12 -6t-13 5q-34 20 -60 28.5t-52 8.5 q-22 0 -41.5 -5t-34 -16.5t-23 -30t-8.5 -46.5q0 -20 10.5 -35t27.5 -26.5t38 -20.5t42 -17q33 -13 65 -26.5t57 -33.5t40.5 -49t15.5 -74q0 -41 -15.5 -73.5t-43.5 -55t-67 -35t-85 -12.5q-57 0 -106.5 19.5t-76.5 57.5q-9 10 4 20l37 34q6 5 10.5 2.5t11.5 -9.5 q23 -25 54 -38t65 -13z" />
<glyph unicode="T" horiz-adv-x="417" d="M402 556q0 -11 -12 -11h-132q-9 0 -9 -8v-525q0 -12 -11 -12h-61q-12 0 -12 11v525q0 9 -8 9h-130q-12 0 -12 11v50q0 11 12 11h363q12 0 12 -10v-51v0z" />
<glyph unicode="U" horiz-adv-x="498" d="M440 160q0 -40 -15.5 -71t-42 -52t-61 -32t-72.5 -11t-73 11t-61 32t-41.5 52t-15.5 71v446q0 11 11 11h62q11 0 11 -10v-447q0 -41 30.5 -67t75.5 -26q50 0 79 27t29 69v443q0 11 12 11h60q12 0 12 -10v-447v0z" />
<glyph unicode="V" horiz-adv-x="445" d="M274 9q-3 -9 -14 -9h-68q-11 0 -15 10l-166 590q-2 7 1 12t12 5h62q11 0 14 -9l87 -346l38 -160q2 -6 4 0l36 160l86 346q4 9 14 9h58q14 0 15 -7t-1 -12z" />
<glyph unicode="W" horiz-adv-x="666" d="M523 9q-2 -3 -5 -6t-6 -3h-74q-9 0 -11 8l-69 328l-23 121q0 2 -2 0l-23 -123l-65 -327q-3 -7 -12 -7h-72q-9 0 -12 6l-140 597q-1 5 1.5 9.5t10.5 4.5h65q8 0 9.5 -4t2.5 -9l69 -318l29 -148q2 -5 5 0q6 35 13 71.5t13 71.5l66 329q1 2 3.5 4.5t10.5 2.5h57q11 0 14 -10 l69 -325l28 -144q0 -3 2 -2.5t3 2.5l28 147l67 322q2 10 13 10h59q11 0 13 -5.5t0 -11.5z" />
<glyph unicode="X" horiz-adv-x="451" d="M234 233q-1 3 -4.5 4.5t-5.5 -3.5l-111 -223q-5 -8 -9.5 -9.5t-12.5 -1.5h-62q-17 0 -9 16l154 294q5 11 3 16t-4 9l-140 268q-8 14 11 14h66q9 0 13 -2.5t7 -8.5l97 -200q4 -4 8 0q25 49 50 99.5t49 100.5q3 6 7 8.5t13 2.5h60q16 0 11 -14q-35 -68 -71.5 -136 t-71.5 -136q-5 -12 0 -20q18 -34 37.5 -71.5t40 -76t40.5 -76t38 -71.5q8 -16 -9 -16h-62q-8 0 -13 1.5t-9 9.5z" />
<glyph unicode="Y" horiz-adv-x="435" d="M264 245q-5 -11 -5 -24v-209q0 -12 -12 -12h-60q-12 0 -12 11v212q0 12 -4 20l-154 357q-7 17 10 17h57q16 0 21 -11l108 -274q5 -8 9 -1q27 68 54 136.5t53 136.5q4 8 8 10.5t15 2.5h55q11 0 12.5 -4.5t-1.5 -11.5z" />
<glyph unicode="Z" horiz-adv-x="420" d="M390 12q0 -12 -12 -12h-325q-10 0 -14.5 5t-4.5 11v32q0 14 7 28l239 457q7 12 -7 12h-212q-12 0 -12 11v50q0 11 12 11h301q13 0 17.5 -4.5t4.5 -13.5v-29q0 -10 -4.5 -22t-8.5 -19l-231 -444q-7 -12 6 -12h232q5 0 8.5 -3t3.5 -8v-50v0z" />
<glyph unicode="[" horiz-adv-x="326" d="M269 -138q0 -9 -9 -9h-148q-9 0 -9 9v812q0 10 9 10h147q10 0 10 -10v-50q0 -9 -9 -9h-66q-11 0 -11 -11v-672q0 -10 10 -10h66q10 0 10 -9v-51v0z" />
<glyph unicode="\" horiz-adv-x="303" d="M297 -52q5 -14 -9 -14h-31q-12 0 -17 12l-235 717q-2 6 1 9t8 3h29q16 0 20 -12l234 -715v0z" />
<glyph unicode="]" horiz-adv-x="317" d="M215 -139q0 -9 -9 -9h-148q-9 0 -9 9v50q0 9 9 9h66q11 0 11 11v672q0 10 -11 10h-66q-9 0 -9 10v50q0 10 9 10h147q10 0 10 -10v-812v0z" />
<glyph unicode="^" horiz-adv-x="548" d="M463 416q6 -8 3 -12.5t-9 -9.5l-22 -17q-6 -5 -21 10l-138 149q-2 2 -3.5 4.5t-4.5 2.5t-4.5 -1.5t-4.5 -5.5l-126 -151q-6 -8 -11.5 -11t-12.5 1l-27 17q-5 2 -6 8.5t4 12.5l151 204q4 5 7 7.5t13 2.5h46q8 0 10.5 -1.5t7.5 -8.5l148 -201v0z" />
<glyph unicode="_" horiz-adv-x="500" d="M500 -134q0 -10 -9 -10h-482q-10 0 -10 9v41q0 9 10 9h481q10 0 10 -9v-40v0z" />
<glyph unicode="`" horiz-adv-x="438" d="M120 601q-4 4 -5 10t7 12l44 29q6 4 11.5 0t8.5 -9l76 -127q7 -11 -4 -18l-19 -12q-5 -4 -11 -2t-10 6z" />
<glyph unicode="a" horiz-adv-x="438" d="M40 147q0 32 10.5 60t31 48.5t50.5 32.5t70 12q44 0 79 -19q7 -4 12.5 -2.5t5.5 10.5v9q0 40 -20.5 59t-68.5 19q-9 0 -23 -2t-28.5 -5t-28.5 -7.5t-23 -9.5q-11 -5 -15 6l-17 44q-3 10 5 13q27 14 65 22t74 8q46 0 77 -11t49.5 -32t26 -50.5t7.5 -65.5v-276 q0 -10 -9 -10h-55q-9 0 -9 8v18q0 7 -4 8t-9 -4q-20 -20 -45.5 -28t-54.5 -8q-75 0 -114 42t-39 111zM115 149q0 -37 22 -62.5t68 -25.5q41 0 65 25t24 63q0 37 -21.5 62.5t-68.5 25.5q-41 0 -65 -25t-24 -63z" />
<glyph unicode="b" horiz-adv-x="451" d="M407 160q0 -73 -43 -119t-125 -46q-36 0 -58 11t-36 22q-7 5 -12 4t-5 -8v-14q0 -10 -11 -10h-53q-10 0 -10 9v618q0 10 10 10h61q9 0 9 -9v-208q0 -6 5 -9.5t12 2.5q12 10 34.5 20t62.5 10q42 0 72.5 -13.5t49.5 -37t28 -53.5t9 -63v-116zM327 276q0 41 -22 70t-74 29 q-43 0 -70 -29t-27 -70v-116q0 -41 26.5 -69.5t69.5 -28.5q53 0 75 28t22 70v116z" />
<glyph unicode="c" horiz-adv-x="402" d="M375 368q4 -5 3 -11.5t-7 -10.5l-35 -27q-13 -9 -23 6q-17 25 -41.5 37.5t-52.5 12.5q-43 0 -68.5 -26.5t-25.5 -68.5v-124q0 -41 26.5 -66.5t70.5 -25.5q39 0 62 17t41 40q5 6 15 -1l33 -24q10 -6 11 -11.5t-3 -10.5q-30 -45 -71.5 -62.5t-86.5 -17.5q-81 0 -129.5 44 t-48.5 121v115q0 40 13.5 72t37 53.5t55.5 33t70 11.5q97 -1 154 -76z" />
<glyph unicode="d" horiz-adv-x="451" d="M399 9q0 -9 -9 -9h-54q-10 0 -10 10v14q0 6 -5.5 8t-11.5 -3q-13 -11 -40 -22.5t-63 -11.5q-73 0 -116.5 42t-43.5 123v116q0 34 11 64.5t32 53t50.5 36t66.5 13.5q40 0 63 -11t33 -19q8 -6 12 -3t4 10v207q0 10 10 10h61q10 0 10 -9v-619zM319 276q0 41 -23 69.5 t-73 28.5q-52 0 -74.5 -28.5t-22.5 -69.5v-116q0 -42 23.5 -69.5t69.5 -27.5q42 0 70.5 28t28.5 69z" />
<glyph unicode="e" horiz-adv-x="438" d="M399 225q0 -11 -6.5 -17.5t-13.5 -6.5h-234q-8 0 -13 -5t-5 -13v-19q0 -20 5 -38.5t16.5 -32t30 -21.5t44.5 -8q30 0 54.5 14t41.5 37q8 11 20 3l35 -24q12 -8 8 -16q-24 -44 -66 -64t-91 -20q-81 0 -129.5 44.5t-48.5 119.5v114q0 38 13 70t36.5 55t55.5 35.5t71 12.5 q40 0 72.5 -12.5t55.5 -35.5t35.5 -55t12.5 -70v-47zM223 376q-42 0 -68 -27t-26 -65v-7q0 -4 3 -8t12 -4h164q10 0 10 11v9q0 38 -24 64.5t-71 26.5z" />
<glyph unicode="f" horiz-adv-x="274" d="M271 571q-2 -5 -5 -6.5t-11 0.5q-12 3 -22 4t-20 1q-30 0 -42 -19t-12 -44v-58q0 -10 11 -10h83q10 0 10 -10v-49q0 -9 -10 -9h-84q-10 0 -10 -10v-352q0 -9 -10 -9h-60q-5 0 -7 3t-2 6v350q0 12 -10 12h-44q-8 0 -8 10v49q0 9 10 9h41q11 0 11 10v67q0 26 8 49 t23.5 40.5t38 27.5t52.5 10q20 0 36 -1.5t33 -6.5q8 -2 10.5 -5t0.5 -11z" />
<glyph unicode="g" horiz-adv-x="438" d="M283 -141q25 15 42.5 35t17.5 40q0 18 -11 30t-27.5 19t-37 10t-39.5 3q-32 0 -72.5 -5t-77.5 -11q-12 -2 -16.5 1t-8.5 8q-9 13 -13.5 30t-4.5 36q0 28 19.5 53.5t46.5 40.5q3 2 3 4.5t-3 4.5l-4 2q-31 20 -50 52.5t-19 75.5q0 33 14 61.5t37.5 50t54.5 33.5t66 12 q33 0 63 -10t53 -28q5 -4 10 0q19 16 42.5 25.5t47.5 9.5q14 1 14 -15v-51q0 -8 -2.5 -10t-12.5 -1q-26 4 -47 -4q-8 -1 -5 -8q17 -29 17 -65q0 -35 -14.5 -64t-39 -50t-57 -32.5t-69.5 -11.5q-15 0 -23 -2q-26 -6 -45.5 -28t-21.5 -40q0 -8 7 -5q28 7 60 9.5t49 2.5 q34 0 69.5 -6t64.5 -21t47 -40t18 -63q0 -22 -9 -42.5t-24 -38.5t-34 -32t-38 -22q-13 -7 -21 6l-22 34q-6 9 6 17zM298 284q0 37 -25.5 64.5t-66.5 27.5q-45 0 -71.5 -27.5t-26.5 -64.5q0 -36 24 -63.5t68 -27.5q47 0 72.5 26.5t25.5 64.5z" />
<glyph unicode="h" horiz-adv-x="466" d="M410 10q0 -10 -9 -10h-62q-9 0 -9 9v267q0 43 -22.5 70.5t-73.5 27.5q-44 0 -70 -27.5t-26 -69.5v-267q0 -10 -10 -10h-61q-10 0 -10 9v618q0 10 9 10h62q9 0 9 -10v-211q0 -8 5 -9.5t10 3.5q22 16 48.5 24.5t54.5 8.5q75 0 115 -45.5t40 -120.5v-267v0z" />
<glyph unicode="i" horiz-adv-x="203" d="M154 576q0 -20 -15 -35t-36 -15t-35.5 14t-14.5 36q0 20 14.5 34.5t34.5 14.5q22 0 37 -14t15 -35zM61 428q0 10 9 10h62q10 0 10 -10v-419q0 -9 -9 -9h-62q-10 0 -10 9v419z" />
<glyph unicode="j" horiz-adv-x="219" d="M166 576q0 -20 -15 -35t-36 -15t-35.5 14t-14.5 36q0 20 14.5 34.5t34.5 14.5q22 0 37 -14t15 -35zM-13 -115q2 10 17 7q7 -1 13 -1.5t11 -0.5q27 1 37.5 17t10.5 45v477q0 9 10 9h60q5 0 7 -3t2 -6v-486q0 -26 -6.5 -49t-20 -40.5t-36 -27.5t-53.5 -10q-34 0 -50 4 q-7 2 -10 5t-1 11z" />
<glyph unicode="k" horiz-adv-x="437" d="M414 17q0 -17 -14 -17h-53q-14 0 -14 14l-5 93q-1 19 -5.5 36.5t-15 31t-28.5 21t-45 7.5q-47 0 -71.5 -28t-24.5 -67v-98q0 -10 -10 -10h-61q-10 0 -10 9v618q0 10 9 10h62q9 0 9 -9v-354q0 -11 5 -13t10 3l155 169q5 5 14 5h74q11 0 11 -9q0 -2 -1.5 -4.5t-3.5 -4.5 l-132 -142q-6 -7 4 -10q7 -1 13.5 -1.5t12.5 -2.5q61 -14 84.5 -56t26.5 -100l4 -91v0z" />
<glyph unicode="l" horiz-adv-x="221" d="M63 627q0 10 9 10h61q10 0 10 -9v-504q0 -35 10 -45t34 -10h13q7 0 8 -5t1 -10v-47q0 -11 -10 -13q-6 -2 -14.5 -2h-13.5q-34 0 -55 8.5t-33 25t-16 41.5t-4 58v502v0z" />
<glyph unicode="m" horiz-adv-x="703" d="M651 10q0 -10 -9 -10h-62q-9 0 -9 9v268q0 39 -22 68.5t-68 29.5q-19 0 -35.5 -8.5t-28.5 -22t-18.5 -31t-6.5 -36.5v-267q0 -10 -9 -10h-61q-10 0 -10 9v268q0 39 -21 68.5t-67 29.5q-22 0 -39 -8t-28 -21.5t-17 -31.5t-6 -37v-267q0 -10 -9 -10h-62q-10 0 -10 9v268 q0 36 11.5 66.5t33 53t53.5 35t73 12.5q40 0 70.5 -15.5t51.5 -39.5q6 -7 12 -1q20 23 52 39.5t76 16.5q42 0 73 -12.5t51.5 -34.5t30.5 -52.5t10 -67.5v-267v0z" />
<glyph unicode="n" horiz-adv-x="462" d="M408 10q0 -10 -9 -10h-62q-9 0 -9 9v267q0 43 -24 71t-72 28q-44 0 -70 -27.5t-26 -70.5v-267q0 -10 -10 -10h-61q-10 0 -10 9v419q0 10 9 10h58q9 0 9 -9v-15q0 -9 7 -9q2 0 8 4q42 35 100 35q75 0 118.5 -45.5t43.5 -121.5v-267v0z" />
<glyph unicode="o" horiz-adv-x="448" d="M400 163q0 -81 -47.5 -125t-128.5 -44q-83 0 -129.5 43.5t-46.5 124.5v115q0 77 45 122.5t130 45.5t131 -44t46 -124v-114zM320 277q0 43 -23.5 70.5t-72.5 27.5q-44 0 -70 -27t-26 -71v-115q0 -43 22 -71t73 -28t73.5 27.5t23.5 71.5v115z" />
<glyph unicode="p" horiz-adv-x="454" d="M408 161q0 -35 -12 -65.5t-33.5 -53.5t-51 -36t-64.5 -13q-39 0 -60.5 9.5t-34.5 21.5q-8 7 -12.5 3.5t-4.5 -9.5v-189q0 -10 -9 -10h-62q-9 0 -9 9v601q0 9 9 9h55q10 0 10 -9v-21q0 -6 5 -5.5t11 6.5q13 11 38.5 22.5t63.5 11.5q72 0 116.5 -42.5t44.5 -121.5v-118z M327 278q0 42 -24.5 69.5t-71.5 27.5q-42 0 -69 -27.5t-27 -68.5v-118q0 -41 26.5 -70t69.5 -29q44 0 70 28.5t26 70.5v117z" />
<glyph unicode="q" horiz-adv-x="454" d="M403 -181q0 -10 -9 -10h-62q-10 0 -10 9v200q0 5 -4.5 9t-12.5 -3q-13 -12 -34.5 -21.5t-59.5 -9.5q-39 0 -69 13t-50.5 36t-31 53t-10.5 65v118q0 37 11.5 67.5t33 52t51.5 33.5t66 12q38 0 62.5 -11.5t37.5 -22.5q6 -6 11 -4t5 8v16q0 9 10 9h55q10 0 10 -9v-610z M322 278q0 42 -26.5 69.5t-68.5 27.5t-69.5 -27t-27.5 -69v-118q0 -41 26 -70t70 -29q43 0 69.5 28.5t26.5 70.5v117z" />
<glyph unicode="r" horiz-adv-x="295" d="M120 438q10 0 10 -9v-47q0 -5 3.5 -6.5t7.5 3.5q17 24 47 44.5t70 20.5q6 0 15 -0.5t12 -2.5q8 -2 9.5 -5.5t-0.5 -9.5l-12 -59q-2 -8 -5.5 -9.5t-7.5 -0.5q-15 3 -29 3q-56 0 -78 -32.5t-22 -80.5v-237q0 -10 -9 -10h-62q-10 0 -10 9v419q0 10 9 10h52z" />
<glyph unicode="s" horiz-adv-x="392" d="M355 119q0 -25 -10.5 -47.5t-30.5 -39.5t-49.5 -27t-67.5 -10q-53 0 -98 24t-65 74q-3 8 4 11l51 23q5 2 7.5 0t4.5 -5q15 -29 41.5 -45.5t60.5 -16.5q32 0 53.5 16.5t21.5 39.5q0 24 -17 37t-46 24q-23 9 -52.5 19t-55.5 25.5t-43.5 39t-17.5 59.5q0 30 12.5 53 t33.5 38.5t48 23.5t57 8q42 1 80 -13.5t67 -45.5q7 -7 -3 -17l-27 -31q-10 -11 -23 1q-20 18 -45 28.5t-50 10.5q-33 0 -52.5 -13.5t-19.5 -36.5q0 -22 16.5 -35.5t45.5 -24.5t59 -22t54.5 -26.5t40 -39t15.5 -59.5z" />
<glyph unicode="t" horiz-adv-x="305" d="M197 -6q-33 0 -56 9t-36.5 25t-19.5 38t-6 49v245q0 10 -11 10h-41q-10 0 -10 9v49q0 10 8 10h42q12 0 12 12v84q0 8 9 11l58 14q6 2 9 -1t3 -8v-102q0 -10 10 -10h92q10 0 10 -9v-49q0 -10 -10 -10h-91q-11 0 -11 -10v-228q0 -29 10 -46t40 -17q17 0 32.5 2t26.5 4 t14.5 -1.5t4.5 -9.5l8 -41q2 -8 0 -11t-10 -6q-15 -7 -41 -9.5t-46 -2.5z" />
<glyph unicode="u" horiz-adv-x="459" d="M401 10q0 -10 -10 -10h-57q-10 0 -10 9v15q0 7 -4.5 8.5t-9.5 -3.5q-19 -17 -48 -26t-55 -9q-75 0 -117 45t-42 122v267q0 10 9 10h62q9 0 9 -9v-268q0 -42 24 -70t72 -28q44 0 70 27.5t26 70.5v267q0 10 9 10h62q10 0 10 -9v-419v0z" />
<glyph unicode="v" horiz-adv-x="404" d="M245 12q-2 -7 -5.5 -9.5t-12.5 -2.5h-49q-14 0 -18 11l-146 413q-5 14 8 14h55q17 0 20 -12l68 -207l33 -113q2 -5 4.5 -5t4.5 4l31 108l68 210q2 5 5.5 10t13.5 5h57q14 0 9 -13z" />
<glyph unicode="w" horiz-adv-x="604" d="M474 14q-4 -14 -16 -14h-45q-8 0 -12 1.5t-6 9.5l-64 204l-31 113q-4 7 -6 0l-32 -121l-60 -196q-2 -8 -6.5 -9.5t-11.5 -1.5h-45q-7 0 -11.5 2.5t-6.5 10.5l-111 412q-5 14 8 14h62q14 0 17 -13l37 -165l29 -138q1 -4 3.5 -4t3.5 4l38 134l51 166q2 8 6 12t12 4h45 q5 0 10 -2t8 -13l61 -198l29 -103q1 -3 3.5 -3.5t3.5 3.5l19 96l45 206q2 6 5.5 10t12.5 4h59q12 0 9 -13z" />
<glyph unicode="x" horiz-adv-x="387" d="M375 14q4 -5 2.5 -9.5t-9.5 -4.5h-61q-7 0 -12.5 2t-10.5 10l-85 145q-4 7 -7 4l-5 -5l-84 -144q-5 -8 -10.5 -10t-12.5 -2h-60q-8 0 -9.5 4.5t2.5 9.5l125 199q7 11 6 16.5t-5 12.5l-113 181q-4 6 -2 10.5t10 4.5h58q10 0 14 -1.5t9 -9.5l74 -127q4 -6 6.5 -5t4.5 6 l73 126q5 8 9 9.5t14 1.5h58q8 0 10 -4.5t-2 -10.5l-115 -182q-6 -10 -4 -15t4 -9z" />
<glyph unicode="y" horiz-adv-x="412" d="M187 87q2 -8 6 -9.5t8 9.5l110 333q2 6 6.5 12.5t16.5 6.5h47q10 0 12.5 -5.5t0.5 -13.5l-193 -582q-2 -7 -9.5 -14t-21.5 -7h-37q-22 0 -14 26l47 142q2 5 2.5 10t-7.5 5h-10q-19 0 -24 20l-110 401q-2 8 0 13t11 5h53q10 0 15 -4.5t7 -10.5z" />
<glyph unicode="z" horiz-adv-x="402" d="M367 10q0 -10 -9 -10h-306q-8 0 -12 4.5t-4 9.5v27q0 6 1 13t6 13l194 289q5 6 2 10.5t-11 4.5h-172q-10 0 -10 9v48q0 10 9 10h275q20 0 20 -17v-28q0 -7 -2 -14.5t-4 -11.5l-192 -284q-8 -15 9 -15h196q10 0 10 -10v-48v0z" />
<glyph unicode="{" horiz-adv-x="338" d="M38 292q0 11 6 14t17 8q30 14 48.5 36t18.5 59v129q0 80 38.5 112.5t110.5 32.5h15q10 0 10 -10v-49q0 -10 -9 -10h-12q-21 0 -35 -2.5t-22.5 -9.5t-11.5 -20.5t-3 -35.5v-154q0 -36 -18 -65t-49 -47q-4 -3 -4 -7t4 -5q17 -8 29.5 -22t21 -30.5t12.5 -34.5t4 -34v-161 q0 -23 3 -36t11.5 -20.5t22.5 -9.5t35 -2h12q9 0 9 -10v-49q0 -10 -10 -10h-15q-72 0 -110 32.5t-38 112.5v142q0 37 -18.5 60t-47.5 34q-14 5 -19.5 8.5t-5.5 10.5v43z" />
<glyph unicode="|" horiz-adv-x="227" d="M141 -105q0 -10 -9 -10h-39q-10 0 -10 9v773q0 9 10 9h38q10 0 10 -8v-773z" />
<glyph unicode="}" horiz-adv-x="338" d="M298 251q0 -8 -5.5 -12t-19.5 -9q-29 -11 -47.5 -34t-18.5 -60v-142q0 -80 -38 -112.5t-110 -32.5h-15q-10 0 -10 10v49q0 10 9 10h12q21 0 35 2t22.5 9.5t11.5 20.5t3 36v161q0 16 4 34t12.5 34.5t21 30.5t29.5 22q4 1 4 5t-4 7q-31 18 -49 47t-18 65v154q0 22 -3 35.5 t-11.5 20.5t-22.5 9.5t-35 2.5h-12q-9 0 -9 10v49q0 10 10 10h15q72 0 110.5 -32.5t38.5 -112.5v-129q0 -37 18.5 -59t48.5 -36q11 -5 17 -8t6 -14v-41v0z" />
<glyph unicode="~" horiz-adv-x="475" d="M460 306q-25 -33 -55 -52.5t-65 -19.5q-31 0 -62.5 13.5t-60.5 26.5q-23 11 -43.5 18.5t-40.5 7.5q-21 0 -39 -11.5t-38 -34.5q-3 -3 -6 -3l-3 1l-34 32q-3 3 -3 7t3 7q30 39 60.5 54.5t56.5 15.5q28 0 56.5 -9.5t53.5 -21.5t49.5 -21.5t49.5 -9.5q22 0 38 12.5t30 26.5 q7 7 11 7t7 -3l33 -26q6 -5 6 -8t-4 -9z" />
<glyph unicode="&#xa1;" horiz-adv-x="263" d="M110 258q0 9 9 9h35q9 0 9 -8l19 -438q0 -10 -10 -10h-67q-10 0 -10 9zM84 385q0 22 15.5 37.5t38.5 15.5t39 -15.5t16 -37.5t-16 -37.5t-38 -15.5q-23 0 -39 15t-16 38z" />
<glyph unicode="&#xa2;" horiz-adv-x="475" d="M406 366q4 -5 3 -11.5t-7 -10.5l-38 -27q-13 -9 -23 6q-17 25 -38.5 38.5t-49.5 13.5q-42 0 -70 -26.5t-28 -68.5v-124q0 -41 28 -66.5t69 -25.5q19 0 33 4.5t25 12.5t19.5 18.5t17.5 22.5q5 6 15 -1l39 -25q10 -6 11 -11.5t-3 -10.5q-23 -34 -52 -52t-61 -24 q-5 -1 -11 -1.5t-6 -14.5v-43q0 -10 -10 -10h-31q-5 0 -7.5 1.5t-2.5 7.5v44q0 9 -5.5 11.5t-9.5 3.5q-64 11 -101 53t-37 109v115q0 70 40 113.5t102 53.5q3 1 7 2.5t4 12.5v45q0 9 10 9h31q10 0 10 -9v-47q0 -11 5 -12t9 -2q35 -7 62.5 -25.5t50.5 -48.5z" />
<glyph unicode="&#xa3;" horiz-adv-x="475" d="M175 358q0 -10 10 -10h109q10 0 10 -10v-50q0 -9 -10 -9h-108q-11 0 -11 -11v-60q0 -42 -3 -74.5t-18 -56.5q-3 -8 4 -8h243q10 0 10 -9v-50q0 -10 -9 -10h-359q-9 0 -9 9v50q0 8 10 10q17 5 27 16t15 24.5t6.5 28t1.5 26.5v104q0 10 -10 10h-39q-9 0 -9 10v50q0 9 9 9 h38q11 0 11 11v87q0 39 13.5 72t37.5 57t56.5 37.5t70.5 13.5q48 0 94 -19t71 -62q6 -11 -4 -17l-44 -28q-14 -9 -20 3q-15 26 -39 40t-56 14q-42 0 -70.5 -26.5t-28.5 -68.5v-103z" />
<glyph unicode="&#xa4;" horiz-adv-x="492" d="M94 431q7 7 13 1l46 -51q41 28 91 28q23 0 46 -7t43 -21l55 52q2 4 6.5 4.5t7.5 -4.5l32 -32q7 -8 1 -14l-53 -51q30 -41 30 -93q0 -24 -7 -47.5t-22 -44.5l50 -48q7 -7 1 -13l-34 -34q-7 -7 -13 0l-51 49q-42 -30 -90 -30q-50 0 -92 33l-52 -53q-6 -8 -13 -1l-34 33 q-7 6 0 13l53 56q-15 21 -22 43.5t-7 45.5q0 47 28 89l-46 51q-3 5 -4 7t4 7zM144 243q0 -21 8 -39.5t22 -32t32.5 -21.5t39.5 -8t39.5 8t32 21.5t21.5 32t8 39.5t-8 39.5t-21.5 32.5t-32 22t-39.5 8t-39.5 -8t-32.5 -22t-22 -32.5t-8 -39.5z" />
<glyph unicode="&#xa5;" horiz-adv-x="475" d="M432 256q9 0 9 -9v-37q0 -5 -3.5 -7t-5.5 -2h-147q-7 0 -8 -4t-1 -9v-178q0 -10 -10 -10h-60q-10 0 -10 9v178q0 5 -2.5 9t-10.5 4h-129q-10 0 -10 10v37q0 9 10 9h378zM54 304q-10 0 -10 9v37q0 10 10 10h78q5 0 6 4t-1 6l-100 232q-8 15 8 15h59q8 0 11.5 -1.5 t7.5 -9.5l62 -143l47 -119q7 -14 13 -1l50 125l58 136q4 8 7.5 10.5t13.5 2.5h53q9 0 10.5 -4.5t-1.5 -9.5l-102 -235q-4 -8 6 -8h92q9 0 9 -9v-37q0 -10 -9 -10h-378z" />
<glyph unicode="&#xa6;" horiz-adv-x="227" d="M141 310q-2 -9 -9 -9h-39q-10 0 -10 9v357q0 9 10 9h38q10 0 10 -8v-358zM141 -106q-2 -9 -9 -9h-39q-10 0 -10 9l1 354q0 9 10 9h38q10 0 10 -8z" />
<glyph unicode="&#xa7;" horiz-adv-x="452" d="M239 600q-45 0 -67 -15.5t-22 -38.5t20.5 -38.5t71.5 -33.5q34 -12 63.5 -24t50.5 -28t33 -37.5t12 -52.5q0 -41 -23 -69.5t-59 -43.5q-1 0 -2 -0.5t-3 -0.5q-6 0 -9 7l-17 39q-2 4 -2 6q0 6 7 8q15 8 24 20t9 30q0 16 -8 27.5t-22 20.5t-33.5 17t-43.5 16 q-31 11 -57 22.5t-45.5 27t-30.5 35.5t-11 47q0 55 43 89.5t123 34.5q44 0 80.5 -14.5t65.5 -46.5q3 -3 3 -6q0 -5 -6 -11l-29 -31q-5 -5 -10 -5q-7 0 -13 7q-19 20 -43.5 31t-49.5 11zM233 -73q-49 0 -94.5 17.5t-74.5 49.5q-3 3 -3 6q0 5 6 11l33 31q5 5 10 5q7 0 13 -7 q19 -20 50.5 -34t62.5 -14q18 0 35.5 3t31.5 10t23 18.5t9 27.5q0 30 -33.5 47t-83.5 34q-31 10 -57 23t-45.5 29t-30.5 36t-11 46q0 38 22.5 65t61.5 45q6 2 8 2q7 0 11 -9l14 -31q1 -2 2 -4.5t1 -4.5q0 -7 -10 -12q-16 -8 -26 -21.5t-10 -24.5q0 -23 21.5 -38.5 t71.5 -32.5q34 -12 65 -24.5t54.5 -29t37.5 -39t14 -52.5q0 -31 -14 -55t-38.5 -40t-57 -24.5t-69.5 -8.5z" />
<glyph unicode="&#xa8;" horiz-adv-x="455" d="M347 545q0 -20 -13 -33.5t-33 -13.5t-34 13.5t-14 33.5t13.5 33.5t33.5 13.5t33.5 -13.5t13.5 -33.5zM185 545q0 -20 -13.5 -33.5t-33.5 -13.5t-33.5 13.5t-13.5 33.5t13.5 33.5t33.5 13.5t33.5 -13.5t13.5 -33.5z" />
<glyph unicode="&#xa9;" horiz-adv-x="707" d="M469 424q4 -7 -3 -11l-29 -19q-10 -5 -14 2q-20 36 -61 36q-29 0 -47.5 -18.5t-18.5 -47.5v-125q0 -29 18 -47.5t47 -18.5q20 0 35 9.5t26 23.5q2 4 6 5.5t9 -2.5l30 -20q4 -4 0 -10q-39 -53 -105 -53q-54 0 -87 28.5t-33 83.5v125q0 53 33.5 83t87.5 30q37 0 63 -12.5 t43 -41.5zM355 0q-65 0 -119 16.5t-93 47.5t-60.5 75.5t-21.5 99.5v138q0 55 21.5 99.5t60.5 75.5t93 48t119 17t119.5 -16t94 -46.5t61.5 -75.5t22 -102v-138q0 -57 -22 -101.5t-61.5 -75t-94 -46.5t-119.5 -16zM608 380q0 42 -16.5 78t-48.5 62.5t-79.5 42t-109.5 15.5 t-109 -16t-78 -43t-46.5 -63t-15.5 -76v-143q0 -40 15.5 -76t46.5 -63.5t78 -43.5t109 -16t109.5 16t79.5 43t48.5 63t16.5 77v143z" />
<glyph unicode="&#xaa;" horiz-adv-x="292" d="M257 255q0 -7 -1.5 -10t-9.5 -3h-37q-8 0 -9.5 3t-1.5 8v7q0 4 -2 3l-4 -2q-10 -8 -28 -15t-33 -7q-53 0 -81.5 26t-28.5 73t31.5 73.5t80.5 26.5q11 0 26 -3.5t27 -13.5q4 -2 5 3v5q0 20 -11 30t-39 10q-12 0 -33.5 -4t-35.5 -11q-6 -3 -9 -1t-6 8l-10 24q-7 12 6 19 q19 9 43 14.5t47 5.5q63 0 88.5 -27t25.5 -75v-167zM187 339q0 20 -14.5 33.5t-36.5 13.5q-23 0 -37 -13.5t-14 -33.5t14 -34.5t37 -14.5q24 0 37.5 14.5t13.5 34.5z" />
<glyph unicode="&#xab;" horiz-adv-x="479" d="M316 211q-6 -7 -5 -10.5t5 -8.5l122 -152q6 -8 3 -14t-11 -6h-47q-11 0 -18 4t-16 15l-113 142q-11 13 -10 22t9 20l116 145q5 7 11 11.5t20 4.5h48q11 0 13.5 -5t-3.5 -13zM138 211q-6 -7 -5.5 -10.5t5.5 -8.5l121 -152q6 -8 3 -14t-10 -6h-48q-11 0 -18 4t-16 15 l-113 142q-10 13 -9 22t9 20l115 145q6 7 12 11.5t19 4.5h49q11 0 13 -5t-4 -13z" />
<glyph unicode="&#xac;" horiz-adv-x="475" d="M435 57q0 -14 -14 -14h-41q-15 0 -15 14v146q0 5 -4 5h-306q-15 0 -15 14v32q0 15 15 15h365q15 0 15 -15v-197z" />
<glyph unicode="&#xad;" horiz-adv-x="340" d="M277 215q0 -10 -9 -10h-204q-10 0 -10 10v46q0 10 9 10h204q10 0 10 -9v-47v0z" />
<glyph unicode="&#xae;" horiz-adv-x="409" d="M211 567q28 0 43 -14t15 -37q0 -15 -7.5 -27t-19.5 -20q-3 -2 -4 -3.5t1 -6.5l31 -65q2 -4 2 -8t-8 -4h-17q-8 0 -11 7l-28 65q-2 4 -9 4h-11q-6 0 -6 -5v-63q0 -8 -7 -8h-18q-8 0 -8 7v170q0 8 8 8h54zM237 513q0 11 -7.5 18t-18.5 7h-23q-6 0 -6 -5v-43q0 -4 5 -4h21 q11 0 20 8t9 19zM203 307q-36 0 -65.5 9t-50.5 26.5t-33 42t-12 54.5v74q0 30 12 54.5t33 42t50.5 26.5t65.5 9q35 0 65 -9t51.5 -25.5t34 -41.5t12.5 -56v-74q0 -32 -12.5 -56.5t-34 -41.5t-51.5 -25.5t-65 -8.5zM335 514q0 44 -33.5 73.5t-98.5 29.5q-33 0 -57.5 -8.5 t-41 -22.5t-24.5 -32.5t-8 -39.5v-77q0 -20 8 -39t24.5 -33t41 -22.5t57.5 -8.5q32 0 57 8.5t41.5 22.5t25 32.5t8.5 39.5v77z" />
<glyph unicode="&#xaf;" horiz-adv-x="438" d="M339 525q0 -10 -9 -10h-213q-10 0 -10 10v41q0 10 9 10h213q10 0 10 -9v-42v0z" />
<glyph unicode="&#xb0;" horiz-adv-x="303" d="M265 523q0 -24 -10 -44t-26.5 -35t-38 -23.5t-45.5 -8.5t-45 8.5t-36.5 23t-24.5 35t-9 44.5t9 44t24.5 35t36 23.5t44.5 8.5q59 0 90 -31.5t31 -79.5zM144 588q-24 0 -42.5 -19t-18.5 -46q0 -26 17.5 -46t43.5 -20q27 0 46.5 19.5t19.5 46.5q0 26 -17.5 45.5t-48.5 19.5 z" />
<glyph unicode="&#xb1;" horiz-adv-x="475" d="M435 333q0 -15 -15 -15h-147q-5 0 -5 -4v-147q0 -14 -14 -14h-34q-15 0 -15 14v146q0 5 -4 5h-146q-15 0 -15 14v32q0 15 15 15h145q5 0 5 4v146q0 15 14 15h34q15 0 15 -15v-145q0 -5 5 -5h147q15 0 15 -15v-31zM435 55q0 -15 -15 -15h-365q-15 0 -15 14v32q0 15 15 15 h365q15 0 15 -15v-31z" />
<glyph unicode="&#xb2;" horiz-adv-x="309" d="M263 340q0 -12 -11 -12h-219q-9 0 -12 2.5t-3 10.5v22q0 7 1 11.5t7 12.5l146 177q5 6 12 19t7 24q0 22 -14.5 36t-37.5 14q-19 0 -34 -10t-22 -19q-6 -8 -9.5 -10t-9.5 3l-29 22q-10 6 -1 17q20 27 48 39t58 12q54 0 85 -26.5t31 -72.5q0 -20 -12.5 -43.5t-23.5 -37.5 l-111 -137q-3 -4 -2 -6.5t4 -2.5h141q4 0 7.5 -3t3.5 -8v-34v0z" />
<glyph unicode="&#xb3;" horiz-adv-x="309" d="M258 435q0 -53 -33 -82t-88 -29q-35 0 -62 12t-44 44q-2 4 -2 9t8 9l24 15q13 8 23 -3q21 -31 53 -31q23 0 39.5 14t16.5 36v29q0 20 -15.5 35t-38.5 15h-39q-9 0 -11.5 2t-2.5 8v30q0 8 2.5 10.5t10.5 2.5h40q23 0 37.5 12.5t14.5 34.5t-15 35t-38 13q-18 0 -30.5 -7 t-20.5 -18q-4 -5 -10 -9.5t-14 0.5l-27 17q-8 5 -6.5 11t4.5 11q17 26 44.5 38t59.5 12q54 0 86 -28t32 -73q0 -21 -10 -42t-30 -35q-2 -2 0 -3q20 -11 31 -30.5t11 -39.5v-25v0z" />
<glyph unicode="&#xb4;" horiz-adv-x="438" d="M233 490q-3 -4 -9 -6t-12 2l-19 12q-9 7 -3 18l75 127q3 5 7.5 9.5t12.5 -0.5l44 -29q8 -6 7 -12t-4 -10z" />
<glyph unicode="&#xb6;" horiz-adv-x="449" d="M192 315q-36 0 -65.5 12.5t-51 34t-33.5 50.5t-12 63q0 33 12 62.5t34 51.5t51.5 35t64.5 13h87q9 0 9 -9v-304q0 -9 -9 -9h-87zM399 88q0 -39 -9 -70.5t-29 -54t-52 -35.5t-79 -16q-4 0 -6.5 1.5t-3.5 7.5l-4 36q-2 11 8 13q35 4 56.5 13t33.5 23t16.5 33t4.5 43v546 q0 9 10 9h44q10 0 10 -9v-540z" />
<glyph unicode="&#xb7;" horiz-adv-x="213" d="M161 233q0 -23 -16 -39t-39 -16q-22 0 -37.5 15.5t-15.5 38.5q0 21 15.5 37t37.5 16t38.5 -16t16.5 -36z" />
<glyph unicode="&#xb8;" horiz-adv-x="408" d="M314 -126q0 -29 -24.5 -53t-67.5 -24q-26 0 -44 5.5t-35 16.5q-8 6 -1 15l16 21q6 6 12 3q11 -6 22.5 -11t27.5 -5q20 0 31 8.5t11 22.5q0 4 -1 9.5t-5 10.5t-11.5 9t-20.5 4h-27q-19 0 -26 11t-3 26q5 21 9 36t9 30q1 3 3 8t8 5h30q5 0 5.5 -5.5t-0.5 -8.5 q-4 -15 -7.5 -28.5t-4.5 -18.5q-4 -11 7 -11h11q35 0 55.5 -20.5t20.5 -55.5z" />
<glyph unicode="&#xb9;" horiz-adv-x="256" d="M180 341q0 -14 -14 -14h-39q-14 0 -14 13v281q0 5 -3 3l-43 -23q-9 -5 -17 -3t-8 11v32q0 7 2 11.5t9 8.5l75 41q8 5 15 5h22q11 0 13 -4.5t2 -12.5v-349v0z" />
<glyph unicode="&#xba;" horiz-adv-x="299" d="M271 348q0 -53 -32.5 -81t-89.5 -28q-56 0 -88.5 28t-32.5 80v70q0 49 33 78t88 29t88.5 -28t33.5 -79v-69zM206 417q0 22 -15.5 36.5t-41.5 14.5q-25 0 -40.5 -14.5t-15.5 -36.5v-70q0 -23 15 -38.5t41 -15.5t41 15.5t16 38.5v70z" />
<glyph unicode="&#xbb;" horiz-adv-x="479" d="M318 37q-9 -11 -16 -15t-18 -4h-48q-7 0 -10 6t3 14l122 151q4 5 4.5 8.5t-4.5 11.5l-124 155q-6 7 -4 12.5t13 5.5h49q13 0 19 -4.5t12 -11.5l115 -146q8 -10 9 -19.5t-9 -22.5zM139 37q-9 -11 -16 -15t-18 -4h-47q-8 0 -11 6t3 14l122 151q4 5 5 8.5t-5 11.5l-124 155 q-6 7 -3.5 12.5t13.5 5.5h48q14 0 20 -4.5t11 -11.5l116 -146q8 -10 9 -19.5t-10 -22.5z" />
<glyph unicode="&#xbc;" horiz-adv-x="700" d="M214 251q0 -14 -14 -14h-39q-14 0 -14 13v281q0 5 -3 3l-43 -23q-9 -5 -17 -3t-8 11v32q0 7 2 11.5t9 8.5l75 41q8 5 15 5h22q11 0 13 -4.5t2 -12.5v-349zM214 -23q-2 -5 -5 -6t-7 -1h-36q-9 0 -5 9l278 660q3 6 6.5 7t6.5 1h30q9 0 10 -3t-1 -9zM534 380q4 0 6 -2.5 t0 -6.5l-117 -228q-1 -2 -1 -4.5t6 -2.5h72q5 0 6 3t1 5v87q0 6 6 6h48q7 0 7 -6v-86q0 -5 1 -7t6 -2h41q7 0 7 -6v-40q0 -6 -7 -6h-39q-9 0 -9 -8v-70q0 -6 -7 -6h-48q-6 0 -6 6v70q0 8 -9 8h-147q-7 0 -7 6v17q0 11 1 15.5t5 11.5l128 244q2 2 7 2h49z" />
<glyph unicode="&#xbd;" horiz-adv-x="700" d="M204 251q0 -14 -14 -14h-39q-14 0 -14 13v281q0 5 -3 3l-43 -23q-9 -5 -17 -3t-8 11v32q0 7 2 11.5t9 8.5l75 41q8 5 15 5h22q11 0 13 -4.5t2 -12.5v-349zM207 -23q-2 -5 -5 -6t-7 -1h-36q-9 0 -5 9l278 660q3 6 6.5 7t6.5 1h30q9 0 10 -3t-1 -9zM633 12q0 -12 -11 -12 h-219q-9 0 -12 2.5t-3 10.5v22q0 7 1 11.5t7 12.5l146 177q5 6 12 19t7 24q0 22 -14.5 36t-37.5 14q-19 0 -34 -10t-22 -19q-6 -8 -9.5 -10t-9.5 3l-29 22q-10 6 -1 17q20 27 48 39t58 12q54 0 85 -26.5t31 -72.5q0 -20 -12.5 -43.5t-23.5 -37.5l-111 -137q-3 -4 -2 -6.5 t4 -2.5h141q4 0 7.5 -3t3.5 -8v-34z" />
<glyph unicode="&#xbe;" horiz-adv-x="700" d="M554 380q4 0 6 -2.5t0 -6.5l-117 -228q-1 -2 -1 -4.5t6 -2.5h72q5 0 6 3t1 5v87q0 6 6 6h48q7 0 7 -6v-86q0 -5 1 -7t6 -2h41q7 0 7 -6v-40q0 -6 -7 -6h-39q-9 0 -9 -8v-70q0 -6 -7 -6h-48q-6 0 -6 6v70q0 8 -9 8h-147q-7 0 -7 6v17q0 11 1 15.5t5 11.5l128 244q2 2 7 2 h49zM265 345q0 -53 -33 -82t-88 -29q-35 0 -62 12t-44 44q-2 4 -2 9t8 9l24 15q13 8 23 -3q21 -31 53 -31q23 0 39.5 14t16.5 36v29q0 20 -15.5 35t-38.5 15h-39q-9 0 -11.5 2t-2.5 8v30q0 8 2.5 10.5t10.5 2.5h40q23 0 37.5 12.5t14.5 34.5t-15 35t-38 13q-18 0 -30.5 -7 t-20.5 -18q-4 -5 -10 -9.5t-14 0.5l-27 17q-8 5 -6.5 11t4.5 11q17 26 44.5 38t59.5 12q54 0 86 -28t32 -73q0 -21 -10 -42t-30 -35q-2 -2 0 -3q20 -11 31 -30.5t11 -39.5v-25zM231 -23q-2 -5 -5 -6t-7 -1h-36q-9 0 -5 9l278 660q3 6 6.5 7t6.5 1h30q9 0 10 -3t-1 -9z" />
<glyph unicode="&#xbf;" horiz-adv-x="491" d="M84 -39q0 49 27.5 89t75.5 69q42 26 63.5 52t21.5 64v21q0 14 9 14h58q8 0 11 -2.5t3 -12.5v-34q0 -38 -21 -76t-59 -64q-46 -31 -74.5 -56t-31.5 -59q-2 -17 4 -34.5t18 -31t30 -22t40 -8.5q35 0 55 14t33 33q2 2 3 4t3 5q8 11 20 3l44 -28q6 -4 6 -8t-2 -9 q-26 -43 -67.5 -63t-89.5 -20q-37 0 -69.5 10t-57 30.5t-39 50.5t-14.5 69zM259 385q0 22 15.5 37.5t39.5 15.5q22 0 38 -15.5t16 -37.5t-16 -37.5t-38 -15.5q-23 0 -39 15t-16 38z" />
<glyph unicode="&#xc0;" horiz-adv-x="457" d="M366 0q-13 0 -14 7l-33 130q-2 4 -4 4h-177q-4 0 -4.5 -1t-1.5 -2l-32 -131q-1 -7 -13 -7h-54q-8 0 -11.5 3t-1.5 12l148 590q1 5 4.5 8.5t11.5 3.5h85q12 0 15 -10l152 -590q2 -5 1 -11t-10 -6h-61zM196 402l-45 -184q-1 -5 -0.5 -6.5t5.5 -1.5h138q5 0 6 1.5t0 6.5 l-44 180l-28 126q-1 3 -2.5 3t-2.5 -2zM79 712q-5 2 -8 7t3 13l30 44q5 5 11 4t11 -5l116 -92q10 -8 3 -18l-13 -18q-4 -5 -10 -5.5t-11 1.5z" />
<glyph unicode="&#xc1;" horiz-adv-x="457" d="M366 0q-13 0 -14 7l-33 130q-2 4 -4 4h-177q-4 0 -4.5 -1t-1.5 -2l-32 -131q-1 -7 -13 -7h-54q-8 0 -11.5 3t-1.5 12l148 590q1 5 4.5 8.5t11.5 3.5h85q12 0 15 -10l152 -590q2 -5 1 -11t-10 -6h-61zM196 402l-45 -184q-1 -5 -0.5 -6.5t5.5 -1.5h138q5 0 6 1.5t0 6.5 l-44 180l-28 126q-1 3 -2.5 3t-2.5 -2zM232 646q-5 -2 -11 -1.5t-10 5.5l-13 18q-8 10 3 18l116 92q5 4 11 5t11 -4l30 -44q6 -8 3 -13t-8 -7z" />
<glyph unicode="&#xc2;" horiz-adv-x="457" d="M366 0q-13 0 -14 7l-33 130q-2 4 -4 4h-177q-4 0 -4.5 -1t-1.5 -2l-32 -131q-1 -7 -13 -7h-54q-8 0 -11.5 3t-1.5 12l148 590q1 5 4.5 8.5t11.5 3.5h85q12 0 15 -10l152 -590q2 -5 1 -11t-10 -6h-61zM196 402l-45 -184q-1 -5 -0.5 -6.5t5.5 -1.5h138q5 0 6 1.5t0 6.5 l-44 180l-28 126q-1 3 -2.5 3t-2.5 -2zM180 774q5 5 9.5 7t12.5 2h32q8 0 12.5 -2t9.5 -7l96 -99q11 -9 -1 -17l-14 -10q-7 -5 -12 -4t-10 5l-88 61q-7 7 -15 0l-91 -61q-6 -4 -10.5 -5t-11.5 4l-14 10q-12 8 -1 17z" />
<glyph unicode="&#xc3;" horiz-adv-x="457" d="M366 0q-13 0 -14 7l-33 130q-2 4 -4 4h-177q-4 0 -4.5 -1t-1.5 -2l-32 -131q-1 -7 -13 -7h-54q-8 0 -11.5 3t-1.5 12l148 590q1 5 4.5 8.5t11.5 3.5h85q12 0 15 -10l152 -590q2 -5 1 -11t-10 -6h-61zM196 402l-45 -184q-1 -5 -0.5 -6.5t5.5 -1.5h138q5 0 6 1.5t0 6.5 l-44 180l-28 126q-1 3 -2.5 3t-2.5 -2zM353 716q-16 -34 -37.5 -48.5t-40.5 -14.5q-16 0 -30.5 5.5t-27.5 12t-25.5 12t-25.5 5.5q-8 0 -18.5 -9.5t-17.5 -21.5q-6 -10 -17 -4l-27 16q-5 2 -4 7t3 9q13 25 33 44t45 19q15 0 29.5 -6t28 -12.5t26.5 -12.5t24 -6t20 10.5 t16 22.5q2 3 4 5t7 -1l32 -15q9 -3 3 -17z" />
<glyph unicode="&#xc4;" horiz-adv-x="457" d="M366 0q-13 0 -14 7l-33 130q-2 4 -4 4h-177q-4 0 -4.5 -1t-1.5 -2l-32 -131q-1 -7 -13 -7h-54q-8 0 -11.5 3t-1.5 12l148 590q1 5 4.5 8.5t11.5 3.5h85q12 0 15 -10l152 -590q2 -5 1 -11t-10 -6h-61zM196 402l-45 -184q-1 -5 -0.5 -6.5t5.5 -1.5h138q5 0 6 1.5t0 6.5 l-44 180l-28 126q-1 3 -2.5 3t-2.5 -2zM347 700q0 -20 -13 -33.5t-33 -13.5t-34 13.5t-14 33.5t13.5 33.5t33.5 13.5t33.5 -13.5t13.5 -33.5zM185 700q0 -20 -13.5 -33.5t-33.5 -13.5t-33.5 13.5t-13.5 33.5t13.5 33.5t33.5 13.5t33.5 -13.5t13.5 -33.5z" />
<glyph unicode="&#xc5;" horiz-adv-x="457" d="M366 0q-13 0 -14 7l-33 130q-2 4 -4 4h-177q-4 0 -4.5 -1t-1.5 -2l-32 -131q-1 -7 -13 -7h-54q-8 0 -11.5 3t-1.5 12l148 590q1 5 4.5 8.5t11.5 3.5h85q12 0 15 -10l152 -590q2 -5 1 -11t-10 -6h-61zM196 402l-45 -184q-1 -5 -0.5 -6.5t5.5 -1.5h138q5 0 6 1.5t0 6.5 l-44 180l-28 126q-1 3 -2.5 3t-2.5 -2zM304 720q0 -17 -6.5 -32.5t-18.5 -27t-27.5 -18.5t-33.5 -7t-33.5 6.5t-27 17.5t-18.5 26.5t-7 32.5t6.5 32.5t18.5 27.5t27.5 19t33.5 7q35 0 60.5 -24.5t25.5 -59.5zM261 719q0 17 -13 30.5t-30 13.5t-29 -13t-12 -31t12 -30.5 t29 -12.5t30 12.5t13 30.5z" />
<glyph unicode="&#xc6;" horiz-adv-x="729" d="M699 12q0 -12 -12 -12h-326q-12 0 -12 11v126q0 5 -1.5 9t-9.5 4h-181q-4 0 -4.5 -1l-1.5 -3l-48 -136q-4 -10 -14 -10h-56q-9 0 -11 5.5t0 13.5l217 584q2 4 6 9t16 5h422q13 0 13 -11v-49q0 -12 -12 -12h-242q-9 0 -9 -8v-176q0 -8 8 -8h200q12 0 12 -12v-50 q0 -11 -11 -11h-200q-9 0 -9 -9v-189q0 -9 8 -9h246q12 0 12 -11v-50zM301 545q-8 0 -12 -9l-108 -305q-3 -7 4 -7h153q11 0 11 12v301q0 8 -9 8h-39z" />
<glyph unicode="&#xc7;" horiz-adv-x="430" d="M350 -126q0 -29 -24.5 -53t-67.5 -24q-26 0 -44 5.5t-35 16.5q-8 6 -1 15l16 21q6 6 12 3q11 -6 22.5 -11t27.5 -5q20 0 31 8.5t11 22.5q0 4 -1 9.5t-5 10.5t-11.5 9t-20.5 4h-27q-19 0 -26 11t-3 26q4 17 7 29t7 24q-70 7 -115 49.5t-45 117.5v292q0 39 13.5 70.5 t37.5 53.5t57.5 34t73.5 12q46 0 89 -15t81 -59q5 -6 5 -10.5t-8 -11.5l-38 -32q-4 -4 -10.5 -2.5t-10.5 6.5q-18 23 -47 37t-60 14q-48 0 -73.5 -27t-25.5 -70v-291q0 -42 28 -69.5t76 -27.5q31 0 58 15.5t44 32.5q5 6 10 9.5t13 -2.5l40 -33q3 -2 3.5 -7t-1.5 -9 q-27 -35 -65.5 -54.5t-82.5 -23.5l-9 -34q-4 -11 7 -11h11q35 0 55.5 -20.5t20.5 -55.5z" />
<glyph unicode="&#xc8;" horiz-adv-x="440" d="M410 12q0 -12 -12 -12h-326q-12 0 -12 11v595q0 11 12 11h322q13 0 13 -11v-49q0 -12 -12 -12h-243q-8 0 -8 -8v-171q0 -8 7 -8h201q12 0 12 -12v-50q0 -11 -11 -11h-201q-8 0 -8 -9v-194q0 -9 7 -9h247q12 0 12 -11v-50zM102 712q-5 2 -8 7t3 13l30 44q5 5 11 4t11 -5 l116 -92q10 -8 3 -18l-13 -18q-4 -5 -10 -5.5t-11 1.5z" />
<glyph unicode="&#xc9;" horiz-adv-x="440" d="M410 12q0 -12 -12 -12h-326q-12 0 -12 11v595q0 11 12 11h322q13 0 13 -11v-49q0 -12 -12 -12h-243q-8 0 -8 -8v-171q0 -8 7 -8h201q12 0 12 -12v-50q0 -11 -11 -11h-201q-8 0 -8 -9v-194q0 -9 7 -9h247q12 0 12 -11v-50zM205 646q-5 -2 -11 -1.5t-10 5.5l-13 18 q-8 10 3 18l116 92q5 4 11 5t11 -4l30 -44q6 -8 3 -13t-8 -7z" />
<glyph unicode="&#xca;" horiz-adv-x="440" d="M410 12q0 -12 -12 -12h-326q-12 0 -12 11v595q0 11 12 11h322q13 0 13 -11v-49q0 -12 -12 -12h-243q-8 0 -8 -8v-171q0 -8 7 -8h201q12 0 12 -12v-50q0 -11 -11 -11h-201q-8 0 -8 -9v-194q0 -9 7 -9h247q12 0 12 -11v-50zM186 774q5 5 9.5 7t12.5 2h32q8 0 12.5 -2 t9.5 -7l96 -99q11 -9 -1 -17l-14 -10q-7 -5 -12 -4t-10 5l-88 61q-7 7 -15 0l-91 -61q-6 -4 -10.5 -5t-11.5 4l-14 10q-12 8 -1 17z" />
<glyph unicode="&#xcb;" horiz-adv-x="440" d="M410 12q0 -12 -12 -12h-326q-12 0 -12 11v595q0 11 12 11h322q13 0 13 -11v-49q0 -12 -12 -12h-243q-8 0 -8 -8v-171q0 -8 7 -8h201q12 0 12 -12v-50q0 -11 -11 -11h-201q-8 0 -8 -9v-194q0 -9 7 -9h247q12 0 12 -11v-50zM354 700q0 -20 -13 -33.5t-33 -13.5t-34 13.5 t-14 33.5t13.5 33.5t33.5 13.5t33.5 -13.5t13.5 -33.5zM192 700q0 -20 -13.5 -33.5t-33.5 -13.5t-33.5 13.5t-13.5 33.5t13.5 33.5t33.5 13.5t33.5 -13.5t13.5 -33.5z" />
<glyph unicode="&#xcc;" horiz-adv-x="241" d="M162 12q0 -12 -12 -12h-62q-12 0 -12 11v595q0 11 12 11h62q12 0 12 -10v-595zM-32 712q-5 2 -8 7t3 13l30 44q5 5 11 4t11 -5l116 -92q10 -8 3 -18l-13 -18q-4 -5 -10 -5.5t-11 1.5z" />
<glyph unicode="&#xcd;" horiz-adv-x="241" d="M162 12q0 -12 -12 -12h-62q-12 0 -12 11v595q0 11 12 11h62q12 0 12 -10v-595zM126 646q-5 -2 -11 -1.5t-10 5.5l-13 18q-8 10 3 18l116 92q5 4 11 5t11 -4l30 -44q6 -8 3 -13t-8 -7z" />
<glyph unicode="&#xce;" horiz-adv-x="241" d="M162 12q0 -12 -12 -12h-62q-12 0 -12 11v595q0 11 12 11h62q12 0 12 -10v-595zM80 782q5 5 9.5 7t12.5 2h32q8 0 12.5 -2t9.5 -7l96 -99q11 -9 -1 -17l-14 -10q-7 -5 -12 -4t-10 5l-88 61q-7 7 -15 0l-91 -61q-6 -4 -10.5 -5t-11.5 4l-14 10q-12 8 -1 17z" />
<glyph unicode="&#xcf;" horiz-adv-x="241" d="M162 12q0 -12 -12 -12h-62q-12 0 -12 11v595q0 11 12 11h62q12 0 12 -10v-595zM247 700q0 -20 -13 -33.5t-33 -13.5t-34 13.5t-14 33.5t13.5 33.5t33.5 13.5t33.5 -13.5t13.5 -33.5zM85 700q0 -20 -13.5 -33.5t-33.5 -13.5t-33.5 13.5t-13.5 33.5t13.5 33.5t33.5 13.5 t33.5 -13.5t13.5 -33.5z" />
<glyph unicode="&#xd0;" horiz-adv-x="486" d="M61 606q0 11 12 11h172q90 0 137.5 -47t47.5 -133v-251q0 -93 -48.5 -139.5t-136.5 -46.5h-172q-12 0 -12 11v265q0 9 -8 9h-32q-12 0 -12 12v36q0 12 11 12h33q8 0 8 9v252zM144 82q0 -9 8 -9h95q49 0 74 26.5t25 73.5v273q0 52 -29.5 75.5t-76.5 23.5h-87q-9 0 -9 -8 v-182q0 -7 2.5 -8.5t6.5 -1.5h70q12 0 12 -11v-37q0 -12 -11 -12h-72q-8 0 -8 -9v-194z" />
<glyph unicode="&#xd1;" horiz-adv-x="519" d="M118 617q12 0 17 -4.5t10 -11.5l233 -429q1 -2 2 -2.5t1 1.5v435q0 11 11 11h56q12 0 12 -10v-587q0 -13 -6.5 -16.5t-12.5 -3.5h-38q-11 0 -16.5 3.5t-9.5 11.5l-233 428q-3 3 -3 0v-431q0 -12 -11 -12h-57q-12 0 -12 11v581q0 13 3.5 19t17.5 6h36zM392 712 q-16 -34 -37.5 -48.5t-40.5 -14.5q-16 0 -30.5 5.5t-27.5 12t-25.5 12t-25.5 5.5q-8 0 -18.5 -9.5t-17.5 -21.5q-6 -10 -17 -4l-27 16q-5 2 -4 7t3 9q13 25 33 44t45 19q15 0 29.5 -6t28 -12.5t26.5 -12.5t24 -6t20 10.5t16 22.5q2 3 4 5t7 -1l32 -15q9 -3 3 -17z" />
<glyph unicode="&#xd2;" horiz-adv-x="497" d="M439 165q0 -41 -14.5 -72.5t-40 -53.5t-60 -33.5t-75.5 -11.5t-75.5 11t-60.5 32.5t-40.5 53.5t-14.5 74v290q0 40 15 71.5t40.5 53.5t60 33.5t74.5 11.5q39 0 73.5 -11t61 -32.5t41.5 -53.5t15 -73v-290zM355 453q0 43 -29 71t-77 28q-49 0 -78 -28.5t-29 -70.5v-286 q0 -45 27.5 -72.5t78.5 -27.5q50 0 78.5 27.5t28.5 72.5v286zM123 720q-5 2 -8 7t3 13l30 44q5 5 11 4t11 -5l116 -92q10 -8 3 -18l-13 -18q-4 -5 -10 -5.5t-11 1.5z" />
<glyph unicode="&#xd3;" horiz-adv-x="497" d="M439 165q0 -41 -14.5 -72.5t-40 -53.5t-60 -33.5t-75.5 -11.5t-75.5 11t-60.5 32.5t-40.5 53.5t-14.5 74v290q0 40 15 71.5t40.5 53.5t60 33.5t74.5 11.5q39 0 73.5 -11t61 -32.5t41.5 -53.5t15 -73v-290zM355 453q0 43 -29 71t-77 28q-49 0 -78 -28.5t-29 -70.5v-286 q0 -45 27.5 -72.5t78.5 -27.5q50 0 78.5 27.5t28.5 72.5v286zM248 653q-5 -2 -11 -1.5t-10 5.5l-13 18q-8 10 3 18l116 92q5 4 11 5t11 -4l30 -44q6 -8 3 -13t-8 -7z" />
<glyph unicode="&#xd4;" horiz-adv-x="497" d="M439 165q0 -41 -14.5 -72.5t-40 -53.5t-60 -33.5t-75.5 -11.5t-75.5 11t-60.5 32.5t-40.5 53.5t-14.5 74v290q0 40 15 71.5t40.5 53.5t60 33.5t74.5 11.5q39 0 73.5 -11t61 -32.5t41.5 -53.5t15 -73v-290zM355 453q0 43 -29 71t-77 28q-49 0 -78 -28.5t-29 -70.5v-286 q0 -45 27.5 -72.5t78.5 -27.5q50 0 78.5 27.5t28.5 72.5v286zM216 774q5 5 9.5 7t12.5 2h32q8 0 12.5 -2t9.5 -7l96 -99q11 -9 -1 -17l-14 -10q-7 -5 -12 -4t-10 5l-88 61q-7 7 -15 0l-91 -61q-6 -4 -10.5 -5t-11.5 4l-14 10q-12 8 -1 17z" />
<glyph unicode="&#xd5;" horiz-adv-x="497" d="M439 165q0 -41 -14.5 -72.5t-40 -53.5t-60 -33.5t-75.5 -11.5t-75.5 11t-60.5 32.5t-40.5 53.5t-14.5 74v290q0 40 15 71.5t40.5 53.5t60 33.5t74.5 11.5q39 0 73.5 -11t61 -32.5t41.5 -53.5t15 -73v-290zM355 453q0 43 -29 71t-77 28q-49 0 -78 -28.5t-29 -70.5v-286 q0 -45 27.5 -72.5t78.5 -27.5q50 0 78.5 27.5t28.5 72.5v286zM381 722q-16 -34 -37.5 -48.5t-40.5 -14.5q-16 0 -30.5 5.5t-27.5 12t-25.5 12t-25.5 5.5q-8 0 -18.5 -9.5t-17.5 -21.5q-6 -10 -17 -4l-27 16q-5 2 -4 7t3 9q13 25 33 44t45 19q15 0 29.5 -6t28 -12.5 t26.5 -12.5t24 -6t20 10.5t16 22.5q2 3 4 5t7 -1l32 -15q9 -3 3 -17z" />
<glyph unicode="&#xd6;" horiz-adv-x="497" d="M439 165q0 -41 -14.5 -72.5t-40 -53.5t-60 -33.5t-75.5 -11.5t-75.5 11t-60.5 32.5t-40.5 53.5t-14.5 74v290q0 40 15 71.5t40.5 53.5t60 33.5t74.5 11.5q39 0 73.5 -11t61 -32.5t41.5 -53.5t15 -73v-290zM355 453q0 43 -29 71t-77 28q-49 0 -78 -28.5t-29 -70.5v-286 q0 -45 27.5 -72.5t78.5 -27.5q50 0 78.5 27.5t28.5 72.5v286zM376 700q0 -20 -13 -33.5t-33 -13.5t-34 13.5t-14 33.5t13.5 33.5t33.5 13.5t33.5 -13.5t13.5 -33.5zM214 700q0 -20 -13.5 -33.5t-33.5 -13.5t-33.5 13.5t-13.5 33.5t13.5 33.5t33.5 13.5t33.5 -13.5 t13.5 -33.5z" />
<glyph unicode="&#xd7;" horiz-adv-x="475" d="M388 66q-11 -11 -22 0l-125 125q-2 2 -3 2.5t-3 -1.5l-125 -125q-11 -9 -20 0l-24 24q-11 10 -1 20l125 125q3 3 0 6l-124 125q-11 10 -1 20l23 23q10 10 21 0l124 -124q3 -3 6 -1l125 125q10 10 20 1l24 -25q10 -11 0 -21l-124 -123q-3 -4 0 -8l126 -125q10 -11 0 -21 l-22 -22v0z" />
<glyph unicode="&#xd8;" horiz-adv-x="497" d="M111 -3q-7 -10 -14 -5l-32 17q-7 4 -2 14l19 35q3 8 1 13q-11 17 -18 42t-7 52v290q0 40 15 71.5t40.5 53.5t60 33.5t74.5 11.5q65 0 113 -28q5 -4 11 2q3 6 7.5 13t7.5 13q5 8 14 4q8 -4 15.5 -8.5t15.5 -7.5q9 -5 4 -13q-5 -11 -11.5 -21t-11.5 -21q-2 -4 -1.5 -6.5 t1.5 -4.5q11 -18 18.5 -42t7.5 -50v-290q0 -41 -14.5 -72.5t-40 -53.5t-60 -33.5t-75.5 -11.5q-35 0 -63 6.5t-51 21.5q-2 2 -5.5 3t-5.5 -4zM355 446q0 2 -0.5 2.5t-0.5 -0.5l-185 -344q-3 -5 1 -11q29 -26 78 -26q50 0 78.5 27.5t28.5 72.5v279zM142 178q0 -2 1 -4t3 2 l179 333q2 4 3 8.5t-4 8.5q-29 26 -75 26q-49 0 -78 -28.5t-29 -70.5v-275z" />
<glyph unicode="&#xd9;" horiz-adv-x="498" d="M440 160q0 -40 -15.5 -71t-42 -52t-61 -32t-72.5 -11t-73 11t-61 32t-41.5 52t-15.5 71v446q0 11 11 11h62q11 0 11 -10v-447q0 -41 30.5 -67t75.5 -26q50 0 79 27t29 69v443q0 11 12 11h60q12 0 12 -10v-447zM128 712q-5 2 -8 7t3 13l30 44q5 5 11 4t11 -5l116 -92 q10 -8 3 -18l-13 -18q-4 -5 -10 -5.5t-11 1.5z" />
<glyph unicode="&#xda;" horiz-adv-x="498" d="M440 160q0 -40 -15.5 -71t-42 -52t-61 -32t-72.5 -11t-73 11t-61 32t-41.5 52t-15.5 71v446q0 11 11 11h62q11 0 11 -10v-447q0 -41 30.5 -67t75.5 -26q50 0 79 27t29 69v443q0 11 12 11h60q12 0 12 -10v-447zM245 646q-5 -2 -11 -1.5t-10 5.5l-13 18q-8 10 3 18l116 92 q5 4 11 5t11 -4l30 -44q6 -8 3 -13t-8 -7z" />
<glyph unicode="&#xdb;" horiz-adv-x="498" d="M440 160q0 -40 -15.5 -71t-42 -52t-61 -32t-72.5 -11t-73 11t-61 32t-41.5 52t-15.5 71v446q0 11 11 11h62q11 0 11 -10v-447q0 -41 30.5 -67t75.5 -26q50 0 79 27t29 69v443q0 11 12 11h60q12 0 12 -10v-447zM214 774q5 5 9.5 7t12.5 2h32q8 0 12.5 -2t9.5 -7l96 -99 q11 -9 -1 -17l-14 -10q-7 -5 -12 -4t-10 5l-88 61q-7 7 -15 0l-91 -61q-6 -4 -10.5 -5t-11.5 4l-14 10q-12 8 -1 17z" />
<glyph unicode="&#xdc;" horiz-adv-x="498" d="M440 160q0 -40 -15.5 -71t-42 -52t-61 -32t-72.5 -11t-73 11t-61 32t-41.5 52t-15.5 71v446q0 11 11 11h62q11 0 11 -10v-447q0 -41 30.5 -67t75.5 -26q50 0 79 27t29 69v443q0 11 12 11h60q12 0 12 -10v-447zM380 700q0 -20 -13 -33.5t-33 -13.5t-34 13.5t-14 33.5 t13.5 33.5t33.5 13.5t33.5 -13.5t13.5 -33.5zM218 700q0 -20 -13.5 -33.5t-33.5 -13.5t-33.5 13.5t-13.5 33.5t13.5 33.5t33.5 13.5t33.5 -13.5t13.5 -33.5z" />
<glyph unicode="&#xdd;" horiz-adv-x="435" d="M264 245q-5 -11 -5 -24v-209q0 -12 -12 -12h-60q-12 0 -12 11v212q0 12 -4 20l-154 357q-7 17 10 17h57q16 0 21 -11l108 -274q5 -8 9 -1q27 68 54 136.5t53 136.5q4 8 8 10.5t15 2.5h55q11 0 12.5 -4.5t-1.5 -11.5zM201 646q-5 -2 -11 -1.5t-10 5.5l-13 18q-8 10 3 18 l116 92q5 4 11 5t11 -4l30 -44q6 -8 3 -13t-8 -7z" />
<glyph unicode="&#xde;" horiz-adv-x="458" d="M147 500q2 -6 9 -6h91q44 0 78.5 -14t58.5 -38.5t37 -58.5t13 -73q0 -37 -14 -69.5t-39 -57t-59 -39t-74 -14.5h-92q-8 0 -8 -9v-109q0 -12 -12 -12h-60q-10 0 -12 11v595q0 11 12 11h59q12 0 12 -10v-107zM156 422q-7 0 -9 -6v-208q0 -6 8 -6h92q47 0 75.5 29.5 t28.5 79.5q0 20 -7 40t-20.5 35.5t-33 25.5t-43.5 10h-91z" />
<glyph unicode="&#xdf;" horiz-adv-x="484" d="M430 155q0 -35 -12.5 -65.5t-34.5 -53.5q-21 -22 -49 -34t-58 -12h-67q-9 0 -9 8v43q0 10 5 11.5t13 1.5h42q19 0 35.5 8.5t28.5 23t19 32.5t7 37v105q0 42 -24 65t-66 23h-12q-9 0 -9 9v47q0 9 8 9h16q36 0 56.5 22.5t20.5 57.5q0 38 -24 61.5t-66 23.5t-67.5 -27.5 t-25.5 -67.5v-473q0 -10 -9 -10h-62q-10 0 -10 9v471q0 36 12 66.5t34.5 53t54 35t71.5 12.5q79 0 125.5 -42t46.5 -116q0 -15 -2.5 -31t-8 -30.5t-14 -26.5t-21.5 -19q-6 -4 0 -8q29 -17 42.5 -47.5t13.5 -66.5v-105v0z" />
<glyph unicode="&#xe0;" horiz-adv-x="438" d="M40 147q0 32 10.5 60t31 48.5t50.5 32.5t70 12q44 0 79 -19q7 -4 12.5 -2.5t5.5 10.5v9q0 40 -20.5 59t-68.5 19q-9 0 -23 -2t-28.5 -5t-28.5 -7.5t-23 -9.5q-11 -5 -15 6l-17 44q-3 10 5 13q27 14 65 22t74 8q46 0 77 -11t49.5 -32t26 -50.5t7.5 -65.5v-276 q0 -10 -9 -10h-55q-9 0 -9 8v18q0 7 -4 8t-9 -4q-20 -20 -45.5 -28t-54.5 -8q-75 0 -114 42t-39 111zM115 149q0 -37 22 -62.5t68 -25.5q41 0 65 25t24 63q0 37 -21.5 62.5t-68.5 25.5q-41 0 -65 -25t-24 -63zM120 601q-4 4 -5 10t7 12l44 29q6 4 11.5 0t8.5 -9l76 -127 q7 -11 -4 -18l-19 -12q-5 -4 -11 -2t-10 6z" />
<glyph unicode="&#xe1;" horiz-adv-x="438" d="M40 147q0 32 10.5 60t31 48.5t50.5 32.5t70 12q44 0 79 -19q7 -4 12.5 -2.5t5.5 10.5v9q0 40 -20.5 59t-68.5 19q-9 0 -23 -2t-28.5 -5t-28.5 -7.5t-23 -9.5q-11 -5 -15 6l-17 44q-3 10 5 13q27 14 65 22t74 8q46 0 77 -11t49.5 -32t26 -50.5t7.5 -65.5v-276 q0 -10 -9 -10h-55q-9 0 -9 8v18q0 7 -4 8t-9 -4q-20 -20 -45.5 -28t-54.5 -8q-75 0 -114 42t-39 111zM115 149q0 -37 22 -62.5t68 -25.5q41 0 65 25t24 63q0 37 -21.5 62.5t-68.5 25.5q-41 0 -65 -25t-24 -63zM233 490q-3 -4 -9 -6t-12 2l-19 12q-9 7 -3 18l75 127 q3 5 7.5 9.5t12.5 -0.5l44 -29q8 -6 7 -12t-4 -10z" />
<glyph unicode="&#xe2;" horiz-adv-x="438" d="M40 147q0 32 10.5 60t31 48.5t50.5 32.5t70 12q44 0 79 -19q7 -4 12.5 -2.5t5.5 10.5v9q0 40 -20.5 59t-68.5 19q-9 0 -23 -2t-28.5 -5t-28.5 -7.5t-23 -9.5q-11 -5 -15 6l-17 44q-3 10 5 13q27 14 65 22t74 8q46 0 77 -11t49.5 -32t26 -50.5t7.5 -65.5v-276 q0 -10 -9 -10h-55q-9 0 -9 8v18q0 7 -4 8t-9 -4q-20 -20 -45.5 -28t-54.5 -8q-75 0 -114 42t-39 111zM115 149q0 -37 22 -62.5t68 -25.5q41 0 65 25t24 63q0 37 -21.5 62.5t-68.5 25.5q-41 0 -65 -25t-24 -63zM362 526q5 -5 5.5 -10.5t-6.5 -10.5l-14 -12q-7 -6 -11.5 -4.5 t-10.5 6.5l-91 80q-8 8 -15 1l-88 -81q-5 -5 -10 -6.5t-12 4.5l-14 12q-7 5 -6.5 10.5t5.5 10.5l96 117q5 5 9.5 8t12.5 3h32q8 0 12.5 -3t9.5 -8z" />
<glyph unicode="&#xe3;" horiz-adv-x="438" d="M40 147q0 32 10.5 60t31 48.5t50.5 32.5t70 12q44 0 79 -19q7 -4 12.5 -2.5t5.5 10.5v9q0 40 -20.5 59t-68.5 19q-9 0 -23 -2t-28.5 -5t-28.5 -7.5t-23 -9.5q-11 -5 -15 6l-17 44q-3 10 5 13q27 14 65 22t74 8q46 0 77 -11t49.5 -32t26 -50.5t7.5 -65.5v-276 q0 -10 -9 -10h-55q-9 0 -9 8v18q0 7 -4 8t-9 -4q-20 -20 -45.5 -28t-54.5 -8q-75 0 -114 42t-39 111zM115 149q0 -37 22 -62.5t68 -25.5q41 0 65 25t24 63q0 37 -21.5 62.5t-68.5 25.5q-41 0 -65 -25t-24 -63zM366 572q-16 -34 -37.5 -48.5t-40.5 -14.5q-16 0 -30.5 5.5 t-27.5 12t-25.5 12t-25.5 5.5q-8 0 -18.5 -9.5t-17.5 -21.5q-6 -10 -17 -4l-27 16q-5 2 -4 7t3 9q13 25 33 44t45 19q15 0 29.5 -6t28 -12.5t26.5 -12.5t24 -6t20 10.5t16 22.5q2 3 4 5t7 -1l32 -15q9 -3 3 -17z" />
<glyph unicode="&#xe4;" horiz-adv-x="438" d="M40 147q0 32 10.5 60t31 48.5t50.5 32.5t70 12q44 0 79 -19q7 -4 12.5 -2.5t5.5 10.5v9q0 40 -20.5 59t-68.5 19q-9 0 -23 -2t-28.5 -5t-28.5 -7.5t-23 -9.5q-11 -5 -15 6l-17 44q-3 10 5 13q27 14 65 22t74 8q46 0 77 -11t49.5 -32t26 -50.5t7.5 -65.5v-276 q0 -10 -9 -10h-55q-9 0 -9 8v18q0 7 -4 8t-9 -4q-20 -20 -45.5 -28t-54.5 -8q-75 0 -114 42t-39 111zM115 149q0 -37 22 -62.5t68 -25.5q41 0 65 25t24 63q0 37 -21.5 62.5t-68.5 25.5q-41 0 -65 -25t-24 -63zM347 545q0 -20 -13 -33.5t-33 -13.5t-34 13.5t-14 33.5 t13.5 33.5t33.5 13.5t33.5 -13.5t13.5 -33.5zM185 545q0 -20 -13.5 -33.5t-33.5 -13.5t-33.5 13.5t-13.5 33.5t13.5 33.5t33.5 13.5t33.5 -13.5t13.5 -33.5z" />
<glyph unicode="&#xe5;" horiz-adv-x="438" d="M40 147q0 32 10.5 60t31 48.5t50.5 32.5t70 12q44 0 79 -19q7 -4 12.5 -2.5t5.5 10.5v9q0 40 -20.5 59t-68.5 19q-9 0 -23 -2t-28.5 -5t-28.5 -7.5t-23 -9.5q-11 -5 -15 6l-17 44q-3 10 5 13q27 14 65 22t74 8q46 0 77 -11t49.5 -32t26 -50.5t7.5 -65.5v-276 q0 -10 -9 -10h-55q-9 0 -9 8v18q0 7 -4 8t-9 -4q-20 -20 -45.5 -28t-54.5 -8q-75 0 -114 42t-39 111zM115 149q0 -37 22 -62.5t68 -25.5q41 0 65 25t24 63q0 37 -21.5 62.5t-68.5 25.5q-41 0 -65 -25t-24 -63zM314 563q0 -17 -6.5 -32.5t-18.5 -27t-27.5 -18.5t-33.5 -7 t-33.5 6.5t-27 17.5t-18.5 26.5t-7 32.5t6.5 32.5t18.5 27.5t27.5 19t33.5 7q35 0 60.5 -24.5t25.5 -59.5zM271 562q0 17 -13 30.5t-30 13.5t-29 -13t-12 -31t12 -30.5t29 -12.5t30 12.5t13 30.5z" />
<glyph unicode="&#xe6;" horiz-adv-x="690" d="M651 225q0 -11 -6.5 -17.5t-13.5 -6.5h-234q-8 0 -13 -5t-5 -13v-19q0 -41 26 -70.5t70 -29.5q30 0 53 14.5t40 37.5q8 11 20 3l38 -25q12 -8 8 -16q-24 -44 -66 -64t-91 -20q-48 0 -85 16t-60 45q-20 -27 -55 -43.5t-79 -16.5q-33 0 -61.5 10t-50 29.5t-34 48 t-12.5 65.5q0 35 13 63.5t35 48.5t52 31t65 11q17 0 39.5 -6.5t36.5 -14.5q7 -5 12.5 -3t5.5 11v11q0 40 -28.5 58t-70.5 18q-19 0 -46.5 -7t-46.5 -17q-11 -5 -15 6l-17 44q-3 10 5 13q27 14 61 22t70 8q45 0 78.5 -12t53.5 -42q23 26 56.5 40t75.5 14q40 0 72.5 -12.5 t55.5 -35.5t35.5 -55t12.5 -70v-47zM292 149q0 37 -24 63.5t-64 26.5q-39 0 -64 -26t-25 -64q0 -37 21.5 -63.5t66.5 -26.5q21 0 37.5 7.5t28 20.5t17.5 29t6 33zM570 285q0 38 -26 64.5t-69 26.5q-42 0 -68 -27t-26 -65v-7q0 -4 3 -8t12 -4h164q10 0 10 11v9z" />
<glyph unicode="&#xe7;" horiz-adv-x="408" d="M314 -126q0 -29 -24.5 -53t-67.5 -24q-26 0 -44 5.5t-35 16.5q-8 6 -1 15l16 21q6 6 12 3q11 -6 22.5 -11t27.5 -5q20 0 31 8.5t11 22.5q0 4 -1 9.5t-5 10.5t-11.5 9t-20.5 4h-27q-19 0 -26 11t-3 26q4 17 7.5 30t6.5 25q-63 10 -100 52t-37 109v115q0 40 13.5 72 t37 53.5t55.5 33t70 11.5q97 -1 154 -76q4 -5 3 -11.5t-7 -10.5l-35 -27q-13 -9 -23 6q-17 25 -41.5 37.5t-52.5 12.5q-43 0 -68.5 -26.5t-25.5 -68.5v-124q0 -41 26.5 -66.5t70.5 -25.5q39 0 62 17t41 40q5 6 15 -1l33 -24q10 -6 11 -11.5t-3 -10.5q-29 -44 -69.5 -61.5 t-83.5 -18.5l-8 -33q-4 -11 7 -11h11q35 0 55.5 -20.5t20.5 -55.5z" />
<glyph unicode="&#xe8;" horiz-adv-x="438" d="M399 225q0 -11 -6.5 -17.5t-13.5 -6.5h-234q-8 0 -13 -5t-5 -13v-19q0 -20 5 -38.5t16.5 -32t30 -21.5t44.5 -8q30 0 54.5 14t41.5 37q8 11 20 3l35 -24q12 -8 8 -16q-24 -44 -66 -64t-91 -20q-81 0 -129.5 44.5t-48.5 119.5v114q0 38 13 70t36.5 55t55.5 35.5t71 12.5 q40 0 72.5 -12.5t55.5 -35.5t35.5 -55t12.5 -70v-47zM223 376q-42 0 -68 -27t-26 -65v-7q0 -4 3 -8t12 -4h164q10 0 10 11v9q0 38 -24 64.5t-71 26.5zM114 601q-4 4 -5 10t7 12l44 29q6 4 11.5 0t8.5 -9l76 -127q7 -11 -4 -18l-19 -12q-5 -4 -11 -2t-10 6z" />
<glyph unicode="&#xe9;" horiz-adv-x="438" d="M399 225q0 -11 -6.5 -17.5t-13.5 -6.5h-234q-8 0 -13 -5t-5 -13v-19q0 -20 5 -38.5t16.5 -32t30 -21.5t44.5 -8q30 0 54.5 14t41.5 37q8 11 20 3l35 -24q12 -8 8 -16q-24 -44 -66 -64t-91 -20q-81 0 -129.5 44.5t-48.5 119.5v114q0 38 13 70t36.5 55t55.5 35.5t71 12.5 q40 0 72.5 -12.5t55.5 -35.5t35.5 -55t12.5 -70v-47zM223 376q-42 0 -68 -27t-26 -65v-7q0 -4 3 -8t12 -4h164q10 0 10 11v9q0 38 -24 64.5t-71 26.5zM223 490q-3 -4 -9 -6t-12 2l-19 12q-9 7 -3 18l75 127q3 5 7.5 9.5t12.5 -0.5l44 -29q8 -6 7 -12t-4 -10z" />
<glyph unicode="&#xea;" horiz-adv-x="438" d="M399 225q0 -11 -6.5 -17.5t-13.5 -6.5h-234q-8 0 -13 -5t-5 -13v-19q0 -20 5 -38.5t16.5 -32t30 -21.5t44.5 -8q30 0 54.5 14t41.5 37q8 11 20 3l35 -24q12 -8 8 -16q-24 -44 -66 -64t-91 -20q-81 0 -129.5 44.5t-48.5 119.5v114q0 38 13 70t36.5 55t55.5 35.5t71 12.5 q40 0 72.5 -12.5t55.5 -35.5t35.5 -55t12.5 -70v-47zM223 376q-42 0 -68 -27t-26 -65v-7q0 -4 3 -8t12 -4h164q10 0 10 11v9q0 38 -24 64.5t-71 26.5zM362 526q5 -5 5.5 -10.5t-6.5 -10.5l-14 -12q-7 -6 -11.5 -4.5t-10.5 6.5l-91 80q-8 8 -15 1l-88 -81q-5 -5 -10 -6.5 t-12 4.5l-14 12q-7 5 -6.5 10.5t5.5 10.5l96 117q5 5 9.5 8t12.5 3h32q8 0 12.5 -3t9.5 -8z" />
<glyph unicode="&#xeb;" horiz-adv-x="438" d="M399 225q0 -11 -6.5 -17.5t-13.5 -6.5h-234q-8 0 -13 -5t-5 -13v-19q0 -20 5 -38.5t16.5 -32t30 -21.5t44.5 -8q30 0 54.5 14t41.5 37q8 11 20 3l35 -24q12 -8 8 -16q-24 -44 -66 -64t-91 -20q-81 0 -129.5 44.5t-48.5 119.5v114q0 38 13 70t36.5 55t55.5 35.5t71 12.5 q40 0 72.5 -12.5t55.5 -35.5t35.5 -55t12.5 -70v-47zM223 376q-42 0 -68 -27t-26 -65v-7q0 -4 3 -8t12 -4h164q10 0 10 11v9q0 38 -24 64.5t-71 26.5zM355 545q0 -20 -13 -33.5t-33 -13.5t-34 13.5t-14 33.5t13.5 33.5t33.5 13.5t33.5 -13.5t13.5 -33.5zM193 545 q0 -20 -13.5 -33.5t-33.5 -13.5t-33.5 13.5t-13.5 33.5t13.5 33.5t33.5 13.5t33.5 -13.5t13.5 -33.5z" />
<glyph unicode="&#xec;" horiz-adv-x="203" d="M61 428q0 10 9 10h62q10 0 10 -10v-419q0 -9 -9 -9h-62q-10 0 -10 9v419zM-8 601q-4 4 -5 10t7 12l44 29q6 4 11.5 0t8.5 -9l76 -127q7 -11 -4 -18l-19 -12q-5 -4 -11 -2t-10 6z" />
<glyph unicode="&#xed;" horiz-adv-x="203" d="M61 428q0 10 9 10h62q10 0 10 -10v-419q0 -9 -9 -9h-62q-10 0 -10 9v419zM117 490q-3 -4 -9 -6t-12 2l-19 12q-9 7 -3 18l75 127q3 5 7.5 9.5t12.5 -0.5l44 -29q8 -6 7 -12t-4 -10z" />
<glyph unicode="&#xee;" horiz-adv-x="203" d="M61 428q0 10 9 10h62q10 0 10 -10v-419q0 -9 -9 -9h-62q-10 0 -10 9v419zM236 526q5 -5 5.5 -10.5t-6.5 -10.5l-14 -12q-7 -6 -11.5 -4.5t-10.5 6.5l-91 80q-8 8 -15 1l-88 -81q-5 -5 -10 -6.5t-12 4.5l-14 12q-7 5 -6.5 10.5t5.5 10.5l96 117q5 5 9.5 8t12.5 3h32 q8 0 12.5 -3t9.5 -8z" />
<glyph unicode="&#xef;" horiz-adv-x="203" d="M61 428q0 10 9 10h62q10 0 10 -10v-419q0 -9 -9 -9h-62q-10 0 -10 9v419zM230 545q0 -20 -13 -33.5t-33 -13.5t-34 13.5t-14 33.5t13.5 33.5t33.5 13.5t33.5 -13.5t13.5 -33.5zM68 545q0 -20 -13.5 -33.5t-33.5 -13.5t-33.5 13.5t-13.5 33.5t13.5 33.5t33.5 13.5 t33.5 -13.5t13.5 -33.5z" />
<glyph unicode="&#xf0;" horiz-adv-x="448" d="M47 257q0 39 12.5 70t35 53t53 33.5t65.5 11.5q30 0 55.5 -7.5t45.5 -24.5q2 -2 4 -2t2 4q0 32 -4 58.5t-20 49.5q0 1 -2 1q-1 0 -5 -4l-38 -41q-3 -3 -6 -3l-4 2l-22 20q-3 3 -3 6t2 5l40 44q4 4 4 6t-3 4q-22 16 -49.5 20.5t-56.5 6.5q-5 0 -12 2t-7 11v48q0 8 4.5 10 t13.5 2q47 0 91.5 -10.5t73.5 -35.5l4 -2q1 0 4 3l41 41q3 3 6 3t5 -3l23 -21q3 -3 3 -5q0 -3 -3 -6l-43 -43q-3 -3 -3 -6q0 -2 2 -4q16 -17 25 -45t13.5 -60.5t5 -66.5t0.5 -63v-157q0 -41 -13 -72t-37 -52.5t-57 -32.5t-73 -11q-81 0 -127 44t-46 125v94zM126 162 q0 -44 22.5 -71.5t72.5 -27.5q51 0 75 28t24 71v75q0 22 -3.5 43t-13.5 38t-29 27.5t-49 10.5q-50 0 -74.5 -28t-24.5 -71v-95z" />
<glyph unicode="&#xf1;" horiz-adv-x="462" d="M408 10q0 -10 -9 -10h-62q-9 0 -9 9v267q0 43 -24 71t-72 28q-44 0 -70 -27.5t-26 -70.5v-267q0 -10 -10 -10h-61q-10 0 -10 9v419q0 10 9 10h58q9 0 9 -9v-15q0 -9 7 -9q2 0 8 4q42 35 100 35q75 0 118.5 -45.5t43.5 -121.5v-267zM358 572q-16 -34 -37.5 -48.5 t-40.5 -14.5q-16 0 -30.5 5.5t-27.5 12t-25.5 12t-25.5 5.5q-8 0 -18.5 -9.5t-17.5 -21.5q-6 -10 -17 -4l-27 16q-5 2 -4 7t3 9q13 25 33 44t45 19q15 0 29.5 -6t28 -12.5t26.5 -12.5t24 -6t20 10.5t16 22.5q2 3 4 5t7 -1l32 -15q9 -3 3 -17z" />
<glyph unicode="&#xf2;" horiz-adv-x="448" d="M400 163q0 -81 -47.5 -125t-128.5 -44q-83 0 -129.5 43.5t-46.5 124.5v115q0 77 45 122.5t130 45.5t131 -44t46 -124v-114zM320 277q0 43 -23.5 70.5t-72.5 27.5q-44 0 -70 -27t-26 -71v-115q0 -43 22 -71t73 -28t73.5 27.5t23.5 71.5v115zM118 601q-4 4 -5 10t7 12 l44 29q6 4 11.5 0t8.5 -9l76 -127q7 -11 -4 -18l-19 -12q-5 -4 -11 -2t-10 6z" />
<glyph unicode="&#xf3;" horiz-adv-x="448" d="M400 163q0 -81 -47.5 -125t-128.5 -44q-83 0 -129.5 43.5t-46.5 124.5v115q0 77 45 122.5t130 45.5t131 -44t46 -124v-114zM320 277q0 43 -23.5 70.5t-72.5 27.5q-44 0 -70 -27t-26 -71v-115q0 -43 22 -71t73 -28t73.5 27.5t23.5 71.5v115zM233 490q-3 -4 -9 -6t-12 2 l-19 12q-9 7 -3 18l75 127q3 5 7.5 9.5t12.5 -0.5l44 -29q8 -6 7 -12t-4 -10z" />
<glyph unicode="&#xf4;" horiz-adv-x="448" d="M400 163q0 -81 -47.5 -125t-128.5 -44q-83 0 -129.5 43.5t-46.5 124.5v115q0 77 45 122.5t130 45.5t131 -44t46 -124v-114zM320 277q0 43 -23.5 70.5t-72.5 27.5q-44 0 -70 -27t-26 -71v-115q0 -43 22 -71t73 -28t73.5 27.5t23.5 71.5v115zM362 526q5 -5 5.5 -10.5 t-6.5 -10.5l-14 -12q-7 -6 -11.5 -4.5t-10.5 6.5l-91 80q-8 8 -15 1l-88 -81q-5 -5 -10 -6.5t-12 4.5l-14 12q-7 5 -6.5 10.5t5.5 10.5l96 117q5 5 9.5 8t12.5 3h32q8 0 12.5 -3t9.5 -8z" />
<glyph unicode="&#xf5;" horiz-adv-x="448" d="M400 163q0 -81 -47.5 -125t-128.5 -44q-83 0 -129.5 43.5t-46.5 124.5v115q0 77 45 122.5t130 45.5t131 -44t46 -124v-114zM320 277q0 43 -23.5 70.5t-72.5 27.5q-44 0 -70 -27t-26 -71v-115q0 -43 22 -71t73 -28t73.5 27.5t23.5 71.5v115zM362 572q-16 -34 -37.5 -48.5 t-40.5 -14.5q-16 0 -30.5 5.5t-27.5 12t-25.5 12t-25.5 5.5q-8 0 -18.5 -9.5t-17.5 -21.5q-6 -10 -17 -4l-27 16q-5 2 -4 7t3 9q13 25 33 44t45 19q15 0 29.5 -6t28 -12.5t26.5 -12.5t24 -6t20 10.5t16 22.5q2 3 4 5t7 -1l32 -15q9 -3 3 -17z" />
<glyph unicode="&#xf6;" horiz-adv-x="448" d="M400 163q0 -81 -47.5 -125t-128.5 -44q-83 0 -129.5 43.5t-46.5 124.5v115q0 77 45 122.5t130 45.5t131 -44t46 -124v-114zM320 277q0 43 -23.5 70.5t-72.5 27.5q-44 0 -70 -27t-26 -71v-115q0 -43 22 -71t73 -28t73.5 27.5t23.5 71.5v115zM353 545q0 -20 -13 -33.5 t-33 -13.5t-34 13.5t-14 33.5t13.5 33.5t33.5 13.5t33.5 -13.5t13.5 -33.5zM191 545q0 -20 -13.5 -33.5t-33.5 -13.5t-33.5 13.5t-13.5 33.5t13.5 33.5t33.5 13.5t33.5 -13.5t13.5 -33.5z" />
<glyph unicode="&#xf7;" horiz-adv-x="475" d="M435 217q0 -15 -15 -15h-365q-15 0 -15 14v32q0 15 15 15h365q15 0 15 -15v-31zM280 58q0 -20 -13 -33.5t-33 -13.5t-34 13.5t-14 33.5t13.5 33.5t33.5 13.5t33.5 -13.5t13.5 -33.5zM281 394q0 -20 -13.5 -33.5t-33.5 -13.5t-33.5 13.5t-13.5 33.5t13.5 33.5t33.5 13.5 t33.5 -13.5t13.5 -33.5z" />
<glyph unicode="&#xf8;" horiz-adv-x="448" d="M83 5q-2 -3 -4 -4t-6 2l-24 18q-4 4 0 9l22 29q3 4 0 9q-23 38 -23 94v115q0 77 46.5 122.5t128.5 45.5q66 0 113 -33q2 -1 4.5 -2t5.5 3l18 22q2 2 4 3t6 -2l23 -19q5 -5 2 -10l-23 -28q-3 -4 -2.5 -5.5t1.5 -3.5q25 -39 25 -93v-114q0 -81 -47.5 -125t-128.5 -44 q-35 0 -64 8.5t-51 24.5q-2 1 -4.5 2t-6.5 -4zM320 277v10.5t-2 9.5q-2 5 -5 2l-154 -197q-5 -8 0 -16q11 -14 27.5 -18.5t36.5 -4.5q50 0 73 27.5t24 71.5v115zM128 162v-8t1 -8q1 -3 2.5 -5t3.5 1l153 198q5 6 2.5 9t-3.5 4q-13 10 -28.5 16t-34.5 6q-44 0 -70 -27 t-26 -71v-115z" />
<glyph unicode="&#xf9;" horiz-adv-x="459" d="M401 10q0 -10 -10 -10h-57q-10 0 -10 9v15q0 7 -4.5 8.5t-9.5 -3.5q-19 -17 -48 -26t-55 -9q-75 0 -117 45t-42 122v267q0 10 9 10h62q9 0 9 -9v-268q0 -42 24 -70t72 -28q44 0 70 27.5t26 70.5v267q0 10 9 10h62q10 0 10 -9v-419zM118 601q-4 4 -5 10t7 12l44 29 q6 4 11.5 0t8.5 -9l76 -127q7 -11 -4 -18l-19 -12q-5 -4 -11 -2t-10 6z" />
<glyph unicode="&#xfa;" horiz-adv-x="459" d="M401 10q0 -10 -10 -10h-57q-10 0 -10 9v15q0 7 -4.5 8.5t-9.5 -3.5q-19 -17 -48 -26t-55 -9q-75 0 -117 45t-42 122v267q0 10 9 10h62q9 0 9 -9v-268q0 -42 24 -70t72 -28q44 0 70 27.5t26 70.5v267q0 10 9 10h62q10 0 10 -9v-419zM238 490q-3 -4 -9 -6t-12 2l-19 12 q-9 7 -3 18l75 127q3 5 7.5 9.5t12.5 -0.5l44 -29q8 -6 7 -12t-4 -10z" />
<glyph unicode="&#xfb;" horiz-adv-x="459" d="M401 10q0 -10 -10 -10h-57q-10 0 -10 9v15q0 7 -4.5 8.5t-9.5 -3.5q-19 -17 -48 -26t-55 -9q-75 0 -117 45t-42 122v267q0 10 9 10h62q9 0 9 -9v-268q0 -42 24 -70t72 -28q44 0 70 27.5t26 70.5v267q0 10 9 10h62q10 0 10 -9v-419zM357 526q5 -5 5.5 -10.5t-6.5 -10.5 l-14 -12q-7 -6 -11.5 -4.5t-10.5 6.5l-91 80q-8 8 -15 1l-88 -81q-5 -5 -10 -6.5t-12 4.5l-14 12q-7 5 -6.5 10.5t5.5 10.5l96 117q5 5 9.5 8t12.5 3h32q8 0 12.5 -3t9.5 -8z" />
<glyph unicode="&#xfc;" horiz-adv-x="459" d="M401 10q0 -10 -10 -10h-57q-10 0 -10 9v15q0 7 -4.5 8.5t-9.5 -3.5q-19 -17 -48 -26t-55 -9q-75 0 -117 45t-42 122v267q0 10 9 10h62q9 0 9 -9v-268q0 -42 24 -70t72 -28q44 0 70 27.5t26 70.5v267q0 10 9 10h62q10 0 10 -9v-419zM352 545q0 -20 -13 -33.5t-33 -13.5 t-34 13.5t-14 33.5t13.5 33.5t33.5 13.5t33.5 -13.5t13.5 -33.5zM190 545q0 -20 -13.5 -33.5t-33.5 -13.5t-33.5 13.5t-13.5 33.5t13.5 33.5t33.5 13.5t33.5 -13.5t13.5 -33.5z" />
<glyph unicode="&#xfd;" horiz-adv-x="412" d="M187 87q2 -8 6 -9.5t8 9.5l110 333q2 6 6.5 12.5t16.5 6.5h47q10 0 12.5 -5.5t0.5 -13.5l-193 -582q-2 -7 -9.5 -14t-21.5 -7h-37q-22 0 -14 26l47 142q2 5 2.5 10t-7.5 5h-10q-19 0 -24 20l-110 401q-2 8 0 13t11 5h53q10 0 15 -4.5t7 -10.5zM210 490q-3 -4 -9 -6t-12 2 l-19 12q-9 7 -3 18l75 127q3 5 7.5 9.5t12.5 -0.5l44 -29q8 -6 7 -12t-4 -10z" />
<glyph unicode="&#xfe;" horiz-adv-x="454" d="M408 161q0 -35 -12 -65.5t-33.5 -53.5t-51 -36t-64.5 -13q-39 0 -60.5 9.5t-34.5 21.5q-8 7 -12.5 3.5t-4.5 -9.5v-189q0 -10 -9 -10h-62q-9 0 -9 9v800q0 9 9 9h55q10 0 10 -9v-220q0 -6 5 -5.5t11 6.5q13 11 34.5 22.5t59.5 11.5q36 0 67 -11t53.5 -32t35.5 -51.5 t13 -69.5v-118zM327 278q0 42 -27 69.5t-69 27.5t-69 -27.5t-27 -68.5v-118q0 -41 26.5 -70t69.5 -29q44 0 70 28.5t26 70.5v117z" />
<glyph unicode="&#xff;" horiz-adv-x="412" d="M187 87q2 -8 6 -9.5t8 9.5l110 333q2 6 6.5 12.5t16.5 6.5h47q10 0 12.5 -5.5t0.5 -13.5l-193 -582q-2 -7 -9.5 -14t-21.5 -7h-37q-22 0 -14 26l47 142q2 5 2.5 10t-7.5 5h-10q-19 0 -24 20l-110 401q-2 8 0 13t11 5h53q10 0 15 -4.5t7 -10.5zM322 545q0 -20 -13 -33.5 t-33 -13.5t-34 13.5t-14 33.5t13.5 33.5t33.5 13.5t33.5 -13.5t13.5 -33.5zM160 545q0 -20 -13.5 -33.5t-33.5 -13.5t-33.5 13.5t-13.5 33.5t13.5 33.5t33.5 13.5t33.5 -13.5t13.5 -33.5z" />
<glyph unicode="&#x100;" horiz-adv-x="457" d="M366 0q-13 0 -14 7l-33 130q-2 4 -4 4h-177q-4 0 -4.5 -1t-1.5 -2l-32 -131q-1 -7 -13 -7h-54q-8 0 -11.5 3t-1.5 12l148 590q1 5 4.5 8.5t11.5 3.5h85q12 0 15 -10l152 -590q2 -5 1 -11t-10 -6h-61zM196 402l-45 -184q-1 -5 -0.5 -6.5t5.5 -1.5h138q5 0 6 1.5t0 6.5 l-44 180l-28 126q-1 3 -2.5 3t-2.5 -2zM336 683q0 -10 -9 -10h-213q-10 0 -10 10v41q0 10 9 10h213q10 0 10 -9v-42z" />
<glyph unicode="&#x101;" horiz-adv-x="438" d="M40 147q0 32 10.5 60t31 48.5t50.5 32.5t70 12q44 0 79 -19q7 -4 12.5 -2.5t5.5 10.5v9q0 40 -20.5 59t-68.5 19q-9 0 -23 -2t-28.5 -5t-28.5 -7.5t-23 -9.5q-11 -5 -15 6l-17 44q-3 10 5 13q27 14 65 22t74 8q46 0 77 -11t49.5 -32t26 -50.5t7.5 -65.5v-276 q0 -10 -9 -10h-55q-9 0 -9 8v18q0 7 -4 8t-9 -4q-20 -20 -45.5 -28t-54.5 -8q-75 0 -114 42t-39 111zM115 149q0 -37 22 -62.5t68 -25.5q41 0 65 25t24 63q0 37 -21.5 62.5t-68.5 25.5q-41 0 -65 -25t-24 -63zM339 525q0 -10 -9 -10h-213q-10 0 -10 10v41q0 10 9 10h213 q10 0 10 -9v-42z" />
<glyph unicode="&#x102;" horiz-adv-x="457" d="M366 0q-13 0 -14 7l-33 130q-2 4 -4 4h-177q-4 0 -4.5 -1t-1.5 -2l-32 -131q-1 -7 -13 -7h-54q-8 0 -11.5 3t-1.5 12l148 590q1 5 4.5 8.5t11.5 3.5h85q12 0 15 -10l152 -590q2 -5 1 -11t-10 -6h-61zM196 402l-45 -184q-1 -5 -0.5 -6.5t5.5 -1.5h138q5 0 6 1.5t0 6.5 l-44 180l-28 126q-1 3 -2.5 3t-2.5 -2zM104 767q0 5 2 8t10 3h21q8 0 10 -3t4 -10q9 -29 24.5 -44t44.5 -15q54 0 69 59q2 7 3.5 10t10.5 3h21q8 0 10 -3t2 -8q-1 -25 -10 -47.5t-24 -39t-36 -26t-47 -9.5q-24 0 -44.5 9.5t-36 26t-24.5 39t-10 47.5z" />
<glyph unicode="&#x103;" horiz-adv-x="438" d="M40 147q0 32 10.5 60t31 48.5t50.5 32.5t70 12q44 0 79 -19q7 -4 12.5 -2.5t5.5 10.5v9q0 40 -20.5 59t-68.5 19q-9 0 -23 -2t-28.5 -5t-28.5 -7.5t-23 -9.5q-11 -5 -15 6l-17 44q-3 10 5 13q27 14 65 22t74 8q46 0 77 -11t49.5 -32t26 -50.5t7.5 -65.5v-276 q0 -10 -9 -10h-55q-9 0 -9 8v18q0 7 -4 8t-9 -4q-20 -20 -45.5 -28t-54.5 -8q-75 0 -114 42t-39 111zM115 149q0 -37 22 -62.5t68 -25.5q41 0 65 25t24 63q0 37 -21.5 62.5t-68.5 25.5q-41 0 -65 -25t-24 -63zM109 614q0 5 2 8t10 3h21q8 0 10 -3t4 -10q9 -29 24.5 -44 t44.5 -15q54 0 69 59q2 7 3.5 10t10.5 3h21q8 0 10 -3t2 -8q-1 -25 -10 -47.5t-24 -39t-36 -26t-47 -9.5q-24 0 -44.5 9.5t-36 26t-24.5 39t-10 47.5z" />
<glyph unicode="&#x104;" horiz-adv-x="457" d="M351 12l-32 125q-2 4 -4 4h-177q-4 0 -4.5 -1t-1.5 -2l-32 -131q-1 -7 -13 -7h-54q-8 0 -11.5 3t-1.5 12l148 590q1 5 4.5 8.5t11.5 3.5h85q12 0 15 -10l152 -590q2 -5 1 -11t-10 -6h-36q-20 -22 -32.5 -51t-12.5 -55q0 -13 6.5 -22t26.5 -9q14 0 29.5 7.5t30.5 15.5 q6 3 9 -1l16 -22q2 -2 2 -4q0 -3 -3 -6q-15 -14 -42.5 -27t-55.5 -13q-45 0 -62 21t-17 52q0 15 5 32.5t14 34.5t20.5 32t24.5 26zM196 402l-45 -184q-1 -5 -0.5 -6.5t5.5 -1.5h138q5 0 6 1.5t0 6.5l-44 180l-28 126q-1 3 -2.5 3t-2.5 -2z" />
<glyph unicode="&#x105;" horiz-adv-x="438" d="M306 15v11q0 7 -4 8t-9 -4q-20 -20 -45.5 -28t-54.5 -8q-75 0 -114 42t-39 111q0 32 10.5 60t31 48.5t50.5 32.5t70 12q44 0 79 -19q7 -4 12.5 -2.5t5.5 10.5v9q0 40 -20.5 59t-68.5 19q-9 0 -23 -2t-28.5 -5t-28.5 -7.5t-23 -9.5q-11 -5 -15 6l-17 44q-3 10 5 13 q27 14 65 22t74 8q46 0 77 -11t49.5 -32t26 -50.5t7.5 -65.5v-276q0 -10 -9 -10h-28q-20 -22 -32.5 -51t-12.5 -55q0 -13 6.5 -22t26.5 -9q14 0 29.5 7.5t30.5 15.5q6 3 9 -1l16 -22q2 -2 2 -4q0 -3 -3 -6q-15 -14 -42.5 -27t-55.5 -13q-45 0 -62 21t-17 52q0 15 5 32.5 t14 34.5t20.5 32t24.5 26zM115 149q0 -37 22 -62.5t68 -25.5q41 0 65 25t24 63q0 37 -21.5 62.5t-68.5 25.5q-41 0 -65 -25t-24 -63z" />
<glyph unicode="&#x106;" horiz-adv-x="430" d="M410 551q5 -6 5 -10.5t-8 -11.5l-38 -32q-4 -4 -10.5 -2.5t-10.5 6.5q-18 23 -47 37t-60 14q-48 0 -73.5 -27t-25.5 -70v-291q0 -42 28 -69.5t76 -27.5q31 0 58 15.5t44 32.5q5 6 10 9.5t13 -2.5l40 -33q3 -2 3.5 -7t-1.5 -9q-30 -39 -74 -59t-93 -20q-40 0 -74.5 11 t-59.5 32.5t-39.5 53t-14.5 72.5v292q0 39 13.5 70.5t37.5 53.5t57.5 34t73.5 12q46 0 89 -15t81 -59zM229 646q-5 -2 -11 -1.5t-10 5.5l-13 18q-8 10 3 18l116 92q5 4 11 5t11 -4l30 -44q6 -8 3 -13t-8 -7z" />
<glyph unicode="&#x107;" horiz-adv-x="402" d="M375 368q4 -5 3 -11.5t-7 -10.5l-35 -27q-13 -9 -23 6q-17 25 -41.5 37.5t-52.5 12.5q-43 0 -68.5 -26.5t-25.5 -68.5v-124q0 -41 26.5 -66.5t70.5 -25.5q39 0 62 17t41 40q5 6 15 -1l33 -24q10 -6 11 -11.5t-3 -10.5q-30 -45 -71.5 -62.5t-86.5 -17.5q-81 0 -129.5 44 t-48.5 121v115q0 40 13.5 72t37 53.5t55.5 33t70 11.5q97 -1 154 -76zM212 490q-3 -4 -9 -6t-12 2l-19 12q-9 7 -3 18l75 127q3 5 7.5 9.5t12.5 -0.5l44 -29q8 -6 7 -12t-4 -10z" />
<glyph unicode="&#x108;" horiz-adv-x="430" d="M410 551q5 -6 5 -10.5t-8 -11.5l-38 -32q-4 -4 -10.5 -2.5t-10.5 6.5q-18 23 -47 37t-60 14q-48 0 -73.5 -27t-25.5 -70v-291q0 -42 28 -69.5t76 -27.5q31 0 58 15.5t44 32.5q5 6 10 9.5t13 -2.5l40 -33q3 -2 3.5 -7t-1.5 -9q-30 -39 -74 -59t-93 -20q-40 0 -74.5 11 t-59.5 32.5t-39.5 53t-14.5 72.5v292q0 39 13.5 70.5t37.5 53.5t57.5 34t73.5 12q46 0 89 -15t81 -59zM212 774q5 5 9.5 7t12.5 2h32q8 0 12.5 -2t9.5 -7l96 -99q11 -9 -1 -17l-14 -10q-7 -5 -12 -4t-10 5l-88 61q-7 7 -15 0l-91 -61q-6 -4 -10.5 -5t-11.5 4l-14 10 q-12 8 -1 17z" />
<glyph unicode="&#x109;" horiz-adv-x="402" d="M375 368q4 -5 3 -11.5t-7 -10.5l-35 -27q-13 -9 -23 6q-17 25 -41.5 37.5t-52.5 12.5q-43 0 -68.5 -26.5t-25.5 -68.5v-124q0 -41 26.5 -66.5t70.5 -25.5q39 0 62 17t41 40q5 6 15 -1l33 -24q10 -6 11 -11.5t-3 -10.5q-30 -45 -71.5 -62.5t-86.5 -17.5q-81 0 -129.5 44 t-48.5 121v115q0 40 13.5 72t37 53.5t55.5 33t70 11.5q97 -1 154 -76zM354 526q5 -5 5.5 -10.5t-6.5 -10.5l-14 -12q-7 -6 -11.5 -4.5t-10.5 6.5l-91 80q-8 8 -15 1l-88 -81q-5 -5 -10 -6.5t-12 4.5l-14 12q-7 5 -6.5 10.5t5.5 10.5l96 117q5 5 9.5 8t12.5 3h32q8 0 12.5 -3 t9.5 -8z" />
<glyph unicode="&#x10a;" horiz-adv-x="430" d="M410 551q5 -6 5 -10.5t-8 -11.5l-38 -32q-4 -4 -10.5 -2.5t-10.5 6.5q-18 23 -47 37t-60 14q-48 0 -73.5 -27t-25.5 -70v-291q0 -42 28 -69.5t76 -27.5q31 0 58 15.5t44 32.5q5 6 10 9.5t13 -2.5l40 -33q3 -2 3.5 -7t-1.5 -9q-30 -39 -74 -59t-93 -20q-40 0 -74.5 11 t-59.5 32.5t-39.5 53t-14.5 72.5v292q0 39 13.5 70.5t37.5 53.5t57.5 34t73.5 12q46 0 89 -15t81 -59zM278 723q0 -20 -13.5 -33.5t-32.5 -13.5q-20 0 -34 13t-14 33t13.5 33.5t33.5 13.5t33.5 -13.5t13.5 -32.5z" />
<glyph unicode="&#x10b;" horiz-adv-x="402" d="M375 368q4 -5 3 -11.5t-7 -10.5l-35 -27q-13 -9 -23 6q-17 25 -41.5 37.5t-52.5 12.5q-43 0 -68.5 -26.5t-25.5 -68.5v-124q0 -41 26.5 -66.5t70.5 -25.5q39 0 62 17t41 40q5 6 15 -1l33 -24q10 -6 11 -11.5t-3 -10.5q-30 -45 -71.5 -62.5t-86.5 -17.5q-81 0 -129.5 44 t-48.5 121v115q0 40 13.5 72t37 53.5t55.5 33t70 11.5q97 -1 154 -76zM272 553q0 -20 -13.5 -33.5t-32.5 -13.5q-20 0 -34 13t-14 33t13.5 33.5t33.5 13.5t33.5 -13.5t13.5 -32.5z" />
<glyph unicode="&#x10c;" horiz-adv-x="430" d="M410 551q5 -6 5 -10.5t-8 -11.5l-38 -32q-4 -4 -10.5 -2.5t-10.5 6.5q-18 23 -47 37t-60 14q-48 0 -73.5 -27t-25.5 -70v-291q0 -42 28 -69.5t76 -27.5q31 0 58 15.5t44 32.5q5 6 10 9.5t13 -2.5l40 -33q3 -2 3.5 -7t-1.5 -9q-30 -39 -74 -59t-93 -20q-40 0 -74.5 11 t-59.5 32.5t-39.5 53t-14.5 72.5v292q0 39 13.5 70.5t37.5 53.5t57.5 34t73.5 12q46 0 89 -15t81 -59zM108 752q-11 9 1 17l14 10q7 5 11.5 4t10.5 -5l91 -61q8 -7 15 0l88 61q5 4 10 5t12 -4l14 -10q12 -8 1 -17l-96 -99q-5 -5 -9.5 -7t-12.5 -2h-32q-8 0 -12.5 2t-9.5 7z " />
<glyph unicode="&#x10d;" horiz-adv-x="402" d="M375 368q4 -5 3 -11.5t-7 -10.5l-35 -27q-13 -9 -23 6q-17 25 -41.5 37.5t-52.5 12.5q-43 0 -68.5 -26.5t-25.5 -68.5v-124q0 -41 26.5 -66.5t70.5 -25.5q39 0 62 17t41 40q5 6 15 -1l33 -24q10 -6 11 -11.5t-3 -10.5q-30 -45 -71.5 -62.5t-86.5 -17.5q-81 0 -129.5 44 t-48.5 121v115q0 40 13.5 72t37 53.5t55.5 33t70 11.5q97 -1 154 -76zM265 494q-5 -5 -9.5 -8t-12.5 -3h-32q-8 0 -12.5 3t-9.5 8l-96 117q-5 5 -5.5 10.5t6.5 10.5l14 12q7 6 12 4.5t10 -6.5l88 -81q7 -7 15 1l91 80q6 5 10.5 6.5t11.5 -4.5l14 -12q7 -5 6.5 -10.5 t-5.5 -10.5z" />
<glyph unicode="&#x10e;" horiz-adv-x="492" d="M437 186q0 -93 -48.5 -139.5t-136.5 -46.5h-179q-12 0 -12 11v595q0 11 12 11h179q90 0 137.5 -47t47.5 -133v-251zM353 446q0 52 -29.5 75.5t-76.5 23.5h-93q-9 0 -9 -8v-455q0 -9 8 -9h101q50 0 74.5 26.5t24.5 73.5v273zM84 752q-11 9 1 17l14 10q7 5 11.5 4t10.5 -5 l91 -61q8 -7 15 0l88 61q5 4 10 5t12 -4l14 -10q12 -8 1 -17l-96 -99q-5 -5 -9.5 -7t-12.5 -2h-32q-8 0 -12.5 2t-9.5 7z" />
<glyph unicode="&#x10f;" horiz-adv-x="562" d="M516 458q-5 -12 -15 -12h-27q-7 0 -9.5 5.5t-1.5 11.5l10 157q2 16 15 16h62q19 0 13 -20zM399 9q0 -9 -9 -9h-54q-10 0 -10 10v14q0 6 -5.5 8t-11.5 -3q-13 -11 -40 -22.5t-63 -11.5q-73 0 -116.5 42t-43.5 123v116q0 34 11 64.5t32 53t50.5 36t66.5 13.5q40 0 63 -11 t33 -19q8 -6 12 -3t4 10v207q0 10 10 10h61q10 0 10 -9v-619zM319 276q0 41 -23 69.5t-73 28.5q-52 0 -74.5 -28.5t-22.5 -69.5v-116q0 -42 23.5 -69.5t69.5 -27.5q42 0 70.5 28t28.5 69z" />
<glyph unicode="&#x110;" horiz-adv-x="486" d="M61 606q0 11 12 11h172q90 0 137.5 -47t47.5 -133v-251q0 -93 -48.5 -139.5t-136.5 -46.5h-172q-12 0 -12 11v265q0 9 -8 9h-32q-12 0 -12 12v36q0 12 11 12h33q8 0 8 9v252zM144 82q0 -9 8 -9h95q49 0 74 26.5t25 73.5v273q0 52 -29.5 75.5t-76.5 23.5h-87q-9 0 -9 -8 v-182q0 -7 2.5 -8.5t6.5 -1.5h70q12 0 12 -11v-37q0 -12 -11 -12h-72q-8 0 -8 -9v-194z" />
<glyph unicode="&#x111;" horiz-adv-x="451" d="M307 538q5 0 8 2t3 10v57q0 10 10 10h61q10 0 10 -9v-59q0 -11 10 -11h32q9 0 9 -10v-36q0 -10 -10 -10h-31q-7 0 -8.5 -3t-1.5 -8v-462q0 -9 -9 -9h-54q-10 0 -10 10v14q0 6 -5.5 8t-11.5 -3q-13 -11 -35.5 -22.5t-58.5 -11.5t-67 12t-53.5 33.5t-35.5 52t-13 67.5v116 q0 34 12 64.5t34 53t53 36t68 13.5q40 0 59.5 -11t29.5 -19q8 -6 12 -3t4 10v51q0 7 -1.5 9t-8.5 2h-72q-9 0 -9 10v37q0 9 10 9h70zM319 276q0 41 -26.5 69.5t-69.5 28.5q-44 0 -70.5 -28.5t-26.5 -69.5v-116q0 -42 27.5 -69.5t69.5 -27.5t68.5 28t26.5 69z" />
<glyph unicode="&#x112;" horiz-adv-x="440" d="M410 12q0 -12 -12 -12h-326q-12 0 -12 11v595q0 11 12 11h322q13 0 13 -11v-49q0 -12 -12 -12h-243q-8 0 -8 -8v-171q0 -8 7 -8h201q12 0 12 -12v-50q0 -11 -11 -11h-201q-8 0 -8 -9v-194q0 -9 7 -9h247q12 0 12 -11v-50zM340 683q0 -10 -9 -10h-213q-10 0 -10 10v41 q0 10 9 10h213q10 0 10 -9v-42z" />
<glyph unicode="&#x113;" horiz-adv-x="438" d="M399 225q0 -11 -6.5 -17.5t-13.5 -6.5h-234q-8 0 -13 -5t-5 -13v-19q0 -20 5 -38.5t16.5 -32t30 -21.5t44.5 -8q30 0 54.5 14t41.5 37q8 11 20 3l35 -24q12 -8 8 -16q-24 -44 -66 -64t-91 -20q-81 0 -129.5 44.5t-48.5 119.5v114q0 38 13 70t36.5 55t55.5 35.5t71 12.5 q40 0 72.5 -12.5t55.5 -35.5t35.5 -55t12.5 -70v-47zM223 376q-42 0 -68 -27t-26 -65v-7q0 -4 3 -8t12 -4h164q10 0 10 11v9q0 38 -24 64.5t-71 26.5zM340 525q0 -10 -9 -10h-213q-10 0 -10 10v41q0 10 9 10h213q10 0 10 -9v-42z" />
<glyph unicode="&#x114;" horiz-adv-x="440" d="M410 12q0 -12 -12 -12h-326q-12 0 -12 11v595q0 11 12 11h322q13 0 13 -11v-49q0 -12 -12 -12h-243q-8 0 -8 -8v-171q0 -8 7 -8h201q12 0 12 -12v-50q0 -11 -11 -11h-201q-8 0 -8 -9v-194q0 -9 7 -9h247q12 0 12 -11v-50zM118 767q0 5 2 8t10 3h21q8 0 10 -3t4 -10 q9 -29 24.5 -44t44.5 -15q54 0 69 59q2 7 3.5 10t10.5 3h21q8 0 10 -3t2 -8q-1 -25 -10 -47.5t-24 -39t-36 -26t-47 -9.5q-24 0 -44.5 9.5t-36 26t-24.5 39t-10 47.5z" />
<glyph unicode="&#x115;" horiz-adv-x="438" d="M399 225q0 -11 -6.5 -17.5t-13.5 -6.5h-234q-8 0 -13 -5t-5 -13v-19q0 -20 5 -38.5t16.5 -32t30 -21.5t44.5 -8q30 0 54.5 14t41.5 37q8 11 20 3l35 -24q12 -8 8 -16q-24 -44 -66 -64t-91 -20q-81 0 -129.5 44.5t-48.5 119.5v114q0 38 13 70t36.5 55t55.5 35.5t71 12.5 q40 0 72.5 -12.5t55.5 -35.5t35.5 -55t12.5 -70v-47zM223 376q-42 0 -68 -27t-26 -65v-7q0 -4 3 -8t12 -4h164q10 0 10 11v9q0 38 -24 64.5t-71 26.5zM114 614q0 5 2 8t10 3h21q8 0 10 -3t4 -10q9 -29 24.5 -44t44.5 -15q54 0 69 59q2 7 3.5 10t10.5 3h21q8 0 10 -3t2 -8 q-1 -25 -10 -47.5t-24 -39t-36 -26t-47 -9.5q-24 0 -44.5 9.5t-36 26t-24.5 39t-10 47.5z" />
<glyph unicode="&#x116;" horiz-adv-x="440" d="M410 12q0 -12 -12 -12h-326q-12 0 -12 11v595q0 11 12 11h322q13 0 13 -11v-49q0 -12 -12 -12h-243q-8 0 -8 -8v-171q0 -8 7 -8h201q12 0 12 -12v-50q0 -11 -11 -11h-201q-8 0 -8 -9v-194q0 -9 7 -9h247q12 0 12 -11v-50zM279 703q0 -20 -13.5 -33.5t-32.5 -13.5 q-20 0 -34 13t-14 33t13.5 33.5t33.5 13.5t33.5 -13.5t13.5 -32.5z" />
<glyph unicode="&#x117;" horiz-adv-x="438" d="M399 225q0 -11 -6.5 -17.5t-13.5 -6.5h-234q-8 0 -13 -5t-5 -13v-19q0 -20 5 -38.5t16.5 -32t30 -21.5t44.5 -8q30 0 54.5 14t41.5 37q8 11 20 3l35 -24q12 -8 8 -16q-24 -44 -66 -64t-91 -20q-81 0 -129.5 44.5t-48.5 119.5v114q0 38 13 70t36.5 55t55.5 35.5t71 12.5 q40 0 72.5 -12.5t55.5 -35.5t35.5 -55t12.5 -70v-47zM223 376q-42 0 -68 -27t-26 -65v-7q0 -4 3 -8t12 -4h164q10 0 10 11v9q0 38 -24 64.5t-71 26.5zM272 553q0 -20 -13.5 -33.5t-32.5 -13.5q-20 0 -34 13t-14 33t13.5 33.5t33.5 13.5t33.5 -13.5t13.5 -32.5z" />
<glyph unicode="&#x118;" horiz-adv-x="440" d="M410 12q0 -12 -12 -12h-31q-20 -22 -32.5 -51t-12.5 -55q0 -13 6.5 -22t26.5 -9q14 0 29.5 7.5t30.5 15.5q6 3 9 -1l16 -22q2 -2 2 -4q0 -3 -3 -6q-15 -14 -42.5 -27t-55.5 -13q-45 0 -62 21t-17 52q0 27 15 59t37 55h-242q-12 0 -12 11v595q0 11 12 11h322q13 0 13 -11 v-49q0 -12 -12 -12h-243q-8 0 -8 -8v-171q0 -8 7 -8h201q12 0 12 -12v-50q0 -11 -11 -11h-201q-8 0 -8 -9v-194q0 -9 7 -9h247q12 0 12 -11v-50v0z" />
<glyph unicode="&#x119;" horiz-adv-x="438" d="M399 225q0 -11 -6.5 -17.5t-13.5 -6.5h-234q-8 0 -13 -5t-5 -13v-19q0 -20 5 -38.5t16.5 -32t30 -21.5t44.5 -8q30 0 54.5 14t41.5 37q8 11 20 3l35 -24q12 -8 8 -16q-23 -41 -63 -62q-19 -22 -31.5 -50.5t-12.5 -54.5q0 -13 6.5 -22t26.5 -9q14 0 29.5 7.5t30.5 15.5 q6 3 9 -1l16 -22q2 -2 2 -4q0 -3 -3 -6q-15 -14 -42.5 -27t-55.5 -13q-45 0 -62 21t-17 52q0 21 9.5 46t24.5 46q-6 -1 -12 -1h-12q-81 0 -129.5 44.5t-48.5 119.5v114q0 38 13 70t36.5 55t55.5 35.5t71 12.5q40 0 72.5 -12.5t55.5 -35.5t35.5 -55t12.5 -70v-47zM223 376 q-42 0 -68 -27t-26 -65v-7q0 -4 3 -8t12 -4h164q10 0 10 11v9q0 38 -24 64.5t-71 26.5z" />
<glyph unicode="&#x11a;" horiz-adv-x="440" d="M410 12q0 -12 -12 -12h-326q-12 0 -12 11v595q0 11 12 11h322q13 0 13 -11v-49q0 -12 -12 -12h-243q-8 0 -8 -8v-171q0 -8 7 -8h201q12 0 12 -12v-50q0 -11 -11 -11h-201q-8 0 -8 -9v-194q0 -9 7 -9h247q12 0 12 -11v-50zM87 752q-11 9 1 17l14 10q7 5 11.5 4t10.5 -5 l91 -61q8 -7 15 0l88 61q5 4 10 5t12 -4l14 -10q12 -8 1 -17l-96 -99q-5 -5 -9.5 -7t-12.5 -2h-32q-8 0 -12.5 2t-9.5 7z" />
<glyph unicode="&#x11b;" horiz-adv-x="438" d="M399 225q0 -11 -6.5 -17.5t-13.5 -6.5h-234q-8 0 -13 -5t-5 -13v-19q0 -20 5 -38.5t16.5 -32t30 -21.5t44.5 -8q30 0 54.5 14t41.5 37q8 11 20 3l35 -24q12 -8 8 -16q-24 -44 -66 -64t-91 -20q-81 0 -129.5 44.5t-48.5 119.5v114q0 38 13 70t36.5 55t55.5 35.5t71 12.5 q40 0 72.5 -12.5t55.5 -35.5t35.5 -55t12.5 -70v-47zM262 494q-5 -5 -9.5 -8t-12.5 -3h-32q-8 0 -12.5 3t-9.5 8l-96 117q-5 5 -5.5 10.5t6.5 10.5l14 12q7 6 12 4.5t10 -6.5l88 -81q7 -7 15 1l91 80q6 5 10.5 6.5t11.5 -4.5l14 -12q7 -5 6.5 -10.5t-5.5 -10.5zM223 376 q-42 0 -68 -27t-26 -65v-7q0 -4 3 -8t12 -4h164q10 0 10 11v9q0 38 -24 64.5t-71 26.5z" />
<glyph unicode="&#x11c;" horiz-adv-x="480" d="M427 161q0 -37 -13 -67.5t-37 -52.5t-57.5 -34.5t-73.5 -12.5t-74.5 11t-59.5 32.5t-39.5 53t-14.5 72.5v292q0 39 14.5 70.5t40 53.5t60 34t74.5 12q49 0 96.5 -19t72.5 -62q4 -7 2.5 -11t-7.5 -9l-39 -31q-5 -4 -10.5 -1.5t-10.5 8.5q-21 29 -49 40t-54 11 q-55 0 -80.5 -30.5t-25.5 -73.5v-283q0 -42 28 -69.5t76 -27.5q43 0 69 25t26 70v92q0 8 -6 8h-74q-12 0 -12 11v51q0 12 12 12h153q13 0 13 -12v-163zM208 774q5 5 9.5 7t12.5 2h32q8 0 12.5 -2t9.5 -7l96 -99q11 -9 -1 -17l-14 -10q-7 -5 -12 -4t-10 5l-88 61q-7 7 -15 0 l-91 -61q-6 -4 -10.5 -5t-11.5 4l-14 10q-12 8 -1 17z" />
<glyph unicode="&#x11d;" horiz-adv-x="438" d="M283 -141q25 15 42.5 35t17.5 40q0 18 -11 30t-27.5 19t-37 10t-39.5 3q-32 0 -72.5 -5t-77.5 -11q-12 -2 -16.5 1t-8.5 8q-9 13 -13.5 30t-4.5 36q0 28 19.5 53.5t46.5 40.5q3 2 3 4.5t-3 4.5l-4 2q-31 20 -50 52.5t-19 75.5q0 33 14 61.5t37.5 50t54.5 33.5t66 12 q33 0 63 -10t53 -28q5 -4 10 0q19 16 42.5 25.5t47.5 9.5q14 1 14 -15v-51q0 -8 -2.5 -10t-12.5 -1q-26 4 -47 -4q-8 -1 -5 -8q17 -29 17 -65q0 -35 -14.5 -64t-39 -50t-57 -32.5t-69.5 -11.5q-15 0 -23 -2q-26 -6 -45.5 -28t-21.5 -40q0 -8 7 -5q28 7 60 9.5t49 2.5 q34 0 69.5 -6t64.5 -21t47 -40t18 -63q0 -22 -9 -42.5t-24 -38.5t-34 -32t-38 -22q-13 -7 -21 6l-22 34q-6 9 6 17zM298 284q0 37 -25.5 64.5t-66.5 27.5q-45 0 -71.5 -27.5t-26.5 -64.5q0 -36 24 -63.5t68 -27.5q47 0 72.5 26.5t25.5 64.5zM353 526q5 -5 5.5 -10.5 t-6.5 -10.5l-14 -12q-7 -6 -11.5 -4.5t-10.5 6.5l-91 80q-8 8 -15 1l-88 -81q-5 -5 -10 -6.5t-12 4.5l-14 12q-7 5 -6.5 10.5t5.5 10.5l96 117q5 5 9.5 8t12.5 3h32q8 0 12.5 -3t9.5 -8z" />
<glyph unicode="&#x11e;" horiz-adv-x="480" d="M427 161q0 -37 -13 -67.5t-37 -52.5t-57.5 -34.5t-73.5 -12.5t-74.5 11t-59.5 32.5t-39.5 53t-14.5 72.5v292q0 39 14.5 70.5t40 53.5t60 34t74.5 12q49 0 96.5 -19t72.5 -62q4 -7 2.5 -11t-7.5 -9l-39 -31q-5 -4 -10.5 -1.5t-10.5 8.5q-21 29 -49 40t-54 11 q-55 0 -80.5 -30.5t-25.5 -73.5v-283q0 -42 28 -69.5t76 -27.5q43 0 69 25t26 70v92q0 8 -6 8h-74q-12 0 -12 11v51q0 12 12 12h153q13 0 13 -12v-163zM128 767q0 5 2 8t10 3h21q8 0 10 -3t4 -10q9 -29 24.5 -44t44.5 -15q54 0 69 59q2 7 3.5 10t10.5 3h21q8 0 10 -3t2 -8 q-1 -25 -10 -47.5t-24 -39t-36 -26t-47 -9.5q-24 0 -44.5 9.5t-36 26t-24.5 39t-10 47.5z" />
<glyph unicode="&#x11f;" horiz-adv-x="438" d="M283 -141q25 15 42.5 35t17.5 40q0 18 -11 30t-27.5 19t-37 10t-39.5 3q-32 0 -72.5 -5t-77.5 -11q-12 -2 -16.5 1t-8.5 8q-9 13 -13.5 30t-4.5 36q0 28 19.5 53.5t46.5 40.5q3 2 3 4.5t-3 4.5l-4 2q-31 20 -50 52.5t-19 75.5q0 33 14 61.5t37.5 50t54.5 33.5t66 12 q33 0 63 -10t53 -28q5 -4 10 0q19 16 42.5 25.5t47.5 9.5q14 1 14 -15v-51q0 -8 -2.5 -10t-12.5 -1q-26 4 -47 -4q-8 -1 -5 -8q17 -29 17 -65q0 -35 -14.5 -64t-39 -50t-57 -32.5t-69.5 -11.5q-15 0 -23 -2q-26 -6 -45.5 -28t-21.5 -40q0 -8 7 -5q28 7 60 9.5t49 2.5 q34 0 69.5 -6t64.5 -21t47 -40t18 -63q0 -22 -9 -42.5t-24 -38.5t-34 -32t-38 -22q-13 -7 -21 6l-22 34q-6 9 6 17zM298 284q0 37 -25.5 64.5t-66.5 27.5q-45 0 -71.5 -27.5t-26.5 -64.5q0 -36 24 -63.5t68 -27.5q47 0 72.5 26.5t25.5 64.5zM90 614q0 5 2 8t10 3h21 q8 0 10 -3t4 -10q9 -29 24.5 -44t44.5 -15q54 0 69 59q2 7 3.5 10t10.5 3h21q8 0 10 -3t2 -8q-1 -25 -10 -47.5t-24 -39t-36 -26t-47 -9.5q-24 0 -44.5 9.5t-36 26t-24.5 39t-10 47.5z" />
<glyph unicode="&#x120;" horiz-adv-x="480" d="M427 161q0 -37 -13 -67.5t-37 -52.5t-57.5 -34.5t-73.5 -12.5t-74.5 11t-59.5 32.5t-39.5 53t-14.5 72.5v292q0 39 14.5 70.5t40 53.5t60 34t74.5 12q49 0 96.5 -19t72.5 -62q4 -7 2.5 -11t-7.5 -9l-39 -31q-5 -4 -10.5 -1.5t-10.5 8.5q-21 29 -49 40t-54 11 q-55 0 -80.5 -30.5t-25.5 -73.5v-283q0 -42 28 -69.5t76 -27.5q43 0 69 25t26 70v92q0 8 -6 8h-74q-12 0 -12 11v51q0 12 12 12h153q13 0 13 -12v-163zM292 703q0 -20 -13.5 -33.5t-32.5 -13.5q-20 0 -34 13t-14 33t13.5 33.5t33.5 13.5t33.5 -13.5t13.5 -32.5z" />
<glyph unicode="&#x121;" horiz-adv-x="438" d="M283 -141q25 15 42.5 35t17.5 40q0 18 -11 30t-27.5 19t-37 10t-39.5 3q-32 0 -72.5 -5t-77.5 -11q-12 -2 -16.5 1t-8.5 8q-9 13 -13.5 30t-4.5 36q0 28 19.5 53.5t46.5 40.5q3 2 3 4.5t-3 4.5l-4 2q-31 20 -50 52.5t-19 75.5q0 33 14 61.5t37.5 50t54.5 33.5t66 12 q33 0 63 -10t53 -28q5 -4 10 0q19 16 42.5 25.5t47.5 9.5q14 1 14 -15v-51q0 -8 -2.5 -10t-12.5 -1q-26 4 -47 -4q-8 -1 -5 -8q17 -29 17 -65q0 -35 -14.5 -64t-39 -50t-57 -32.5t-69.5 -11.5q-15 0 -23 -2q-26 -6 -45.5 -28t-21.5 -40q0 -8 7 -5q28 7 60 9.5t49 2.5 q34 0 69.5 -6t64.5 -21t47 -40t18 -63q0 -22 -9 -42.5t-24 -38.5t-34 -32t-38 -22q-13 -7 -21 6l-22 34q-6 9 6 17zM298 284q0 37 -25.5 64.5t-66.5 27.5q-45 0 -71.5 -27.5t-26.5 -64.5q0 -36 24 -63.5t68 -27.5q47 0 72.5 26.5t25.5 64.5zM271 553q0 -20 -13.5 -33.5 t-32.5 -13.5q-20 0 -34 13t-14 33t13.5 33.5t33.5 13.5t33.5 -13.5t13.5 -32.5z" />
<glyph unicode="&#x122;" horiz-adv-x="480" d="M427 161q0 -37 -13 -67.5t-37 -52.5t-57.5 -34.5t-73.5 -12.5t-74.5 11t-59.5 32.5t-39.5 53t-14.5 72.5v292q0 39 14.5 70.5t40 53.5t60 34t74.5 12q49 0 96.5 -19t72.5 -62q4 -7 2.5 -11t-7.5 -9l-39 -31q-5 -4 -10.5 -1.5t-10.5 8.5q-21 29 -49 40t-54 11 q-55 0 -80.5 -30.5t-25.5 -73.5v-283q0 -42 28 -69.5t76 -27.5q43 0 69 25t26 70v92q0 8 -6 8h-74q-12 0 -12 11v51q0 12 12 12h153q13 0 13 -12v-163zM239 -217q-5 -12 -15 -12h-27q-7 0 -9.5 5.5t-1.5 11.5l10 157q2 16 15 16h62q19 0 13 -20z" />
<glyph unicode="&#x123;" horiz-adv-x="438" d="M283 -141q25 15 42.5 35t17.5 40q0 18 -11 30t-27.5 19t-37 10t-39.5 3q-32 0 -72.5 -5t-77.5 -11q-12 -2 -16.5 1t-8.5 8q-9 13 -13.5 30t-4.5 36q0 28 19.5 53.5t46.5 40.5q3 2 3 4.5t-3 4.5l-4 2q-31 20 -50 52.5t-19 75.5q0 33 14 61.5t37.5 50t54.5 33.5t66 12 q33 0 63 -10t53 -28q5 -4 10 0q19 16 42.5 25.5t47.5 9.5q14 1 14 -15v-51q0 -8 -2.5 -10t-12.5 -1q-26 4 -47 -4q-8 -1 -5 -8q17 -29 17 -65q0 -35 -14.5 -64t-39 -50t-57 -32.5t-69.5 -11.5q-15 0 -23 -2q-26 -6 -45.5 -28t-21.5 -40q0 -8 7 -5q28 7 60 9.5t49 2.5 q34 0 69.5 -6t64.5 -21t47 -40t18 -63q0 -22 -9 -42.5t-24 -38.5t-34 -32t-38 -22q-13 -7 -21 6l-22 34q-6 9 6 17zM298 284q0 37 -25.5 64.5t-66.5 27.5q-45 0 -71.5 -27.5t-26.5 -64.5q0 -36 24 -63.5t68 -27.5q47 0 72.5 26.5t25.5 64.5zM209 669q4 12 15 12h27 q7 0 9.5 -5.5t1.5 -11.5l-10 -157q-2 -16 -15 -16h-62q-19 0 -13 20z" />
<glyph unicode="&#x124;" horiz-adv-x="627" d="M461 12q0 -12 -12 -12h-61q-12 0 -12 11v263q0 9 -8 9h-213q-8 0 -8 -9v-262q0 -12 -11 -12h-61q-12 0 -12 11v595q0 11 11 11h61q12 0 12 -10v-243q0 -9 8 -9h213q8 0 8 9v242q0 11 11 11h61q13 0 13 -10v-595zM216 774q5 5 9.5 7t12.5 2h32q8 0 12.5 -2t9.5 -7l96 -99 q11 -9 -1 -17l-14 -10q-7 -5 -12 -4t-10 5l-88 61q-7 7 -15 0l-91 -61q-6 -4 -10.5 -5t-11.5 4l-14 10q-12 8 -1 17z" />
<glyph unicode="&#x125;" horiz-adv-x="466" d="M410 10q0 -10 -9 -10h-62q-9 0 -9 9v267q0 43 -22.5 70.5t-73.5 27.5q-44 0 -70 -27.5t-26 -69.5v-267q0 -10 -10 -10h-61q-10 0 -10 9v618q0 10 9 10h62q9 0 9 -10v-211q0 -8 5 -9.5t10 3.5q22 16 48.5 24.5t54.5 8.5q75 0 115 -45.5t40 -120.5v-267zM61 774q5 5 9.5 7 t12.5 2h32q8 0 12.5 -2t9.5 -7l96 -99q11 -9 -1 -17l-14 -10q-7 -5 -12 -4t-10 5l-88 61q-7 7 -15 0l-91 -61q-6 -4 -10.5 -5t-11.5 4l-14 10q-12 8 -1 17z" />
<glyph unicode="&#x126;" horiz-adv-x="539" d="M468 12q0 -12 -12 -12h-60q-12 0 -12 11v263q0 9 -8 9h-213q-8 0 -8 -9v-262q0 -12 -11 -12h-61q-12 0 -12 11v464q0 12 -13 12h-27q-12 0 -12 12v29q0 12 11 12h29q5 0 8.5 3t3.5 8v55q0 11 11 11h61q12 0 12 -10v-54q0 -13 10 -13h209q10 0 10 13v53q0 11 11 11h59 q14 0 14 -10v-56q0 -5 3.5 -8t8.5 -3h29q11 0 11 -12v-29q0 -12 -12 -12h-27q-13 0 -13 -12v-463zM384 475q0 12 -8 12h-213q-8 0 -8 -12v-111q0 -9 8 -9h213q8 0 8 9v111z" />
<glyph unicode="&#x127;" horiz-adv-x="476" d="M67 479q0 14 -15 14h-27q-10 0 -10 10v32q0 10 9 10h29q5 0 9.5 3.5t4.5 9.5v49q0 10 9 10h62q9 0 9 -10v-47q0 -15 12 -15h171q10 0 10 -9v-33q0 -10 -9 -10h-174q-10 0 -10 -14v-63q0 -8 5 -9.5t10 3.5q22 16 48.5 24.5t54.5 8.5q75 0 115 -45.5t40 -120.5v-267 q0 -10 -9 -10h-62q-9 0 -9 9v267q0 43 -22.5 70.5t-73.5 27.5q-44 0 -70 -27.5t-26 -69.5v-267q0 -10 -10 -10h-61q-10 0 -10 9v470z" />
<glyph unicode="&#x128;" horiz-adv-x="241" d="M162 12q0 -12 -12 -12h-62q-12 0 -12 11v595q0 11 12 11h62q12 0 12 -10v-595zM248 742q-16 -34 -37.5 -48.5t-40.5 -14.5q-16 0 -30.5 5.5t-27.5 12t-25.5 12t-25.5 5.5q-8 0 -18.5 -9.5t-17.5 -21.5q-6 -10 -17 -4l-27 16q-5 2 -4 7t3 9q13 25 33 44t45 19 q15 0 29.5 -6t28 -12.5t26.5 -12.5t24 -6t20 10.5t16 22.5q2 3 4 5t7 -1l32 -15q9 -3 3 -17z" />
<glyph unicode="&#x129;" horiz-adv-x="262" d="M91 428q0 10 9 10h62q10 0 10 -10v-419q0 -9 -9 -9h-62q-10 0 -10 9v419zM266 572q-16 -34 -37.5 -48.5t-40.5 -14.5q-16 0 -30.5 5.5t-27.5 12t-25.5 12t-25.5 5.5q-8 0 -18.5 -9.5t-17.5 -21.5q-6 -10 -17 -4l-27 16q-5 2 -4 7t3 9q13 25 33 44t45 19q15 0 29.5 -6 t28 -12.5t26.5 -12.5t24 -6t20 10.5t16 22.5q2 3 4 5t7 -1l32 -15q9 -3 3 -17z" />
<glyph unicode="&#x12a;" horiz-adv-x="241" d="M162 12q0 -12 -12 -12h-62q-12 0 -12 11v595q0 11 12 11h62q12 0 12 -10v-595zM231 683q0 -10 -9 -10h-213q-10 0 -10 10v41q0 10 9 10h213q10 0 10 -9v-42z" />
<glyph unicode="&#x12b;" horiz-adv-x="234" d="M79 428q0 10 9 10h62q10 0 10 -10v-419q0 -9 -9 -9h-62q-10 0 -10 9v419zM233 525q0 -10 -9 -10h-213q-10 0 -10 10v41q0 10 9 10h213q10 0 10 -9v-42z" />
<glyph unicode="&#x12c;" horiz-adv-x="271" d="M16 767q0 5 2 8t10 3h21q8 0 10 -3t4 -10q9 -29 24.5 -44t44.5 -15q54 0 69 59q2 7 3.5 10t10.5 3h21q8 0 10 -3t2 -8q-1 -25 -10 -47.5t-24 -39t-36 -26t-47 -9.5q-24 0 -44.5 9.5t-36 26t-24.5 39t-10 47.5zM178 12q0 -12 -12 -12h-62q-12 0 -12 11v595q0 11 12 11h62 q12 0 12 -10v-595z" />
<glyph unicode="&#x12d;" horiz-adv-x="231" d="M73 428q0 10 9 10h62q10 0 10 -10v-419q0 -9 -9 -9h-62q-10 0 -10 9v419zM-2 620q0 5 2 8t10 3h21q8 0 10 -3t4 -10q9 -29 24.5 -44t44.5 -15q54 0 69 59q2 7 3.5 10t10.5 3h21q8 0 10 -3t2 -8q-1 -25 -10 -47.5t-24 -39t-36 -26t-47 -9.5q-24 0 -44.5 9.5t-36 26 t-24.5 39t-10 47.5z" />
<glyph unicode="&#x12e;" horiz-adv-x="241" d="M162 12q0 -12 -12 -12h-22q-20 -22 -32.5 -51t-12.5 -55q0 -13 6.5 -22t26.5 -9q14 0 29.5 7.5t30.5 15.5q6 3 9 -1l16 -22q2 -2 2 -4q0 -3 -3 -6q-15 -14 -42.5 -27t-55.5 -13q-45 0 -62 21t-17 52q0 29 16 62t39 55q-2 4 -2 8v595q0 11 12 11h62q12 0 12 -10v-595v0z " />
<glyph unicode="&#x12f;" horiz-adv-x="203" d="M61 428q0 10 9 10h62q10 0 10 -10v-419q0 -9 -9 -9h-18q-20 -22 -32.5 -51t-12.5 -55q0 -13 6.5 -22t26.5 -9q14 0 29.5 7.5t30.5 15.5q6 3 9 -1l16 -22q2 -2 2 -4q0 -3 -3 -6q-15 -14 -42.5 -27t-55.5 -13q-45 0 -62 21t-17 52q0 28 15.5 60.5t38.5 55.5q-3 1 -3 7v419z M154 576q0 -20 -15 -35t-36 -15t-35.5 14t-14.5 36q0 20 14.5 34.5t34.5 14.5q22 0 37 -14t15 -35z" />
<glyph unicode="&#x130;" horiz-adv-x="241" d="M162 12q0 -12 -12 -12h-62q-12 0 -12 11v595q0 11 12 11h62q12 0 12 -10v-595zM167 723q0 -20 -13.5 -33.5t-32.5 -13.5q-20 0 -34 13t-14 33t13.5 33.5t33.5 13.5t33.5 -13.5t13.5 -32.5z" />
<glyph unicode="&#x131;" horiz-adv-x="203" d="M61 428q0 10 9 10h62q10 0 10 -10v-419q0 -9 -9 -9h-62q-10 0 -10 9v419z" />
<glyph unicode="&#x132;" horiz-adv-x="461" d="M151 12q0 -12 -12 -12h-62q-12 0 -12 11v595q0 11 12 11h62q12 0 12 -10v-595zM181 -63q-2 8 -1.5 13t11.5 9q27 11 50 23t39 30t25 44t9 66v482q0 13 15 13h52q15 0 15 -13v-474q0 -47 -8.5 -86t-29.5 -70t-56 -53.5t-88 -37.5q-8 -2 -12.5 0.5t-7.5 13.5z" />
<glyph unicode="&#x133;" horiz-adv-x="399" d="M154 576q0 -20 -15 -35t-36 -15t-35.5 14t-14.5 36q0 20 14.5 34.5t34.5 14.5q22 0 37 -14t15 -35zM61 428q0 10 9 10h62q10 0 10 -10v-419q0 -9 -9 -9h-62q-10 0 -10 9v419zM346 576q0 -20 -15 -35t-36 -15t-35.5 14t-14.5 36q0 20 14.5 34.5t34.5 14.5q22 0 37 -14 t15 -35zM167 -115q2 10 17 7q7 -1 13 -1.5t11 -0.5q27 1 37.5 17t10.5 45v477q0 9 10 9h60q5 0 7 -3t2 -6v-486q0 -26 -6.5 -49t-20 -40.5t-36 -27.5t-53.5 -10q-34 0 -50 4q-7 2 -10 5t-1 11z" />
<glyph unicode="&#x134;" horiz-adv-x="269" d="M-10 -62q-2 8 -1.5 13t11.5 9q27 11 50 23t39 30t25 44t9 66v482q0 13 15 13h52q15 0 15 -13v-474q0 -47 -8.5 -86t-29.5 -70t-56 -53.5t-88 -37.5q-8 -2 -12.5 0.5t-7.5 13.5zM122 776q5 5 9.5 7t12.5 2h32q8 0 12.5 -2t9.5 -7l96 -99q11 -9 -1 -17l-14 -10 q-7 -5 -12 -4t-10 5l-88 61q-7 7 -15 0l-91 -61q-6 -4 -10.5 -5t-11.5 4l-14 10q-12 8 -1 17z" />
<glyph unicode="&#x135;" horiz-adv-x="253" d="M-7 -115q2 10 17 7q7 -1 13 -1.5t11 -0.5q27 1 37.5 17t10.5 45v477q0 9 10 9h60q5 0 7 -3t2 -6v-486q0 -26 -6.5 -49t-20 -40.5t-36 -27.5t-53.5 -10q-34 0 -50 4q-7 2 -10 5t-1 11zM255 526q5 -5 5.5 -10.5t-6.5 -10.5l-14 -12q-7 -6 -11.5 -4.5t-10.5 6.5l-91 80 q-8 8 -15 1l-88 -81q-5 -5 -10 -6.5t-12 4.5l-14 12q-7 5 -6.5 10.5t5.5 10.5l96 117q5 5 9.5 8t12.5 3h32q8 0 12.5 -3t9.5 -8z" />
<glyph unicode="&#x136;" horiz-adv-x="499" d="M445 617q10 0 12 -4.5t-2 -9.5l-185 -227q-4 -5 -2 -7.5t7 -2.5q8 0 14.5 0.5t13.5 -0.5q69 -5 102.5 -48t38.5 -117l15 -191q0 -10 -10 -10h-58q-11 0 -11 9l-12 180q-1 16 -5 36t-15 37t-31 28.5t-54 11.5q-57 0 -86 -33t-29 -86v-173q0 -10 -9 -10h-65q-11 0 -11 9 v598q0 10 11 10h65q9 0 9 -9v-248q0 -9 4 -8t7 4l207 254q6 7 14 7h65zM234 -197q-5 -12 -15 -12h-27q-7 0 -9.5 5.5t-1.5 11.5l10 157q2 16 15 16h62q19 0 13 -20z" />
<glyph unicode="&#x137;" horiz-adv-x="437" d="M414 17q0 -17 -14 -17h-53q-14 0 -14 14l-5 93q-1 19 -5.5 36.5t-15 31t-28.5 21t-45 7.5q-47 0 -71.5 -28t-24.5 -67v-98q0 -10 -10 -10h-61q-10 0 -10 9v618q0 10 9 10h62q9 0 9 -9v-354q0 -11 5 -13t10 3l155 169q5 5 14 5h74q11 0 11 -9q0 -2 -1.5 -4.5t-3.5 -4.5 l-132 -142q-6 -7 4 -10q7 -1 13.5 -1.5t12.5 -2.5q61 -14 84.5 -56t26.5 -100zM227 -217q-5 -12 -15 -12h-27q-7 0 -9.5 5.5t-1.5 11.5l10 157q2 16 15 16h62q19 0 13 -20z" />
<glyph unicode="&#x138;" horiz-adv-x="441" d="M414 17q0 -17 -14 -17h-53q-14 0 -14 14l-5 93q-1 19 -5.5 36.5t-15 31t-28.5 21t-45 7.5q-47 0 -71.5 -28t-24.5 -67v-98q0 -10 -10 -10h-61q-10 0 -10 9v421q0 10 9 10h62q9 0 9 -9v-157q0 -11 5 -13t10 3l155 169q5 5 14 5h74q11 0 11 -9q0 -2 -1.5 -4.5t-3.5 -4.5 l-132 -142q-6 -7 4 -10q10 -1 18.5 -2t16.5 -3q28 -7 47 -21.5t30.5 -35t17 -45.5t7.5 -53l4 -91v0z" />
<glyph unicode="&#x139;" horiz-adv-x="426" d="M407 12q0 -12 -11 -12h-318q-12 0 -12 11v595q0 11 11 11h61q11 0 11 -10v-525q0 -9 8 -9h238q12 0 12 -11v-50zM112 646q-5 -2 -11 -1.5t-10 5.5l-13 18q-8 10 3 18l116 92q5 4 11 5t11 -4l30 -44q6 -8 3 -13t-8 -7z" />
<glyph unicode="&#x13a;" horiz-adv-x="221" d="M63 627q0 10 9 10h61q10 0 10 -9v-504q0 -35 10 -45t34 -10h13q7 0 8 -5t1 -10v-47q0 -11 -10 -13q-6 -2 -14.5 -2h-13.5q-34 0 -55 8.5t-33 25t-16 41.5t-4 58v502zM112 682q-5 -2 -11 -1.5t-10 5.5l-13 18q-8 10 3 18l116 92q5 4 11 5t11 -4l30 -44q6 -8 3 -13t-8 -7z " />
<glyph unicode="&#x13b;" horiz-adv-x="426" d="M407 12q0 -12 -11 -12h-318q-12 0 -12 11v595q0 11 11 11h61q11 0 11 -10v-525q0 -9 8 -9h238q12 0 12 -11v-50zM214 -217q-5 -12 -15 -12h-27q-7 0 -9.5 5.5t-1.5 11.5l10 157q2 16 15 16h62q19 0 13 -20z" />
<glyph unicode="&#x13c;" horiz-adv-x="221" d="M63 627q0 10 9 10h61q10 0 10 -9v-504q0 -35 10 -45t34 -10h13q7 0 8 -5t1 -10v-47q0 -11 -10 -13q-6 -2 -14.5 -2h-13.5q-34 0 -55 8.5t-33 25t-16 41.5t-4 58v502zM121 -217q-5 -12 -15 -12h-27q-7 0 -9.5 5.5t-1.5 11.5l10 157q2 16 15 16h62q19 0 13 -20z" />
<glyph unicode="&#x13d;" horiz-adv-x="426" d="M407 12q0 -12 -11 -12h-318q-12 0 -12 11v595q0 11 11 11h61q11 0 11 -10v-525q0 -9 8 -9h238q12 0 12 -11v-50zM292 439q-5 -12 -15 -12h-27q-7 0 -9.5 5.5t-1.5 11.5l10 157q2 16 15 16h62q19 0 13 -20z" />
<glyph unicode="&#x13e;" horiz-adv-x="328" d="M273 452q-5 -12 -15 -12h-27q-7 0 -9.5 5.5t-1.5 11.5l10 157q2 16 15 16h62q19 0 13 -20zM63 627q0 10 9 10h61q10 0 10 -9v-504q0 -35 10 -45t34 -10h13q7 0 8 -5t1 -10v-47q0 -11 -10 -13q-6 -2 -14.5 -2h-13.5q-34 0 -55 8.5t-33 25t-16 41.5t-4 58v502z" />
<glyph unicode="&#x13f;" horiz-adv-x="426" d="M407 12q0 -12 -11 -12h-318q-12 0 -12 11v595q0 11 11 11h61q11 0 11 -10v-525q0 -9 8 -9h238q12 0 12 -11v-50zM328 303q0 -20 -13.5 -33.5t-32.5 -13.5q-20 0 -34 13t-14 33t13.5 33.5t33.5 13.5t33.5 -13.5t13.5 -32.5z" />
<glyph unicode="&#x140;" horiz-adv-x="297" d="M288 343q0 -20 -13.5 -33.5t-32.5 -13.5q-20 0 -34 13t-14 33t13.5 33.5t33.5 13.5t33.5 -13.5t13.5 -32.5zM63 627q0 10 9 10h61q10 0 10 -9v-504q0 -35 10 -45t34 -10h13q7 0 8 -5t1 -10v-47q0 -11 -10 -13q-6 -2 -14.5 -2h-13.5q-34 0 -55 8.5t-33 25t-16 41.5t-4 58 v502z" />
<glyph unicode="&#x141;" horiz-adv-x="436" d="M296 338q3 -5 1.5 -8.5t-4.5 -5.5l-112 -65q-7 -4 -7 -14v-163q0 -9 8 -9h238q12 0 12 -11v-50q0 -12 -11 -12h-318q-12 0 -12 11v188q0 6 -7 2l-44 -26q-9 -6 -14 4l-20 34q-6 8 3 14l74 42q8 6 8 14v323q0 11 11 11h60q12 0 12 -10v-278q0 -4 4 -3l84 50q4 2 8 1t6 -5 l20 -34v0z" />
<glyph unicode="&#x142;" horiz-adv-x="291" d="M100 225q0 4 -1 8t-8 0l-57 -34q-8 -5 -11 3l-20 34q-4 7 2 11l87 51q5 3 6.5 5.5t1.5 9.5v314q0 10 9 10h60q10 0 10 -9v-267q0 -11 7 -7l72 43q8 4 11 -3l20 -34q5 -8 -2 -11l-98 -58q-7 -4 -8.5 -8t-1.5 -12l1 -147q0 -35 10 -45t34 -10h13q7 0 8 -5t1 -10v-47 q0 -11 -10 -13q-6 -2 -14.5 -2h-13.5q-34 0 -55 8.5t-33 25t-16 41.5t-4 58v100v0z" />
<glyph unicode="&#x143;" horiz-adv-x="519" d="M118 617q12 0 17 -4.5t10 -11.5l233 -429q1 -2 2 -2.5t1 1.5v435q0 11 11 11h56q12 0 12 -10v-587q0 -13 -6.5 -16.5t-12.5 -3.5h-38q-11 0 -16.5 3.5t-9.5 11.5l-233 428q-3 3 -3 0v-431q0 -12 -11 -12h-57q-12 0 -12 11v581q0 13 3.5 19t17.5 6h36zM265 646 q-5 -2 -11 -1.5t-10 5.5l-13 18q-8 10 3 18l116 92q5 4 11 5t11 -4l30 -44q6 -8 3 -13t-8 -7z" />
<glyph unicode="&#x144;" horiz-adv-x="462" d="M408 10q0 -10 -9 -10h-62q-9 0 -9 9v267q0 43 -24 71t-72 28q-44 0 -70 -27.5t-26 -70.5v-267q0 -10 -10 -10h-61q-10 0 -10 9v419q0 10 9 10h58q9 0 9 -9v-15q0 -9 7 -9q2 0 8 4q42 35 100 35q75 0 118.5 -45.5t43.5 -121.5v-267zM229 490q-3 -4 -9 -6t-12 2l-19 12 q-9 7 -3 18l75 127q3 5 7.5 9.5t12.5 -0.5l44 -29q8 -6 7 -12t-4 -10z" />
<glyph unicode="&#x145;" horiz-adv-x="519" d="M118 617q12 0 17 -4.5t10 -11.5l233 -429q1 -2 2 -2.5t1 1.5v435q0 11 11 11h56q12 0 12 -10v-587q0 -13 -6.5 -16.5t-12.5 -3.5h-38q-11 0 -16.5 3.5t-9.5 11.5l-233 428q-3 3 -3 0v-431q0 -12 -11 -12h-57q-12 0 -12 11v581q0 13 3.5 19t17.5 6h36zM253 -197 q-5 -12 -15 -12h-27q-7 0 -9.5 5.5t-1.5 11.5l10 157q2 16 15 16h62q19 0 13 -20z" />
<glyph unicode="&#x146;" horiz-adv-x="462" d="M408 10q0 -10 -9 -10h-62q-9 0 -9 9v267q0 43 -24 71t-72 28q-44 0 -70 -27.5t-26 -70.5v-267q0 -10 -10 -10h-61q-10 0 -10 9v419q0 10 9 10h58q9 0 9 -9v-15q0 -9 7 -9q2 0 8 4q42 35 100 35q75 0 118.5 -45.5t43.5 -121.5v-267zM227 -217q-5 -12 -15 -12h-27 q-7 0 -9.5 5.5t-1.5 11.5l10 157q2 16 15 16h62q19 0 13 -20z" />
<glyph unicode="&#x147;" horiz-adv-x="519" d="M118 617q12 0 17 -4.5t10 -11.5l233 -429q1 -2 2 -2.5t1 1.5v435q0 11 11 11h56q12 0 12 -10v-587q0 -13 -6.5 -16.5t-12.5 -3.5h-38q-11 0 -16.5 3.5t-9.5 11.5l-233 428q-3 3 -3 0v-431q0 -12 -11 -12h-57q-12 0 -12 11v581q0 13 3.5 19t17.5 6h36zM132 752q-11 9 1 17 l14 10q7 5 11.5 4t10.5 -5l91 -61q8 -7 15 0l88 61q5 4 10 5t12 -4l14 -10q12 -8 1 -17l-96 -99q-5 -5 -9.5 -7t-12.5 -2h-32q-8 0 -12.5 2t-9.5 7z" />
<glyph unicode="&#x148;" horiz-adv-x="462" d="M408 10q0 -10 -9 -10h-62q-9 0 -9 9v267q0 43 -24 71t-72 28q-44 0 -70 -27.5t-26 -70.5v-267q0 -10 -10 -10h-61q-10 0 -10 9v419q0 10 9 10h58q9 0 9 -9v-15q0 -9 7 -9q2 0 8 4q42 35 100 35q75 0 118.5 -45.5t43.5 -121.5v-267zM253 494q-5 -5 -9.5 -8t-12.5 -3h-32 q-8 0 -12.5 3t-9.5 8l-96 117q-5 5 -5.5 10.5t6.5 10.5l14 12q7 6 12 4.5t10 -6.5l88 -81q7 -7 15 1l91 80q6 5 10.5 6.5t11.5 -4.5l14 -12q7 -5 6.5 -10.5t-5.5 -10.5z" />
<glyph unicode="&#x149;" horiz-adv-x="521" d="M467 10q0 -10 -9 -10h-62q-9 0 -9 9v267q0 43 -24 71t-72 28q-44 0 -70 -27.5t-26 -70.5v-267q0 -10 -10 -10h-61q-10 0 -10 9v419q0 10 9 10h58q9 0 9 -9v-15q0 -9 7 -9q2 0 8 4q42 35 100 35q75 0 118.5 -45.5t43.5 -121.5v-267zM72 442q-5 -12 -15 -12h-27 q-7 0 -9.5 5.5t-1.5 11.5l10 157q2 16 15 16h62q19 0 13 -20z" />
<glyph unicode="&#x14a;" horiz-adv-x="519" d="M460 -58q0 -24 -6 -45.5t-20.5 -37.5t-38 -25t-59.5 -9q-9 0 -26.5 2t-28.5 7q-8 3 -8 7.5t1 9.5l6 35q2 7 5 9t12 1q8 -1 19.5 -1.5t16.5 -0.5q29 0 39.5 13.5t10.5 42.5v52q0 13 -6 24l-233 413q-3 3 -3 0v-427q0 -12 -11 -12h-57q-12 0 -12 11v595q0 11 11 11h46 q12 0 17 -4.5t10 -11.5l233 -425q1 -2 2 -2.5t1 1.5v431q0 11 11 11h56q12 0 12 -10v-665v0z" />
<glyph unicode="&#x14b;" horiz-adv-x="462" d="M408 -60q0 -24 -6 -45.5t-20.5 -37t-38 -24.5t-58.5 -9q-10 0 -26.5 2t-27.5 7q-9 4 -6 15l6 36q2 8 5.5 9.5t9.5 0.5q8 -1 15.5 -1.5t13.5 -0.5q32 0 42.5 13t10.5 43v328q0 43 -22.5 71t-73.5 28q-44 0 -70 -27.5t-26 -70.5v-267q0 -10 -10 -10h-61q-10 0 -10 9v419 q0 10 9 10h58q9 0 9 -9v-15q0 -9 7 -9q2 0 8 4q22 18 48 26.5t55 8.5q75 0 117 -45.5t42 -121.5v-337v0z" />
<glyph unicode="&#x14c;" horiz-adv-x="497" d="M439 165q0 -41 -14.5 -72.5t-40 -53.5t-60 -33.5t-75.5 -11.5t-75.5 11t-60.5 32.5t-40.5 53.5t-14.5 74v290q0 40 15 71.5t40.5 53.5t60 33.5t74.5 11.5q39 0 73.5 -11t61 -32.5t41.5 -53.5t15 -73v-290zM355 453q0 43 -29 71t-77 28q-49 0 -78 -28.5t-29 -70.5v-286 q0 -45 27.5 -72.5t78.5 -27.5q50 0 78.5 27.5t28.5 72.5v286zM356 683q0 -10 -9 -10h-213q-10 0 -10 10v41q0 10 9 10h213q10 0 10 -9v-42z" />
<glyph unicode="&#x14d;" horiz-adv-x="448" d="M400 163q0 -81 -47.5 -125t-128.5 -44q-83 0 -129.5 43.5t-46.5 124.5v115q0 77 45 122.5t130 45.5t131 -44t46 -124v-114zM320 277q0 43 -23.5 70.5t-72.5 27.5q-44 0 -70 -27t-26 -71v-115q0 -43 22 -71t73 -28t73.5 27.5t23.5 71.5v115zM338 525q0 -10 -9 -10h-213 q-10 0 -10 10v41q0 10 9 10h213q10 0 10 -9v-42z" />
<glyph unicode="&#x14e;" horiz-adv-x="497" d="M439 165q0 -41 -14.5 -72.5t-40 -53.5t-60 -33.5t-75.5 -11.5t-75.5 11t-60.5 32.5t-40.5 53.5t-14.5 74v290q0 40 15 71.5t40.5 53.5t60 33.5t74.5 11.5q39 0 73.5 -11t61 -32.5t41.5 -53.5t15 -73v-290zM355 453q0 43 -29 71t-77 28q-49 0 -78 -28.5t-29 -70.5v-286 q0 -45 27.5 -72.5t78.5 -27.5q50 0 78.5 27.5t28.5 72.5v286zM133 767q0 5 2 8t10 3h21q8 0 10 -3t4 -10q9 -29 24.5 -44t44.5 -15q54 0 69 59q2 7 3.5 10t10.5 3h21q8 0 10 -3t2 -8q-1 -25 -10 -47.5t-24 -39t-36 -26t-47 -9.5q-24 0 -44.5 9.5t-36 26t-24.5 39t-10 47.5z " />
<glyph unicode="&#x14f;" horiz-adv-x="448" d="M400 163q0 -81 -47.5 -125t-128.5 -44q-83 0 -129.5 43.5t-46.5 124.5v115q0 77 45 122.5t130 45.5t131 -44t46 -124v-114zM320 277q0 43 -23.5 70.5t-72.5 27.5q-44 0 -70 -27t-26 -71v-115q0 -43 22 -71t73 -28t73.5 27.5t23.5 71.5v115zM112 614q0 5 2 8t10 3h21 q8 0 10 -3t4 -10q9 -29 24.5 -44t44.5 -15q54 0 69 59q2 7 3.5 10t10.5 3h21q8 0 10 -3t2 -8q-1 -25 -10 -47.5t-24 -39t-36 -26t-47 -9.5q-24 0 -44.5 9.5t-36 26t-24.5 39t-10 47.5z" />
<glyph unicode="&#x150;" horiz-adv-x="497" d="M439 165q0 -41 -14.5 -72.5t-40 -53.5t-60 -33.5t-75.5 -11.5t-75.5 11t-60.5 32.5t-40.5 53.5t-14.5 74v290q0 40 15 71.5t40.5 53.5t60 33.5t74.5 11.5q39 0 73.5 -11t61 -32.5t41.5 -53.5t15 -73v-290zM355 453q0 43 -29 71t-77 28q-49 0 -78 -28.5t-29 -70.5v-286 q0 -45 27.5 -72.5t78.5 -27.5q50 0 78.5 27.5t28.5 72.5v286zM307 641q-5 -2 -11 -1.5t-10 5.5l-13 18q-8 10 3 18l116 92q5 4 11 5t11 -4l30 -44q6 -8 3 -13t-8 -7zM155 641q-5 -2 -11 -1.5t-10 5.5l-13 18q-8 10 3 18l116 92q5 4 11 5t11 -4l30 -44q6 -8 3 -13t-8 -7z" />
<glyph unicode="&#x151;" horiz-adv-x="448" d="M400 163q0 -81 -47.5 -125t-128.5 -44q-83 0 -129.5 43.5t-46.5 124.5v115q0 77 45 122.5t130 45.5t131 -44t46 -124v-114zM320 277q0 43 -23.5 70.5t-72.5 27.5q-44 0 -70 -27t-26 -71v-115q0 -43 22 -71t73 -28t73.5 27.5t23.5 71.5v115zM181 490q-4 -4 -10 -6t-11 2 l-19 12q-11 7 -4 18l76 127q3 5 8.5 9t11.5 0l44 -29q8 -6 7 -12t-5 -10zM301 490q-4 -4 -10 -6t-11 2l-19 12q-11 7 -4 18l76 127q3 5 8.5 9t11.5 0l44 -29q8 -6 7 -12t-5 -10z" />
<glyph unicode="&#x152;" horiz-adv-x="672" d="M641 12q0 -12 -12 -12h-328q-12 -3 -26.5 -4.5t-28.5 -1.5q-41 0 -76 11t-60.5 32.5t-40 53.5t-14.5 74v290q0 40 14.5 71.5t40 53.5t60.5 33.5t75 11.5q31 0 63 -8h317q13 0 13 -11v-49q0 -12 -12 -12h-242q-9 0 -9 -8v-176q0 -8 8 -8h201q12 0 12 -12v-50 q0 -11 -11 -11h-201q-9 0 -9 -9v-189q0 -9 8 -9h246q12 0 12 -11v-50zM245 67q11 0 23 2.5t23 6.5v468q-22 8 -45 8q-49 0 -78.5 -28.5t-29.5 -70.5v-286q0 -45 28 -72.5t79 -27.5z" />
<glyph unicode="&#x153;" horiz-adv-x="709" d="M670 225q0 -11 -6 -17.5t-14 -6.5h-233q-8 0 -13 -3.5t-5 -11.5v-31q0 -38 27 -64.5t69 -26.5q51 0 84 42q7 8 12 14.5t16 -1.5l40 -25q11 -7 7 -16q-8 -13 -16 -23t-18 -18q-25 -23 -57.5 -33t-65.5 -10q-39 0 -70.5 10.5t-54.5 30.5q-11 9 -14.5 8.5t-13.5 -8.5 q-23 -20 -54.5 -30.5t-69.5 -10.5q-81 0 -128.5 43.5t-47.5 124.5v115q0 81 48 124.5t127 43.5q80 0 127 -44q11 -9 15 -8t14 9q48 43 119 43q39 0 71.5 -12.5t55.5 -35.5t36 -55t13 -70v-47zM589 285q0 38 -26 64.5t-68 26.5t-68 -27t-26 -65q0 -9 2.5 -14t12.5 -5h163 q10 0 10 11v9zM315 277q0 43 -25.5 70.5t-69.5 27.5t-70 -27t-26 -71v-115q0 -43 25.5 -71t69.5 -28t70 27.5t26 71.5v115z" />
<glyph unicode="&#x154;" horiz-adv-x="483" d="M437 444q0 -26 -8 -51t-21.5 -47.5t-30 -41t-32.5 -32.5q-5 -3 -3 -7q1 -2 3.5 -7.5t13.5 -29t33.5 -71.5t63.5 -135q6 -13 0.5 -17.5t-11.5 -4.5h-52q-16 0 -21.5 5t-10.5 15l-102 225q-2 4 -5 6.5t-10 2.5h-88q-8 0 -8 -9v-233q0 -12 -12 -12h-60q-12 0 -12 11v595 q0 11 12 11h176q94 0 139.5 -47t45.5 -126zM156 545q-9 0 -9 -8v-203q0 -9 8 -9h122q5 0 9 1.5t7 3.5q27 19 43 50t16 55q0 19 -4.5 39t-17 35.5t-34 25.5t-55.5 10h-85zM215 646q-5 -2 -11 -1.5t-10 5.5l-13 18q-8 10 3 18l116 92q5 4 11 5t11 -4l30 -44q6 -8 3 -13t-8 -7z " />
<glyph unicode="&#x155;" horiz-adv-x="291" d="M120 438q10 0 10 -9v-47q0 -5 3.5 -6.5t7.5 3.5q17 24 47 44.5t70 20.5q6 0 15 -0.5t12 -2.5q8 -2 9.5 -5.5t-0.5 -9.5l-12 -59q-2 -8 -5.5 -9.5t-7.5 -0.5q-15 3 -29 3q-56 0 -78 -32.5t-22 -80.5v-237q0 -10 -9 -10h-62q-10 0 -10 9v419q0 10 9 10h52zM158 490 q-3 -4 -9 -6t-12 2l-19 12q-9 7 -3 18l75 127q3 5 7.5 9.5t12.5 -0.5l44 -29q8 -6 7 -12t-4 -10z" />
<glyph unicode="&#x156;" horiz-adv-x="483" d="M437 444q0 -26 -8 -51t-21.5 -47.5t-30 -41t-32.5 -32.5q-5 -3 -3 -7q1 -2 3.5 -7.5t13.5 -29t33.5 -71.5t63.5 -135q6 -13 0.5 -17.5t-11.5 -4.5h-52q-16 0 -21.5 5t-10.5 15l-102 225q-2 4 -5 6.5t-10 2.5h-88q-8 0 -8 -9v-233q0 -12 -12 -12h-60q-12 0 -12 11v595 q0 11 12 11h176q94 0 139.5 -47t45.5 -126zM156 545q-9 0 -9 -8v-203q0 -9 8 -9h122q5 0 9 1.5t7 3.5q27 19 43 50t16 55q0 19 -4.5 39t-17 35.5t-34 25.5t-55.5 10h-85zM240 -217q-5 -12 -15 -12h-27q-7 0 -9.5 5.5t-1.5 11.5l10 157q2 16 15 16h62q19 0 13 -20z" />
<glyph unicode="&#x157;" horiz-adv-x="291" d="M120 438q10 0 10 -9v-47q0 -5 3.5 -6.5t7.5 3.5q17 24 47 44.5t70 20.5q6 0 15 -0.5t12 -2.5q8 -2 9.5 -5.5t-0.5 -9.5l-12 -59q-2 -8 -5.5 -9.5t-7.5 -0.5q-15 3 -29 3q-56 0 -78 -32.5t-22 -80.5v-237q0 -10 -9 -10h-62q-10 0 -10 9v419q0 10 9 10h52zM102 -217 q-5 -12 -15 -12h-27q-7 0 -9.5 5.5t-1.5 11.5l10 157q2 16 15 16h62q19 0 13 -20z" />
<glyph unicode="&#x158;" horiz-adv-x="483" d="M437 444q0 -26 -8 -51t-21.5 -47.5t-30 -41t-32.5 -32.5q-5 -3 -3 -7q1 -2 3.5 -7.5t13.5 -29t33.5 -71.5t63.5 -135q6 -13 0.5 -17.5t-11.5 -4.5h-52q-16 0 -21.5 5t-10.5 15l-102 225q-2 4 -5 6.5t-10 2.5h-88q-8 0 -8 -9v-233q0 -12 -12 -12h-60q-12 0 -12 11v595 q0 11 12 11h176q94 0 139.5 -47t45.5 -126zM156 545q-9 0 -9 -8v-203q0 -9 8 -9h122q5 0 9 1.5t7 3.5q27 19 43 50t16 55q0 19 -4.5 39t-17 35.5t-34 25.5t-55.5 10h-85zM79 752q-11 9 1 17l14 10q7 5 11.5 4t10.5 -5l91 -61q8 -7 15 0l88 61q5 4 10 5t12 -4l14 -10 q12 -8 1 -17l-96 -99q-5 -5 -9.5 -7t-12.5 -2h-32q-8 0 -12.5 2t-9.5 7z" />
<glyph unicode="&#x159;" horiz-adv-x="291" d="M120 438q10 0 10 -9v-47q0 -5 3.5 -6.5t7.5 3.5q17 24 47 44.5t70 20.5q6 0 15 -0.5t12 -2.5q8 -2 9.5 -5.5t-0.5 -9.5l-12 -59q-2 -8 -5.5 -9.5t-7.5 -0.5q-15 3 -29 3q-56 0 -78 -32.5t-22 -80.5v-237q0 -10 -9 -10h-62q-10 0 -10 9v419q0 10 9 10h52zM200 494 q-5 -5 -9.5 -8t-12.5 -3h-32q-8 0 -12.5 3t-9.5 8l-96 117q-5 5 -5.5 10.5t6.5 10.5l14 12q7 6 12 4.5t10 -6.5l88 -81q7 -7 15 1l91 80q6 5 10.5 6.5t11.5 -4.5l14 -12q7 -5 6.5 -10.5t-5.5 -10.5z" />
<glyph unicode="&#x15a;" horiz-adv-x="453" d="M207 68q57 0 93 25.5t36 76.5q0 25 -10.5 42.5t-27 29.5t-37 20.5t-40.5 15.5q-29 10 -61 23t-58.5 33t-44 49.5t-17.5 71.5q0 40 14 71.5t38.5 53.5t57.5 33.5t71 11.5q36 0 81 -9t88 -41q9 -7 6 -12.5t-5 -9.5l-24 -38q-5 -7 -12 -6t-13 5q-34 20 -60 28.5t-52 8.5 q-22 0 -41.5 -5t-34 -16.5t-23 -30t-8.5 -46.5q0 -20 10.5 -35t27.5 -26.5t38 -20.5t42 -17q33 -13 65 -26.5t57 -33.5t40.5 -49t15.5 -74q0 -41 -15.5 -73.5t-43.5 -55t-67 -35t-85 -12.5q-57 0 -106.5 19.5t-76.5 57.5q-9 10 4 20l37 34q6 5 10.5 2.5t11.5 -9.5 q23 -25 54 -38t65 -13zM208 653q-5 -2 -11 -1.5t-10 5.5l-13 18q-8 10 3 18l116 92q5 4 11 5t11 -4l30 -44q6 -8 3 -13t-8 -7z" />
<glyph unicode="&#x15b;" horiz-adv-x="392" d="M355 119q0 -25 -10.5 -47.5t-30.5 -39.5t-49.5 -27t-67.5 -10q-53 0 -98 24t-65 74q-3 8 4 11l51 23q5 2 7.5 0t4.5 -5q15 -29 41.5 -45.5t60.5 -16.5q32 0 53.5 16.5t21.5 39.5q0 24 -17 37t-46 24q-23 9 -52.5 19t-55.5 25.5t-43.5 39t-17.5 59.5q0 30 12.5 53 t33.5 38.5t48 23.5t57 8q42 1 80 -13.5t67 -45.5q7 -7 -3 -17l-27 -31q-10 -11 -23 1q-20 18 -45 28.5t-50 10.5q-33 0 -52.5 -13.5t-19.5 -36.5q0 -22 16.5 -35.5t45.5 -24.5t59 -22t54.5 -26.5t40 -39t15.5 -59.5zM200 490q-3 -4 -9 -6t-12 2l-19 12q-9 7 -3 18l75 127 q3 5 7.5 9.5t12.5 -0.5l44 -29q8 -6 7 -12t-4 -10z" />
<glyph unicode="&#x15c;" horiz-adv-x="453" d="M207 68q57 0 93 25.5t36 76.5q0 25 -10.5 42.5t-27 29.5t-37 20.5t-40.5 15.5q-29 10 -61 23t-58.5 33t-44 49.5t-17.5 71.5q0 40 14 71.5t38.5 53.5t57.5 33.5t71 11.5q36 0 81 -9t88 -41q9 -7 6 -12.5t-5 -9.5l-24 -38q-5 -7 -12 -6t-13 5q-34 20 -60 28.5t-52 8.5 q-22 0 -41.5 -5t-34 -16.5t-23 -30t-8.5 -46.5q0 -20 10.5 -35t27.5 -26.5t38 -20.5t42 -17q33 -13 65 -26.5t57 -33.5t40.5 -49t15.5 -74q0 -41 -15.5 -73.5t-43.5 -55t-67 -35t-85 -12.5q-57 0 -106.5 19.5t-76.5 57.5q-9 10 4 20l37 34q6 5 10.5 2.5t11.5 -9.5 q23 -25 54 -38t65 -13zM181 774q5 5 9.5 7t12.5 2h32q8 0 12.5 -2t9.5 -7l96 -99q11 -9 -1 -17l-14 -10q-7 -5 -12 -4t-10 5l-88 61q-7 7 -15 0l-91 -61q-6 -4 -10.5 -5t-11.5 4l-14 10q-12 8 -1 17z" />
<glyph unicode="&#x15d;" horiz-adv-x="392" d="M355 119q0 -25 -10.5 -47.5t-30.5 -39.5t-49.5 -27t-67.5 -10q-53 0 -98 24t-65 74q-3 8 4 11l51 23q5 2 7.5 0t4.5 -5q15 -29 41.5 -45.5t60.5 -16.5q32 0 53.5 16.5t21.5 39.5q0 24 -17 37t-46 24q-23 9 -52.5 19t-55.5 25.5t-43.5 39t-17.5 59.5q0 30 12.5 53 t33.5 38.5t48 23.5t57 8q42 1 80 -13.5t67 -45.5q7 -7 -3 -17l-27 -31q-10 -11 -23 1q-20 18 -45 28.5t-50 10.5q-33 0 -52.5 -13.5t-19.5 -36.5q0 -22 16.5 -35.5t45.5 -24.5t59 -22t54.5 -26.5t40 -39t15.5 -59.5zM332 526q5 -5 5.5 -10.5t-6.5 -10.5l-14 -12 q-7 -6 -11.5 -4.5t-10.5 6.5l-91 80q-8 8 -15 1l-88 -81q-5 -5 -10 -6.5t-12 4.5l-14 12q-7 5 -6.5 10.5t5.5 10.5l96 117q5 5 9.5 8t12.5 3h32q8 0 12.5 -3t9.5 -8z" />
<glyph unicode="&#x15e;" horiz-adv-x="453" d="M323 -126q0 -29 -24.5 -53t-67.5 -24q-26 0 -44 5.5t-35 16.5q-8 6 -1 15l16 21q6 6 12 3q11 -6 22.5 -11t27.5 -5q20 0 31 8.5t11 22.5q0 4 -1 9.5t-5 10.5t-11.5 9t-20.5 4h-27q-19 0 -26 11t-3 26q4 17 7 29t7 24q-53 2 -97 21.5t-69 54.5q-9 10 4 20l37 34 q6 5 10.5 2.5t11.5 -9.5q23 -25 54 -38t65 -13q57 0 93 25.5t36 76.5q0 25 -10.5 42.5t-27 29.5t-37 20.5t-40.5 15.5q-29 10 -61 23t-58.5 33t-44 49.5t-17.5 71.5q0 40 14 71.5t38.5 53.5t57.5 33.5t71 11.5q36 0 81 -9t88 -41q9 -7 6 -12.5t-5 -9.5l-24 -38q-5 -7 -12 -6 t-13 5q-34 20 -60 28.5t-52 8.5q-22 0 -41.5 -5t-34 -16.5t-23 -30t-8.5 -46.5q0 -20 10.5 -35t27.5 -26.5t38 -20.5t42 -17q33 -13 65 -26.5t57 -33.5t40.5 -49t15.5 -74q0 -75 -50 -121t-131 -53l-9 -36q-4 -11 7 -11h11q35 0 55.5 -20.5t20.5 -55.5z" />
<glyph unicode="&#x15f;" horiz-adv-x="392" d="M296 -126q0 -29 -24.5 -53t-67.5 -24q-26 0 -44 5.5t-35 16.5q-8 6 -1 15l16 21q6 6 12 3q11 -6 22.5 -11t27.5 -5q20 0 31 8.5t11 22.5q0 4 -1 9.5t-5 10.5t-11.5 9t-20.5 4h-27q-19 0 -26 11t-3 26q4 17 7.5 29.5t6.5 24.5q-44 6 -78.5 30t-51.5 66q-3 8 4 11l51 23 q5 2 7.5 0t4.5 -5q15 -29 41.5 -45.5t60.5 -16.5q32 0 53.5 16.5t21.5 39.5q0 24 -17 37t-46 24q-23 9 -52.5 19t-55.5 25.5t-43.5 39t-17.5 59.5q0 30 12.5 53t33.5 38.5t48 23.5t57 8q42 1 80 -13.5t67 -45.5q7 -7 -3 -17l-27 -31q-10 -11 -23 1q-20 18 -45 28.5t-50 10.5 q-33 0 -52.5 -13.5t-19.5 -36.5q0 -22 16.5 -35.5t45.5 -24.5t59 -22t54.5 -26.5t40 -39t15.5 -59.5q0 -48 -37.5 -84t-106.5 -39l-9 -35q-4 -11 7 -11h11q35 0 55.5 -20.5t20.5 -55.5z" />
<glyph unicode="&#x160;" horiz-adv-x="453" d="M207 68q57 0 93 25.5t36 76.5q0 25 -10.5 42.5t-27 29.5t-37 20.5t-40.5 15.5q-29 10 -61 23t-58.5 33t-44 49.5t-17.5 71.5q0 40 14 71.5t38.5 53.5t57.5 33.5t71 11.5q36 0 81 -9t88 -41q9 -7 6 -12.5t-5 -9.5l-24 -38q-5 -7 -12 -6t-13 5q-34 20 -60 28.5t-52 8.5 q-22 0 -41.5 -5t-34 -16.5t-23 -30t-8.5 -46.5q0 -20 10.5 -35t27.5 -26.5t38 -20.5t42 -17q33 -13 65 -26.5t57 -33.5t40.5 -49t15.5 -74q0 -41 -15.5 -73.5t-43.5 -55t-67 -35t-85 -12.5q-57 0 -106.5 19.5t-76.5 57.5q-9 10 4 20l37 34q6 5 10.5 2.5t11.5 -9.5 q23 -25 54 -38t65 -13zM77 752q-11 9 1 17l14 10q7 5 11.5 4t10.5 -5l91 -61q8 -7 15 0l88 61q5 4 10 5t12 -4l14 -10q12 -8 1 -17l-96 -99q-5 -5 -9.5 -7t-12.5 -2h-32q-8 0 -12.5 2t-9.5 7z" />
<glyph unicode="&#x161;" horiz-adv-x="392" d="M355 119q0 -25 -10.5 -47.5t-30.5 -39.5t-49.5 -27t-67.5 -10q-53 0 -98 24t-65 74q-3 8 4 11l51 23q5 2 7.5 0t4.5 -5q15 -29 41.5 -45.5t60.5 -16.5q32 0 53.5 16.5t21.5 39.5q0 24 -17 37t-46 24q-23 9 -52.5 19t-55.5 25.5t-43.5 39t-17.5 59.5q0 30 12.5 53 t33.5 38.5t48 23.5t57 8q42 1 80 -13.5t67 -45.5q7 -7 -3 -17l-27 -31q-10 -11 -23 1q-20 18 -45 28.5t-50 10.5q-33 0 -52.5 -13.5t-19.5 -36.5q0 -22 16.5 -35.5t45.5 -24.5t59 -22t54.5 -26.5t40 -39t15.5 -59.5zM235 494q-5 -5 -9.5 -8t-12.5 -3h-32q-8 0 -12.5 3 t-9.5 8l-96 117q-5 5 -5.5 10.5t6.5 10.5l14 12q7 6 12 4.5t10 -6.5l88 -81q7 -7 15 1l91 80q6 5 10.5 6.5t11.5 -4.5l14 -12q7 -5 6.5 -10.5t-5.5 -10.5z" />
<glyph unicode="&#x162;" horiz-adv-x="417" d="M402 556q0 -11 -12 -11h-132q-9 0 -9 -8v-525q0 -12 -11 -12h-61q-12 0 -12 11v525q0 9 -8 9h-130q-12 0 -12 11v50q0 11 12 11h363q12 0 12 -10v-51zM205 -217q-5 -12 -15 -12h-27q-7 0 -9.5 5.5t-1.5 11.5l10 157q2 16 15 16h62q19 0 13 -20z" />
<glyph unicode="&#x163;" horiz-adv-x="305" d="M197 -6q-33 0 -56 9t-36.5 25t-19.5 38t-6 49v245q0 10 -11 10h-41q-10 0 -10 9v49q0 10 8 10h42q12 0 12 12v84q0 8 9 11l58 14q6 2 9 -1t3 -8v-102q0 -10 10 -10h92q10 0 10 -9v-49q0 -10 -10 -10h-91q-11 0 -11 -10v-228q0 -29 10 -46t40 -17q17 0 32.5 2t26.5 4 t14.5 -1.5t4.5 -9.5l8 -41q2 -8 0 -11t-10 -6q-15 -7 -41 -9.5t-46 -2.5zM138 -217q-5 -12 -15 -12h-27q-7 0 -9.5 5.5t-1.5 11.5l10 157q2 16 15 16h62q19 0 13 -20z" />
<glyph unicode="&#x164;" horiz-adv-x="417" d="M402 556q0 -11 -12 -11h-132q-9 0 -9 -8v-525q0 -12 -11 -12h-61q-12 0 -12 11v525q0 9 -8 9h-130q-12 0 -12 11v50q0 11 12 11h363q12 0 12 -10v-51zM71 752q-11 9 1 17l14 10q7 5 11.5 4t10.5 -5l91 -61q8 -7 15 0l88 61q5 4 10 5t12 -4l14 -10q12 -8 1 -17l-96 -99 q-5 -5 -9.5 -7t-12.5 -2h-32q-8 0 -12.5 2t-9.5 7z" />
<glyph unicode="&#x165;" horiz-adv-x="374" d="M327 506q-5 -12 -15 -12h-27q-7 0 -9.5 5.5t-1.5 11.5l10 157q2 16 15 16h62q19 0 13 -20zM217 -6q-33 0 -56 9t-36.5 25t-19.5 38t-6 49v245q0 10 -11 10h-41q-10 0 -10 9v49q0 10 8 10h42q12 0 12 12v84q0 8 9 11l58 14q6 2 9 -1t3 -8v-102q0 -10 10 -10h92q10 0 10 -9 v-49q0 -10 -10 -10h-91q-11 0 -11 -10v-228q0 -29 10 -46t40 -17q17 0 32.5 2t26.5 4t14.5 -1.5t4.5 -9.5l8 -41q2 -8 0 -11t-10 -6q-15 -7 -41 -9.5t-46 -2.5z" />
<glyph unicode="&#x166;" horiz-adv-x="404" d="M149 364q10 0 10 13v159q0 9 -8 9h-120q-12 0 -12 11v50q0 11 12 11h342q12 0 12 -10v-51q0 -11 -12 -11h-121q-9 0 -9 -8v-160q0 -13 10 -13h90q12 0 12 -11v-30q0 -12 -11 -12h-93q-8 0 -8 -12v-287q0 -12 -11 -12h-61q-12 0 -12 11v288q0 12 -8 12h-93q-11 0 -11 12 v30q0 11 12 11h90z" />
<glyph unicode="&#x167;" horiz-adv-x="314" d="M99 220q0 10 -11 10h-51q-10 0 -10 9v33q0 10 8 10h52q12 0 12 12v66q0 10 -11 10h-51q-10 0 -10 9v49q0 10 8 10h52q12 0 12 12v84q0 8 9 11l58 14q6 2 9 -1t3 -8v-102q0 -10 10 -10h92q10 0 10 -9v-49q0 -10 -10 -10h-91q-11 0 -11 -10v-68q0 -10 10 -10h92q10 0 10 -9 v-33q0 -10 -10 -10h-91q-11 0 -11 -10v-88q0 -29 10 -46t40 -17q10 0 29 2.5t30 4.5t14.5 -1.5t4.5 -9.5l8 -42q2 -8 0 -11t-10 -6q-15 -7 -41 -9.5t-46 -2.5q-33 0 -56 9t-36.5 25t-19.5 38t-6 49v105v0z" />
<glyph unicode="&#x168;" horiz-adv-x="498" d="M440 160q0 -40 -15.5 -71t-42 -52t-61 -32t-72.5 -11t-73 11t-61 32t-41.5 52t-15.5 71v446q0 11 11 11h62q11 0 11 -10v-447q0 -41 30.5 -67t75.5 -26q50 0 79 27t29 69v443q0 11 12 11h60q12 0 12 -10v-447zM379 722q-16 -34 -37.5 -48.5t-40.5 -14.5q-16 0 -30.5 5.5 t-27.5 12t-25.5 12t-25.5 5.5q-8 0 -18.5 -9.5t-17.5 -21.5q-6 -10 -17 -4l-27 16q-5 2 -4 7t3 9q13 25 33 44t45 19q15 0 29.5 -6t28 -12.5t26.5 -12.5t24 -6t20 10.5t16 22.5q2 3 4 5t7 -1l32 -15q9 -3 3 -17z" />
<glyph unicode="&#x169;" horiz-adv-x="459" d="M401 10q0 -10 -10 -10h-57q-10 0 -10 9v15q0 7 -4.5 8.5t-9.5 -3.5q-19 -17 -48 -26t-55 -9q-75 0 -117 45t-42 122v267q0 10 9 10h62q9 0 9 -9v-268q0 -42 24 -70t72 -28q44 0 70 27.5t26 70.5v267q0 10 9 10h62q10 0 10 -9v-419zM358 572q-16 -34 -37.5 -48.5 t-40.5 -14.5q-16 0 -30.5 5.5t-27.5 12t-25.5 12t-25.5 5.5q-8 0 -18.5 -9.5t-17.5 -21.5q-6 -10 -17 -4l-27 16q-5 2 -4 7t3 9q13 25 33 44t45 19q15 0 29.5 -6t28 -12.5t26.5 -12.5t24 -6t20 10.5t16 22.5q2 3 4 5t7 -1l32 -15q9 -3 3 -17z" />
<glyph unicode="&#x16a;" horiz-adv-x="498" d="M440 160q0 -40 -15.5 -71t-42 -52t-61 -32t-72.5 -11t-73 11t-61 32t-41.5 52t-15.5 71v446q0 11 11 11h62q11 0 11 -10v-447q0 -41 30.5 -67t75.5 -26q50 0 79 27t29 69v443q0 11 12 11h60q12 0 12 -10v-447zM365 683q0 -10 -9 -10h-213q-10 0 -10 10v41q0 10 9 10h213 q10 0 10 -9v-42z" />
<glyph unicode="&#x16b;" horiz-adv-x="459" d="M401 10q0 -10 -10 -10h-57q-10 0 -10 9v15q0 7 -4.5 8.5t-9.5 -3.5q-19 -17 -48 -26t-55 -9q-75 0 -117 45t-42 122v267q0 10 9 10h62q9 0 9 -9v-268q0 -42 24 -70t72 -28q44 0 70 27.5t26 70.5v267q0 10 9 10h62q10 0 10 -9v-419zM344 525q0 -10 -9 -10h-213 q-10 0 -10 10v41q0 10 9 10h213q10 0 10 -9v-42z" />
<glyph unicode="&#x16c;" horiz-adv-x="498" d="M440 160q0 -40 -15.5 -71t-42 -52t-61 -32t-72.5 -11t-73 11t-61 32t-41.5 52t-15.5 71v446q0 11 11 11h62q11 0 11 -10v-447q0 -41 30.5 -67t75.5 -26q50 0 79 27t29 69v443q0 11 12 11h60q12 0 12 -10v-447zM128 764q0 5 2 8t10 3h21q8 0 10 -3t4 -10q9 -29 24.5 -44 t44.5 -15q54 0 69 59q2 7 3.5 10t10.5 3h21q8 0 10 -3t2 -8q-1 -25 -10 -47.5t-24 -39t-36 -26t-47 -9.5q-24 0 -44.5 9.5t-36 26t-24.5 39t-10 47.5z" />
<glyph unicode="&#x16d;" horiz-adv-x="459" d="M401 10q0 -10 -10 -10h-57q-10 0 -10 9v15q0 7 -4.5 8.5t-9.5 -3.5q-19 -17 -48 -26t-55 -9q-75 0 -117 45t-42 122v267q0 10 9 10h62q9 0 9 -9v-268q0 -42 24 -70t72 -28q44 0 70 27.5t26 70.5v267q0 10 9 10h62q10 0 10 -9v-419zM111 614q0 5 2 8t10 3h21q8 0 10 -3 t4 -10q9 -29 24.5 -44t44.5 -15q54 0 69 59q2 7 3.5 10t10.5 3h21q8 0 10 -3t2 -8q-1 -25 -10 -47.5t-24 -39t-36 -26t-47 -9.5q-24 0 -44.5 9.5t-36 26t-24.5 39t-10 47.5z" />
<glyph unicode="&#x16e;" horiz-adv-x="498" d="M440 160q0 -40 -15.5 -71t-42 -52t-61 -32t-72.5 -11t-73 11t-61 32t-41.5 52t-15.5 71v446q0 11 11 11h62q11 0 11 -10v-447q0 -41 30.5 -67t75.5 -26q50 0 79 27t29 69v443q0 11 12 11h60q12 0 12 -10v-447zM333 725q0 -17 -6.5 -32.5t-18.5 -27t-27.5 -18.5t-33.5 -7 t-33.5 6.5t-27 17.5t-18.5 26.5t-7 32.5t6.5 32.5t18.5 27.5t27.5 19t33.5 7q35 0 60.5 -24.5t25.5 -59.5zM290 724q0 17 -13 30.5t-30 13.5t-29 -13t-12 -31t12 -30.5t29 -12.5t30 12.5t13 30.5z" />
<glyph unicode="&#x16f;" horiz-adv-x="459" d="M401 10q0 -10 -10 -10h-57q-10 0 -10 9v15q0 7 -4.5 8.5t-9.5 -3.5q-19 -17 -48 -26t-55 -9q-75 0 -117 45t-42 122v267q0 10 9 10h62q9 0 9 -9v-268q0 -42 24 -70t72 -28q44 0 70 27.5t26 70.5v267q0 10 9 10h62q10 0 10 -9v-419zM311 563q0 -17 -6.5 -32.5t-18.5 -27 t-27.5 -18.5t-33.5 -7t-33.5 6.5t-27 17.5t-18.5 26.5t-7 32.5t6.5 32.5t18.5 27.5t27.5 19t33.5 7q35 0 60.5 -24.5t25.5 -59.5zM268 562q0 17 -13 30.5t-30 13.5t-29 -13t-12 -31t12 -30.5t29 -12.5t30 12.5t13 30.5z" />
<glyph unicode="&#x170;" horiz-adv-x="498" d="M440 160q0 -40 -15.5 -71t-42 -52t-61 -32t-72.5 -11t-73 11t-61 32t-41.5 52t-15.5 71v446q0 11 11 11h62q11 0 11 -10v-447q0 -41 30.5 -67t75.5 -26q50 0 79 27t29 69v443q0 11 12 11h60q12 0 12 -10v-447zM304 641q-5 -2 -11 -1.5t-10 5.5l-13 18q-8 10 3 18l116 92 q5 4 11 5t11 -4l30 -44q6 -8 3 -13t-8 -7zM152 641q-5 -2 -11 -1.5t-10 5.5l-13 18q-8 10 3 18l116 92q5 4 11 5t11 -4l30 -44q6 -8 3 -13t-8 -7z" />
<glyph unicode="&#x171;" horiz-adv-x="459" d="M401 10q0 -10 -10 -10h-57q-10 0 -10 9v15q0 7 -4.5 8.5t-9.5 -3.5q-19 -17 -48 -26t-55 -9q-75 0 -117 45t-42 122v267q0 10 9 10h62q9 0 9 -9v-268q0 -42 24 -70t72 -28q44 0 70 27.5t26 70.5v267q0 10 9 10h62q10 0 10 -9v-419zM179 490q-4 -4 -10 -6t-11 2l-19 12 q-11 7 -4 18l76 127q3 5 8.5 9t11.5 0l44 -29q8 -6 7 -12t-5 -10zM299 490q-4 -4 -10 -6t-11 2l-19 12q-11 7 -4 18l76 127q3 5 8.5 9t11.5 0l44 -29q8 -6 7 -12t-5 -10z" />
<glyph unicode="&#x172;" horiz-adv-x="498" d="M440 160q0 -36 -13 -65t-35.5 -50t-52.5 -33.5t-64 -15.5q-18 -22 -29.5 -49.5t-11.5 -52.5q0 -13 6.5 -22t26.5 -9q14 0 29.5 7.5t30.5 15.5q6 3 9 -1l16 -22q2 -2 2 -4q0 -3 -3 -6q-15 -14 -42.5 -27t-55.5 -13q-45 0 -62 21t-17 52q0 26 14 56.5t34 53.5 q-34 3 -63.5 15.5t-52 33t-35.5 49.5t-13 66v446q0 11 11 11h62q11 0 11 -10v-447q0 -41 30.5 -67t75.5 -26q50 0 79 27t29 69v443q0 11 12 11h60q12 0 12 -10v-447v0z" />
<glyph unicode="&#x173;" horiz-adv-x="459" d="M324 13v11q0 7 -4.5 8.5t-9.5 -3.5q-19 -17 -48 -26t-55 -9q-75 0 -117 45t-42 122v267q0 10 9 10h62q9 0 9 -9v-268q0 -42 24 -70t72 -28q44 0 70 27.5t26 70.5v267q0 10 9 10h62q10 0 10 -9v-419q0 -10 -10 -10h-28q-20 -22 -32.5 -51t-12.5 -55q0 -13 6.5 -22t26.5 -9 q14 0 29.5 7.5t30.5 15.5q6 3 9 -1l16 -22q2 -2 2 -4q0 -3 -3 -6q-15 -14 -42.5 -27t-55.5 -13q-45 0 -62 21t-17 52q0 15 5 32.5t14 34.5t20.5 32t24.5 26z" />
<glyph unicode="&#x174;" horiz-adv-x="666" d="M523 9q-2 -3 -5 -6t-6 -3h-74q-9 0 -11 8l-69 328l-23 121q0 2 -2 0l-23 -123l-65 -327q-3 -7 -12 -7h-72q-9 0 -12 6l-140 597q-1 5 1.5 9.5t10.5 4.5h65q8 0 9.5 -4t2.5 -9l69 -318l29 -148q2 -5 5 0q6 35 13 71.5t13 71.5l66 329q1 2 3.5 4.5t10.5 2.5h57q11 0 14 -10 l69 -325l28 -144q0 -3 2 -2.5t3 2.5l28 147l67 322q2 10 13 10h59q11 0 13 -5.5t0 -11.5zM290 774q5 5 9.5 7t12.5 2h32q8 0 12.5 -2t9.5 -7l96 -99q11 -9 -1 -17l-14 -10q-7 -5 -12 -4t-10 5l-88 61q-7 7 -15 0l-91 -61q-6 -4 -10.5 -5t-11.5 4l-14 10q-12 8 -1 17z" />
<glyph unicode="&#x175;" horiz-adv-x="604" d="M474 14q-4 -14 -16 -14h-45q-8 0 -12 1.5t-6 9.5l-64 204l-31 113q-4 7 -6 0l-32 -121l-60 -196q-2 -8 -6.5 -9.5t-11.5 -1.5h-45q-7 0 -11.5 2.5t-6.5 10.5l-111 412q-5 14 8 14h62q14 0 17 -13l37 -165l29 -138q1 -4 3.5 -4t3.5 4l38 134l51 166q2 8 6 12t12 4h45 q5 0 10 -2t8 -13l61 -198l29 -103q1 -3 3.5 -3.5t3.5 3.5l19 96l45 206q2 6 5.5 10t12.5 4h59q12 0 9 -13zM431 526q5 -5 5.5 -10.5t-6.5 -10.5l-14 -12q-7 -6 -11.5 -4.5t-10.5 6.5l-91 80q-8 8 -15 1l-88 -81q-5 -5 -10 -6.5t-12 4.5l-14 12q-7 5 -6.5 10.5t5.5 10.5 l96 117q5 5 9.5 8t12.5 3h32q8 0 12.5 -3t9.5 -8z" />
<glyph unicode="&#x176;" horiz-adv-x="435" d="M264 245q-5 -11 -5 -24v-209q0 -12 -12 -12h-60q-12 0 -12 11v212q0 12 -4 20l-154 357q-7 17 10 17h57q16 0 21 -11l108 -274q5 -8 9 -1q27 68 54 136.5t53 136.5q4 8 8 10.5t15 2.5h55q11 0 12.5 -4.5t-1.5 -11.5zM174 774q5 5 9.5 7t12.5 2h32q8 0 12.5 -2t9.5 -7 l96 -99q11 -9 -1 -17l-14 -10q-7 -5 -12 -4t-10 5l-88 61q-7 7 -15 0l-91 -61q-6 -4 -10.5 -5t-11.5 4l-14 10q-12 8 -1 17z" />
<glyph unicode="&#x177;" horiz-adv-x="412" d="M187 87q2 -8 6 -9.5t8 9.5l110 333q2 6 6.5 12.5t16.5 6.5h47q10 0 12.5 -5.5t0.5 -13.5l-193 -582q-2 -7 -9.5 -14t-21.5 -7h-37q-22 0 -14 26l47 142q2 5 2.5 10t-7.5 5h-10q-19 0 -24 20l-110 401q-2 8 0 13t11 5h53q10 0 15 -4.5t7 -10.5zM342 526q5 -5 5.5 -10.5 t-6.5 -10.5l-14 -12q-7 -6 -11.5 -4.5t-10.5 6.5l-91 80q-8 8 -15 1l-88 -81q-5 -5 -10 -6.5t-12 4.5l-14 12q-7 5 -6.5 10.5t5.5 10.5l96 117q5 5 9.5 8t12.5 3h32q8 0 12.5 -3t9.5 -8z" />
<glyph unicode="&#x178;" horiz-adv-x="435" d="M264 245q-5 -11 -5 -24v-209q0 -12 -12 -12h-60q-12 0 -12 11v212q0 12 -4 20l-154 357q-7 17 10 17h57q16 0 21 -11l108 -274q5 -8 9 -1q27 68 54 136.5t53 136.5q4 8 8 10.5t15 2.5h55q11 0 12.5 -4.5t-1.5 -11.5zM342 700q0 -20 -13 -33.5t-33 -13.5t-34 13.5 t-14 33.5t13.5 33.5t33.5 13.5t33.5 -13.5t13.5 -33.5zM180 700q0 -20 -13.5 -33.5t-33.5 -13.5t-33.5 13.5t-13.5 33.5t13.5 33.5t33.5 13.5t33.5 -13.5t13.5 -33.5z" />
<glyph unicode="&#x179;" horiz-adv-x="420" d="M390 12q0 -12 -12 -12h-325q-10 0 -14.5 5t-4.5 11v32q0 14 7 28l239 457q7 12 -7 12h-212q-12 0 -12 11v50q0 11 12 11h301q13 0 17.5 -4.5t4.5 -13.5v-29q0 -10 -4.5 -22t-8.5 -19l-231 -444q-7 -12 6 -12h232q5 0 8.5 -3t3.5 -8v-50zM177 646q-5 -2 -11 -1.5t-10 5.5 l-13 18q-8 10 3 18l116 92q5 4 11 5t11 -4l30 -44q6 -8 3 -13t-8 -7z" />
<glyph unicode="&#x17a;" horiz-adv-x="402" d="M367 10q0 -10 -9 -10h-306q-8 0 -12 4.5t-4 9.5v27q0 6 1 13t6 13l194 289q5 6 2 10.5t-11 4.5h-172q-10 0 -10 9v48q0 10 9 10h275q20 0 20 -17v-28q0 -7 -2 -14.5t-4 -11.5l-192 -284q-8 -15 9 -15h196q10 0 10 -10v-48zM196 490q-3 -4 -9 -6t-12 2l-19 12q-9 7 -3 18 l75 127q3 5 7.5 9.5t12.5 -0.5l44 -29q8 -6 7 -12t-4 -10z" />
<glyph unicode="&#x17b;" horiz-adv-x="420" d="M390 12q0 -12 -12 -12h-325q-10 0 -14.5 5t-4.5 11v32q0 14 7 28l239 457q7 12 -7 12h-212q-12 0 -12 11v50q0 11 12 11h301q13 0 17.5 -4.5t4.5 -13.5v-29q0 -10 -4.5 -22t-8.5 -19l-231 -444q-7 -12 6 -12h232q5 0 8.5 -3t3.5 -8v-50zM270 709q0 -20 -13.5 -33.5 t-32.5 -13.5q-20 0 -34 13t-14 33t13.5 33.5t33.5 13.5t33.5 -13.5t13.5 -32.5z" />
<glyph unicode="&#x17c;" horiz-adv-x="402" d="M367 10q0 -10 -9 -10h-306q-8 0 -12 4.5t-4 9.5v27q0 6 1 13t6 13l194 289q5 6 2 10.5t-11 4.5h-172q-10 0 -10 9v48q0 10 9 10h275q20 0 20 -17v-28q0 -7 -2 -14.5t-4 -11.5l-192 -284q-8 -15 9 -15h196q10 0 10 -10v-48zM268 553q0 -20 -13.5 -33.5t-32.5 -13.5 q-20 0 -34 13t-14 33t13.5 33.5t33.5 13.5t33.5 -13.5t13.5 -32.5z" />
<glyph unicode="&#x17d;" horiz-adv-x="420" d="M390 12q0 -12 -12 -12h-325q-10 0 -14.5 5t-4.5 11v32q0 14 7 28l239 457q7 12 -7 12h-212q-12 0 -12 11v50q0 11 12 11h301q13 0 17.5 -4.5t4.5 -13.5v-29q0 -10 -4.5 -22t-8.5 -19l-231 -444q-7 -12 6 -12h232q5 0 8.5 -3t3.5 -8v-50zM80 755q-11 9 1 17l14 10 q7 5 11.5 4t10.5 -5l91 -61q8 -7 15 0l88 61q5 4 10 5t12 -4l14 -10q12 -8 1 -17l-96 -99q-5 -5 -9.5 -7t-12.5 -2h-32q-8 0 -12.5 2t-9.5 7z" />
<glyph unicode="&#x17e;" horiz-adv-x="402" d="M367 10q0 -10 -9 -10h-306q-8 0 -12 4.5t-4 9.5v27q0 6 1 13t6 13l194 289q5 6 2 10.5t-11 4.5h-172q-10 0 -10 9v48q0 10 9 10h275q20 0 20 -17v-28q0 -7 -2 -14.5t-4 -11.5l-192 -284q-8 -15 9 -15h196q10 0 10 -10v-48zM237 494q-5 -5 -9.5 -8t-12.5 -3h-32 q-8 0 -12.5 3t-9.5 8l-96 117q-5 5 -5.5 10.5t6.5 10.5l14 12q7 6 12 4.5t10 -6.5l88 -81q7 -7 15 1l91 80q6 5 10.5 6.5t11.5 -4.5l14 -12q7 -5 6.5 -10.5t-5.5 -10.5z" />
<glyph unicode="&#x192;" horiz-adv-x="475" d="M385 628q17 0 34 -3.5t27 -7.5q8 -3 11.5 -6t0.5 -11l-20 -51q-3 -8 -6 -9t-14 3q-35 13 -62.5 -0.5t-34.5 -57.5l-17 -110q-2 -8 7 -8h68q13 0 13 -11v-46q0 -11 -12 -11h-78q-8 0 -11 -3.5t-3 -7.5l-33 -222q-7 -48 -22 -80.5t-35.5 -52.5t-44.5 -29t-50 -9 q-17 0 -34 3.5t-27 7.5q-8 3 -11.5 6t-0.5 11l20 51q3 8 6 8.5t14 -2.5q38 -11 64.5 2.5t34.5 58.5l39 246q1 5 0 8.5t-6 3.5h-60q-13 0 -13 11v46q2 11 14 11h68q11 0 11 9l17 103q7 43 21 71.5t33.5 45.5t42.5 24.5t49 7.5z" />
<glyph unicode="&#x1fc;" horiz-adv-x="729" d="M699 12q0 -12 -12 -12h-326q-12 0 -12 11v126q0 5 -1.5 9t-9.5 4h-181q-4 0 -4.5 -1l-1.5 -3l-48 -136q-4 -10 -14 -10h-56q-9 0 -11 5.5t0 13.5l217 584q2 4 6 9t16 5h422q13 0 13 -11v-49q0 -12 -12 -12h-242q-9 0 -9 -8v-176q0 -8 8 -8h200q12 0 12 -12v-50 q0 -11 -11 -11h-200q-9 0 -9 -9v-189q0 -9 8 -9h246q12 0 12 -11v-50zM301 545q-8 0 -12 -9l-108 -305q-3 -7 4 -7h153q11 0 11 12v301q0 8 -9 8h-39zM437 646q-5 -2 -11 -1.5t-10 5.5l-13 18q-8 10 3 18l116 92q5 4 11 5t11 -4l30 -44q6 -8 3 -13t-8 -7z" />
<glyph unicode="&#x1fd;" horiz-adv-x="690" d="M651 225q0 -11 -6.5 -17.5t-13.5 -6.5h-234q-8 0 -13 -5t-5 -13v-19q0 -41 26 -70.5t70 -29.5q30 0 53 14.5t40 37.5q8 11 20 3l38 -25q12 -8 8 -16q-24 -44 -66 -64t-91 -20q-48 0 -85 16t-60 45q-20 -27 -55 -43.5t-79 -16.5q-33 0 -61.5 10t-50 29.5t-34 48 t-12.5 65.5q0 35 13 63.5t35 48.5t52 31t65 11q17 0 39.5 -6.5t36.5 -14.5q7 -5 12.5 -3t5.5 11v11q0 40 -28.5 58t-70.5 18q-19 0 -46.5 -7t-46.5 -17q-11 -5 -15 6l-17 44q-3 10 5 13q27 14 61 22t70 8q45 0 78.5 -12t53.5 -42q23 26 56.5 40t75.5 14q40 0 72.5 -12.5 t55.5 -35.5t35.5 -55t12.5 -70v-47zM292 149q0 37 -24 63.5t-64 26.5q-39 0 -64 -26t-25 -64q0 -37 21.5 -63.5t66.5 -26.5q21 0 37.5 7.5t28 20.5t17.5 29t6 33zM570 285q0 38 -26 64.5t-69 26.5q-42 0 -68 -27t-26 -65v-7q0 -4 3 -8t12 -4h164q10 0 10 11v9zM376 490 q-3 -4 -9 -6t-12 2l-19 12q-9 7 -3 18l75 127q3 5 7.5 9.5t12.5 -0.5l44 -29q8 -6 7 -12t-4 -10z" />
<glyph unicode="&#x1fe;" horiz-adv-x="497" d="M111 -3q-7 -10 -14 -5l-32 17q-7 4 -2 14l19 35q3 8 1 13q-11 17 -18 42t-7 52v290q0 40 15 71.5t40.5 53.5t60 33.5t74.5 11.5q65 0 113 -28q5 -4 11 2q3 6 7.5 13t7.5 13q5 8 14 4q8 -4 15.5 -8.5t15.5 -7.5q9 -5 4 -13q-5 -11 -11.5 -21t-11.5 -21q-2 -4 -1.5 -6.5 t1.5 -4.5q11 -18 18.5 -42t7.5 -50v-290q0 -41 -14.5 -72.5t-40 -53.5t-60 -33.5t-75.5 -11.5q-35 0 -63 6.5t-51 21.5q-2 2 -5.5 3t-5.5 -4zM355 446q0 2 -0.5 2.5t-0.5 -0.5l-185 -344q-3 -5 1 -11q29 -26 78 -26q50 0 78.5 27.5t28.5 72.5v279zM142 178q0 -2 1 -4t3 2 l179 333q2 4 3 8.5t-4 8.5q-29 26 -75 26q-49 0 -78 -28.5t-29 -70.5v-275zM242 653q-5 -2 -11 -1.5t-10 5.5l-13 18q-8 10 3 18l116 92q5 4 11 5t11 -4l30 -44q6 -8 3 -13t-8 -7z" />
<glyph unicode="&#x1ff;" horiz-adv-x="448" d="M83 5q-2 -3 -4 -4t-6 2l-24 18q-4 4 0 9l22 29q3 4 0 9q-23 38 -23 94v115q0 77 46.5 122.5t128.5 45.5q66 0 113 -33q2 -1 4.5 -2t5.5 3l18 22q2 2 4 3t6 -2l23 -19q5 -5 2 -10l-23 -28q-3 -4 -2.5 -5.5t1.5 -3.5q25 -39 25 -93v-114q0 -81 -47.5 -125t-128.5 -44 q-35 0 -64 8.5t-51 24.5q-2 1 -4.5 2t-6.5 -4zM320 277v10.5t-2 9.5q-2 5 -5 2l-154 -197q-5 -8 0 -16q11 -14 27.5 -18.5t36.5 -4.5q50 0 73 27.5t24 71.5v115zM128 162v-8t1 -8q1 -3 2.5 -5t3.5 1l153 198q5 6 2.5 9t-3.5 4q-13 10 -28.5 16t-34.5 6q-44 0 -70 -27 t-26 -71v-115zM233 490q-3 -4 -9 -6t-12 2l-19 12q-9 7 -3 18l75 127q3 5 7.5 9.5t12.5 -0.5l44 -29q8 -6 7 -12t-4 -10z" />
<glyph unicode="&#x218;" horiz-adv-x="453" d="M207 68q57 0 93 25.5t36 76.5q0 25 -10.5 42.5t-27 29.5t-37 20.5t-40.5 15.5q-29 10 -61 23t-58.5 33t-44 49.5t-17.5 71.5q0 40 14 71.5t38.5 53.5t57.5 33.5t71 11.5q36 0 81 -9t88 -41q9 -7 6 -12.5t-5 -9.5l-24 -38q-5 -7 -12 -6t-13 5q-34 20 -60 28.5t-52 8.5 q-22 0 -41.5 -5t-34 -16.5t-23 -30t-8.5 -46.5q0 -20 10.5 -35t27.5 -26.5t38 -20.5t42 -17q33 -13 65 -26.5t57 -33.5t40.5 -49t15.5 -74q0 -41 -15.5 -73.5t-43.5 -55t-67 -35t-85 -12.5q-57 0 -106.5 19.5t-76.5 57.5q-9 10 4 20l37 34q6 5 10.5 2.5t11.5 -9.5 q23 -25 54 -38t65 -13zM224 -217q-5 -12 -15 -12h-27q-7 0 -9.5 5.5t-1.5 11.5l10 157q2 16 15 16h62q19 0 13 -20z" />
<glyph unicode="&#x219;" horiz-adv-x="392" d="M355 119q0 -25 -10.5 -47.5t-30.5 -39.5t-49.5 -27t-67.5 -10q-53 0 -98 24t-65 74q-3 8 4 11l51 23q5 2 7.5 0t4.5 -5q15 -29 41.5 -45.5t60.5 -16.5q32 0 53.5 16.5t21.5 39.5q0 24 -17 37t-46 24q-23 9 -52.5 19t-55.5 25.5t-43.5 39t-17.5 59.5q0 30 12.5 53 t33.5 38.5t48 23.5t57 8q42 1 80 -13.5t67 -45.5q7 -7 -3 -17l-27 -31q-10 -11 -23 1q-20 18 -45 28.5t-50 10.5q-33 0 -52.5 -13.5t-19.5 -36.5q0 -22 16.5 -35.5t45.5 -24.5t59 -22t54.5 -26.5t40 -39t15.5 -59.5zM204 -217q-5 -12 -15 -12h-27q-7 0 -9.5 5.5t-1.5 11.5 l10 157q2 16 15 16h62q19 0 13 -20z" />
<glyph unicode="&#x259;" horiz-adv-x="438" d="M47 215q0 11 6.5 17.5t13.5 6.5h234q8 0 13 5t5 13v19q0 41 -26 70.5t-70 29.5q-30 0 -53 -14.5t-40 -37.5q-8 -11 -20 -3l-38 25q-12 8 -8 16q24 44 66 64t91 20q81 0 129.5 -44.5t48.5 -119.5v-114q0 -38 -13 -70t-36.5 -55t-55.5 -35.5t-71 -12.5q-40 0 -72.5 12.5 t-55.5 35.5t-35.5 55t-12.5 70v47zM128 155q0 -38 26 -64.5t69 -26.5q42 0 68 27t26 65v7q0 4 -3 8t-12 4h-164q-10 0 -10 -11v-9z" />
<glyph unicode="&#x2b9;" horiz-adv-x="235" d="M86 385q-4 -7 -10.5 -11t-15.5 1l-27 15q-9 5 -8.5 11t3.5 14l93 211q3 8 10 12t15 0l51 -24q11 -5 10 -14.5t-4 -15.5z" />
<glyph unicode="&#x2c6;" horiz-adv-x="443" d="M362 526q5 -5 5.5 -10.5t-6.5 -10.5l-14 -12q-7 -6 -11.5 -4.5t-10.5 6.5l-91 80q-8 8 -15 1l-88 -81q-5 -5 -10 -6.5t-12 4.5l-14 12q-7 5 -6.5 10.5t5.5 10.5l96 117q5 5 9.5 8t12.5 3h32q8 0 12.5 -3t9.5 -8l96 -117v0z" />
<glyph unicode="&#x2c7;" horiz-adv-x="438" d="M268 494q-5 -5 -9.5 -8t-12.5 -3h-32q-8 0 -12.5 3t-9.5 8l-96 117q-5 5 -5.5 10.5t6.5 10.5l14 12q7 6 12 4.5t10 -6.5l88 -81q7 -7 15 1l91 80q6 5 10.5 6.5t11.5 -4.5l14 -12q7 -5 6.5 -10.5t-5.5 -10.5z" />
<glyph unicode="&#x2d8;" horiz-adv-x="438" d="M109 614q0 5 2 8t10 3h21q8 0 10 -3t4 -10q9 -29 24.5 -44t44.5 -15q54 0 69 59q2 7 3.5 10t10.5 3h21q8 0 10 -3t2 -8q-1 -25 -10 -47.5t-24 -39t-36 -26t-47 -9.5q-24 0 -44.5 9.5t-36 26t-24.5 39t-10 47.5z" />
<glyph unicode="&#x2d9;" horiz-adv-x="437" d="M279 553q0 -20 -13.5 -33.5t-32.5 -13.5q-20 0 -34 13t-14 33t13.5 33.5t33.5 13.5t33.5 -13.5t13.5 -32.5z" />
<glyph unicode="&#x2da;" horiz-adv-x="438" d="M314 563q0 -17 -6.5 -32.5t-18.5 -27t-27.5 -18.5t-33.5 -7t-33.5 6.5t-27 17.5t-18.5 26.5t-7 32.5t6.5 32.5t18.5 27.5t27.5 19t33.5 7q35 0 60.5 -24.5t25.5 -59.5zM271 562q0 17 -13 30.5t-30 13.5t-29 -13t-12 -31t12 -30.5t29 -12.5t30 12.5t13 30.5z" />
<glyph unicode="&#x2db;" horiz-adv-x="450" d="M219 11q8 7 13.5 8.5t12.5 1.5h22q6 0 6 -5q0 -3 -2 -5q-23 -22 -39.5 -55t-16.5 -62q0 -13 6.5 -22t26.5 -9q14 0 29.5 7.5t30.5 15.5q6 3 9 -1l16 -22q2 -2 2 -4q0 -3 -3 -6q-15 -14 -42.5 -27t-55.5 -13q-45 0 -62 21t-17 52q0 15 5 32.5t14 34.5t20.5 32t24.5 26z " />
<glyph unicode="&#x2dc;" horiz-adv-x="442" d="M355 572q-16 -34 -37.5 -48.5t-40.5 -14.5q-16 0 -30.5 5.5t-27.5 12t-25.5 12t-25.5 5.5q-8 0 -18.5 -9.5t-17.5 -21.5q-6 -10 -17 -4l-27 16q-5 2 -4 7t3 9q13 25 33 44t45 19q15 0 29.5 -6t28 -12.5t26.5 -12.5t24 -6t20 10.5t16 22.5q2 3 4 5t7 -1l32 -15q9 -3 3 -17 z" />
<glyph unicode="&#x2dd;" horiz-adv-x="448" d="M182 490q-4 -4 -10 -6t-11 2l-19 12q-11 7 -4 18l76 127q3 5 8.5 9t11.5 0l44 -29q8 -6 7 -12t-5 -10zM302 490q-4 -4 -10 -6t-11 2l-19 12q-11 7 -4 18l76 127q3 5 8.5 9t11.5 0l44 -29q8 -6 7 -12t-5 -10z" />
<glyph unicode="&#x384;" horiz-adv-x="438" d="M233 490q-3 -4 -9 -6t-12 2l-19 12q-9 7 -3 18l75 127q3 5 9 9t11 0l44 -29q8 -6 7 -12t-4 -10z" />
<glyph unicode="&#x385;" horiz-adv-x="438" d="M408 555q0 -20 -13.5 -33.5t-33.5 -13.5t-34 13.5t-14 33.5t14 33.5t34 13.5q19 0 33 -13.5t14 -33.5zM166 555q0 -20 -13.5 -33.5t-33.5 -13.5t-33.5 13.5t-13.5 33.5t13.5 33.5t33.5 13.5t33.5 -13.5t13.5 -33.5zM216 490q-3 -4 -9 -6t-12 2l-19 12q-9 7 -3 18l75 127 q3 5 9 9t11 0l44 -29q8 -6 7 -12t-4 -10z" />
<glyph unicode="&#x386;" horiz-adv-x="457" d="M366 0q-13 0 -14 7l-33 130q-2 4 -4 4h-177q-4 0 -4.5 -1t-1.5 -2l-32 -131q-1 -7 -13 -7h-54q-8 0 -11.5 3t-1.5 12l148 590q1 5 4.5 8.5t11.5 3.5h85q12 0 15 -10l152 -590q2 -5 1 -11t-10 -6h-61zM196 402l-45 -184q-1 -5 -0.5 -6.5t5.5 -1.5h138q5 0 6 1.5t0 6.5 l-44 180l-28 126q-1 3 -2.5 3t-2.5 -2zM-7 453q-3 -4 -9 -6t-12 2l-19 12q-9 7 -3 18l75 127q3 5 9 9t11 0l44 -29q8 -6 7 -12t-4 -10z" />
<glyph unicode="&#x387;" horiz-adv-x="213" d="M161 330q0 -23 -16 -39t-39 -16q-22 0 -37.5 15.5t-15.5 38.5q0 21 15.5 37t37.5 16t38.5 -16t16.5 -36z" />
<glyph unicode="&#x388;" horiz-adv-x="440" d="M410 12q0 -12 -12 -12h-326q-12 0 -12 11v595q0 11 12 11h322q13 0 13 -11v-49q0 -12 -12 -12h-243q-8 0 -8 -8v-171q0 -8 7 -8h201q12 0 12 -12v-50q0 -11 -11 -11h-201q-8 0 -8 -9v-194q0 -9 7 -9h247q12 0 12 -11v-50zM-103 453q-3 -4 -9 -6t-12 2l-19 12q-9 7 -3 18 l75 127q3 5 9 9t11 0l44 -29q8 -6 7 -12t-4 -10z" />
<glyph unicode="&#x389;" horiz-adv-x="627" d="M461 12q0 -12 -12 -12h-61q-12 0 -12 11v263q0 9 -8 9h-213q-8 0 -8 -9v-262q0 -12 -11 -12h-61q-12 0 -12 11v595q0 11 11 11h61q12 0 12 -10v-243q0 -9 8 -9h213q8 0 8 9v242q0 11 11 11h61q13 0 13 -10v-595zM-103 453q-3 -4 -9 -6t-12 2l-19 12q-9 7 -3 18l75 127 q3 5 9 9t11 0l44 -29q8 -6 7 -12t-4 -10z" />
<glyph unicode="&#x38a;" horiz-adv-x="241" d="M162 12q0 -12 -12 -12h-62q-12 0 -12 11v595q0 11 12 11h62q12 0 12 -10v-595zM-86 453q-3 -4 -9 -6t-12 2l-19 12q-9 7 -3 18l75 127q3 5 9 9t11 0l44 -29q8 -6 7 -12t-4 -10z" />
<glyph unicode="&#x38c;" horiz-adv-x="497" d="M439 165q0 -41 -14.5 -72.5t-40 -53.5t-60 -33.5t-75.5 -11.5t-75.5 11t-60.5 32.5t-40.5 53.5t-14.5 74v290q0 40 15 71.5t40.5 53.5t60 33.5t74.5 11.5q39 0 73.5 -11t61 -32.5t41.5 -53.5t15 -73v-290zM355 453q0 43 -29 71t-77 28q-49 0 -78 -28.5t-29 -70.5v-286 q0 -45 27.5 -72.5t78.5 -27.5q50 0 78.5 27.5t28.5 72.5v286zM-81 453q-3 -4 -9 -6t-12 2l-19 12q-9 7 -3 18l75 127q3 5 9 9t11 0l44 -29q8 -6 7 -12t-4 -10z" />
<glyph unicode="&#x38e;" horiz-adv-x="435" d="M264 245q-5 -11 -5 -24v-209q0 -12 -12 -12h-60q-12 0 -12 11v212q0 12 -4 20l-154 357q-7 17 10 17h57q16 0 21 -11l108 -274q5 -8 9 -1q27 68 54 136.5t53 136.5q4 8 8 10.5t15 2.5h55q11 0 12.5 -4.5t-1.5 -11.5zM-123 453q-3 -4 -9 -6t-12 2l-19 12q-9 7 -3 18 l75 127q3 5 9 9t11 0l44 -29q8 -6 7 -12t-4 -10z" />
<glyph unicode="&#x38f;" horiz-adv-x="520" d="M305 0q-8 0 -10.5 2t-2.5 9v64q0 7 1.5 9t7.5 3q32 6 52.5 32.5t20.5 61.5v270q0 21 -6.5 39.5t-20.5 32.5t-35 22.5t-51 8.5q-55 0 -85 -30.5t-30 -72.5v-269q0 -35 19 -62.5t53 -32.5q5 -2 6.5 -3t1.5 -9v-63q0 -8 -1.5 -10t-10.5 -2h-153q-12 0 -12 11v50q0 12 12 12 h42q2 0 2.5 1t-1.5 3q-28 20 -35 53.5t-7 70.5v246q0 40 15.5 73.5t42.5 56.5t63 36t77 13q95 0 146.5 -49t51.5 -130v-246q0 -37 -11 -69t-36 -55q-2 -4 2 -4h46q12 0 12 -11v-50q0 -12 -11 -12h-155zM-77 453q-3 -4 -9 -6t-12 2l-19 12q-9 7 -3 18l75 127q3 5 9 9t11 0 l44 -29q8 -6 7 -12t-4 -10z" />
<glyph unicode="&#x390;" horiz-adv-x="220" d="M148 10q0 -10 -10 -10h-62q-10 0 -10 9v419q0 10 9 10h63q10 0 10 -9v-419zM283 555q0 -20 -13.5 -33.5t-33.5 -13.5t-34 13.5t-14 33.5t14 33.5t34 13.5q19 0 33 -13.5t14 -33.5zM41 555q0 -20 -13.5 -33.5t-33.5 -13.5t-33.5 13.5t-13.5 33.5t13.5 33.5t33.5 13.5 t33.5 -13.5t13.5 -33.5zM91 490q-3 -4 -9 -6t-12 2l-19 12q-9 7 -3 18l75 127q3 5 9 9t11 0l44 -29q8 -6 7 -12t-4 -10z" />
<glyph unicode="&#x391;" horiz-adv-x="457" d="M366 0q-13 0 -14 7l-33 130q-2 4 -4 4h-177q-4 0 -4.5 -1t-1.5 -2l-32 -131q-1 -7 -13 -7h-54q-8 0 -11.5 3t-1.5 12l148 590q1 5 4.5 8.5t11.5 3.5h85q12 0 15 -10l152 -590q2 -5 1 -11t-10 -6h-61zM196 402l-45 -184q-1 -5 -0.5 -6.5t5.5 -1.5h138q5 0 6 1.5t0 6.5 l-44 180l-28 126q-1 3 -2.5 3t-2.5 -2z" />
<glyph unicode="&#x392;" horiz-adv-x="476" d="M438 184q0 -41 -12.5 -74.5t-36 -58t-56.5 -38t-74 -13.5h-193q-12 0 -12 11v595q0 11 11 11h179q81 0 128.5 -41t47.5 -120q0 -16 -5 -33t-14 -33t-21 -30t-26 -24q-2 -4 1 -7q41 -21 62 -61t21 -84zM355 181q0 21 -5.5 41.5t-18.5 36t-34 25.5t-51 10h-100q-8 0 -8 -8 v-204q0 -9 8 -9h111q46 0 72 30t26 78zM337 458q0 40 -24 63.5t-70 23.5h-97q-8 0 -8 -8v-163q0 -9 8 -9h98q47 0 70 27.5t23 65.5z" />
<glyph unicode="&#x393;" horiz-adv-x="426" d="M418 556q0 -11 -12 -11h-234q-8 0 -8 -8v-525q0 -12 -11 -12h-61q-12 0 -12 11v595q0 11 12 11h314q12 0 12 -10v-51v0z" />
<glyph unicode="&#x394;" horiz-adv-x="468" d="M27 0q-8 0 -10.5 4.5t-1.5 10.5q40 143 83 296t82 296q3 10 14 10h79q8 0 10 -3.5t3 -5.5l166 -588q2 -8 0 -14t-10 -6h-415zM271 361l-37 150q-1 4 -3 4.5t-3 -3.5l-37 -152l-69 -278q-3 -12 8 -12h208q10 0 7 12v-1z" />
<glyph unicode="&#x395;" horiz-adv-x="440" d="M410 12q0 -12 -12 -12h-326q-12 0 -12 11v595q0 11 12 11h322q13 0 13 -11v-49q0 -12 -12 -12h-243q-8 0 -8 -8v-171q0 -8 7 -8h201q12 0 12 -12v-50q0 -11 -11 -11h-201q-8 0 -8 -9v-194q0 -9 7 -9h247q12 0 12 -11v-50v0z" />
<glyph unicode="&#x396;" horiz-adv-x="420" d="M390 12q0 -12 -12 -12h-325q-10 0 -14.5 5t-4.5 11v32q0 14 7 28l239 457q7 12 -7 12h-212q-12 0 -12 11v50q0 11 12 11h301q13 0 17.5 -4.5t4.5 -13.5v-29q0 -10 -4.5 -22t-8.5 -19l-231 -444q-7 -12 6 -12h232q5 0 8.5 -3t3.5 -8v-50v0z" />
<glyph unicode="&#x397;" horiz-adv-x="627" d="M461 12q0 -12 -12 -12h-61q-12 0 -12 11v263q0 9 -8 9h-213q-8 0 -8 -9v-262q0 -12 -11 -12h-61q-12 0 -12 11v595q0 11 11 11h61q12 0 12 -10v-243q0 -9 8 -9h213q8 0 8 9v242q0 11 11 11h61q13 0 13 -10v-595v0z" />
<glyph unicode="&#x398;" horiz-adv-x="517" d="M459 165q0 -41 -14.5 -72.5t-41 -53.5t-63 -33.5t-81.5 -11.5q-44 0 -80.5 11t-63.5 32.5t-42 53.5t-15 74v290q0 40 15.5 71.5t42.5 53.5t63.5 33.5t78.5 11.5q45 0 82 -11t63.5 -32.5t41 -53.5t14.5 -73v-290zM375 453q0 43 -31 71t-85 28q-56 0 -86.5 -28.5 t-30.5 -70.5v-286q0 -45 30 -72.5t86 -27.5t86.5 27.5t30.5 72.5v286zM176 280q-6 0 -6 7v54q0 8 7 8h163q7 0 7 -8v-54q0 -7 -6 -7h-165z" />
<glyph unicode="&#x399;" horiz-adv-x="241" d="M162 12q0 -12 -12 -12h-62q-12 0 -12 11v595q0 11 12 11h62q12 0 12 -10v-595v0z" />
<glyph unicode="&#x39a;" horiz-adv-x="499" d="M445 617q10 0 12 -4.5t-2 -9.5l-185 -227q-4 -5 -2 -7.5t7 -2.5q8 0 14.5 0.5t13.5 -0.5q69 -5 102.5 -48t38.5 -117l15 -191q0 -10 -10 -10h-58q-11 0 -11 9l-12 180q-1 16 -5 36t-15 37t-31 28.5t-54 11.5q-57 0 -86 -33t-29 -86v-173q0 -10 -9 -10h-65q-11 0 -11 9 v598q0 10 11 10h65q9 0 9 -9v-248q0 -9 4 -8t7 4l207 254q6 7 14 7h65z" />
<glyph unicode="&#x39b;" horiz-adv-x="460" d="M105 10q-3 -10 -14 -10h-63q-9 0 -12 5.5t-1 13.5l166 589q4 9 15 9h68q11 0 14 -8l165 -589q2 -5 1 -12.5t-15 -7.5h-60q-12 0 -14 10v-1q-20 78 -40 154t-40 154l-46 179q0 2 -2 2t-2 -2l-43 -178l-77 -307v-1z" />
<glyph unicode="&#x39c;" horiz-adv-x="627" d="M577 12q0 -12 -11 -12h-57q-11 0 -11 11v388q0 2 -1.5 2.5t-2.5 -1.5l-42 -117l-97 -249q-2 -3 -6 -8.5t-13 -5.5h-39q-8 0 -12.5 2.5t-7.5 10.5l-92 242l-43 122q-3 3 -3 0v-385q0 -12 -11 -12h-56q-12 0 -12 11v587q0 19 18 19h39q14 0 17 -2.5t8 -12.5l134 -358 l38 -110q5 -8 9 -1q10 27 19.5 56.5t19.5 56.5l133 357q5 8 9.5 11t14.5 3h40q11 0 14.5 -5t3.5 -13v-587v0z" />
<glyph unicode="&#x39d;" horiz-adv-x="519" d="M118 617q12 0 17 -4.5t10 -11.5l233 -429q1 -2 2 -2.5t1 1.5v435q0 11 11 11h56q12 0 12 -10v-587q0 -13 -6.5 -16.5t-12.5 -3.5h-38q-11 0 -16.5 3.5t-9.5 11.5l-233 428q-3 3 -3 0v-431q0 -12 -11 -12h-57q-12 0 -12 11v581q0 13 3.5 19t17.5 6h36z" />
<glyph unicode="&#x39e;" horiz-adv-x="476" d="M429 12q0 -12 -12 -12h-358q-12 0 -12 12v50q0 11 12 11h129q8 0 8 9v189q0 9 -9 9h-83q-11 0 -11 11v50q0 12 12 12h83q8 0 8 8v176q0 8 -9 8h-126q-12 0 -12 12v49q0 11 13 11h352q13 0 13 -11v-49q0 -12 -12 -12h-133q-9 0 -9 -8v-176q0 -8 8 -8h90q12 0 12 -12v-50 q0 -11 -11 -11h-90q-9 0 -9 -9v-189q0 -9 8 -9h136q12 0 12 -11v-50v0z" />
<glyph unicode="&#x39f;" horiz-adv-x="497" d="M439 165q0 -41 -14.5 -72.5t-40 -53.5t-60 -33.5t-75.5 -11.5t-75.5 11t-60.5 32.5t-40.5 53.5t-14.5 74v290q0 40 15 71.5t40.5 53.5t60 33.5t74.5 11.5q39 0 73.5 -11t61 -32.5t41.5 -53.5t15 -73v-290zM355 453q0 43 -29 71t-77 28q-49 0 -78 -28.5t-29 -70.5v-286 q0 -45 27.5 -72.5t78.5 -27.5q50 0 78.5 27.5t28.5 72.5v286z" />
<glyph unicode="&#x3a0;" horiz-adv-x="556" d="M481 12q0 -12 -12 -12h-61q-11 0 -11 11v526q0 9 -8 9h-221q-8 0 -8 -9v-525q0 -12 -12 -12h-61q-12 0 -12 11v595q0 11 12 11h382q12 0 12 -10v-595v0z" />
<glyph unicode="&#x3a1;" horiz-adv-x="458" d="M434 434q0 -37 -14 -70t-39 -57.5t-59 -38.5t-74 -14h-92q-8 0 -8 -9v-233q0 -12 -12 -12h-60q-12 0 -12 11v595q0 11 12 11h171q44 0 78.5 -14t58.5 -38.5t37 -58t13 -72.5zM156 545q-9 0 -9 -8v-203q0 -9 8 -9h92q47 0 75.5 29.5t28.5 80.5q0 19 -6.5 39t-19.5 35.5 t-32.5 25.5t-45.5 10h-91z" />
<glyph unicode="&#x3a3;" horiz-adv-x="425" d="M402 12q0 -12 -12 -12h-325q-10 0 -14.5 5t-4.5 11v35q0 14 7 28l110 218q4 8 6 17t-4 20l-109 202q-2 5 -5 12t-3 15v35q0 9 4.5 14t17.5 5h302q12 0 12 -10v-51q0 -11 -11 -11h-217q-6 0 -8 -3.5t0 -8.5l108 -191q8 -15 8 -25t-5 -20l-113 -212q-7 -12 7 -12h237 q5 0 8.5 -3t3.5 -8v-50v0z" />
<glyph unicode="&#x3a4;" horiz-adv-x="417" d="M402 556q0 -11 -12 -11h-132q-9 0 -9 -8v-525q0 -12 -11 -12h-61q-12 0 -12 11v525q0 9 -8 9h-130q-12 0 -12 11v50q0 11 12 11h363q12 0 12 -10v-51v0z" />
<glyph unicode="&#x3a5;" horiz-adv-x="435" d="M264 245q-5 -11 -5 -24v-209q0 -12 -12 -12h-60q-12 0 -12 11v212q0 12 -4 20l-154 357q-7 17 10 17h57q16 0 21 -11l108 -274q5 -8 9 -1q27 68 54 136.5t53 136.5q4 8 8 10.5t15 2.5h55q11 0 12.5 -4.5t-1.5 -11.5z" />
<glyph unicode="&#x3a6;" horiz-adv-x="571" d="M512 235q0 -33 -14.5 -63t-38.5 -53t-56 -37.5t-68 -17.5q-10 -1 -10 -11v-42q0 -11 -10 -11h-61q-10 0 -10 10v43q0 11 -11 11q-37 2 -68.5 15.5t-55 36t-37 53t-13.5 66.5v170q0 36 13 66.5t36 53t55 36.5t71 16q9 0 9 7v22q0 11 11 11h60q11 0 11 -10v-23q0 -7 7 -7 q40 -2 73 -15.5t57 -36t37 -53t13 -66.5v-171zM433 410q0 19 -5.5 36t-17.5 30t-31 21t-47 9q-7 0 -7 -7v-352q0 -9 10 -9q40 5 69 29t29 66v177zM244 497q0 9 -9 9q-47 -2 -71.5 -31t-24.5 -64v-178q0 -35 25.5 -62.5t70.5 -32.5q9 0 9 8v351z" />
<glyph unicode="&#x3a7;" horiz-adv-x="451" d="M234 233q-1 3 -4.5 4.5t-5.5 -3.5l-111 -223q-5 -8 -9.5 -9.5t-12.5 -1.5h-62q-17 0 -9 16l154 294q5 11 3 16t-4 9l-140 268q-8 14 11 14h66q9 0 13 -2.5t7 -8.5l97 -200q4 -4 8 0q25 49 50 99.5t49 100.5q3 6 7 8.5t13 2.5h60q16 0 11 -14q-35 -68 -71.5 -136 t-71.5 -136q-5 -12 0 -20q18 -34 37.5 -71.5t40 -76t40.5 -76t38 -71.5q8 -16 -9 -16h-62q-8 0 -13 1.5t-9 9.5z" />
<glyph unicode="&#x3a8;" horiz-adv-x="563" d="M509 309q0 -35 -13.5 -66.5t-37.5 -55.5t-56.5 -39t-70.5 -17q-9 0 -9 -8v-111q0 -12 -11 -12h-61q-11 0 -11 11v110q0 10 -9 10q-38 2 -70 16.5t-55.5 38t-37 55.5t-13.5 68v297q0 11 11 11h60q12 0 12 -10v-308q0 -18 8 -34t21 -28.5t29.5 -20.5t33.5 -10q9 -1 9 9v400 q0 12 12 12h60q12 0 12 -12v-400q0 -11 11 -9q18 2 34 10t29 20.5t20.5 28.5t7.5 34v307q0 11 12 11h62q11 0 11 -10v-298v0z" />
<glyph unicode="&#x3a9;" horiz-adv-x="520" d="M305 0q-8 0 -10.5 2t-2.5 9v64q0 7 1.5 9t7.5 3q32 6 52.5 32.5t20.5 61.5v270q0 21 -6.5 39.5t-20.5 32.5t-35 22.5t-51 8.5q-55 0 -85 -30.5t-30 -72.5v-269q0 -35 19 -62.5t53 -32.5q5 -2 6.5 -3t1.5 -9v-63q0 -8 -1.5 -10t-10.5 -2h-153q-12 0 -12 11v50q0 12 12 12 h42q2 0 2.5 1t-1.5 3q-28 20 -35 53.5t-7 70.5v246q0 40 15.5 73.5t42.5 56.5t63 36t77 13q95 0 146.5 -49t51.5 -130v-246q0 -37 -11 -69t-36 -55q-2 -4 2 -4h46q12 0 12 -11v-50q0 -12 -11 -12h-155z" />
<glyph unicode="&#x3aa;" horiz-adv-x="241" d="M162 12q0 -12 -12 -12h-62q-12 0 -12 11v595q0 11 12 11h62q12 0 12 -10v-595zM247 700q0 -20 -13 -33.5t-33 -13.5t-34 13.5t-14 33.5t13.5 33.5t33.5 13.5t33.5 -13.5t13.5 -33.5zM85 700q0 -20 -13.5 -33.5t-33.5 -13.5t-33.5 13.5t-13.5 33.5t13.5 33.5t33.5 13.5 t33.5 -13.5t13.5 -33.5z" />
<glyph unicode="&#x3ab;" horiz-adv-x="435" d="M264 245q-5 -11 -5 -24v-209q0 -12 -12 -12h-60q-12 0 -12 11v212q0 12 -4 20l-154 357q-7 17 10 17h57q16 0 21 -11l108 -274q5 -8 9 -1q27 68 54 136.5t53 136.5q4 8 8 10.5t15 2.5h55q11 0 12.5 -4.5t-1.5 -11.5zM345 700q0 -20 -13 -33.5t-33 -13.5t-34 13.5 t-14 33.5t13.5 33.5t33.5 13.5t33.5 -13.5t13.5 -33.5zM183 700q0 -20 -13.5 -33.5t-33.5 -13.5t-33.5 13.5t-13.5 33.5t13.5 33.5t33.5 13.5t33.5 -13.5t13.5 -33.5z" />
<glyph unicode="&#x3ac;" horiz-adv-x="453" d="M401 10q0 -10 -10 -10h-61q-9 0 -9 9v10q0 7 -4 9t-12 -4q-13 -11 -37.5 -19t-50.5 -8q-78 0 -123.5 41.5t-45.5 117.5v124q0 36 13 66t35.5 51.5t53.5 33.5t66 12q38 0 60 -10.5t34 -20.5q5 -5 10.5 -4.5t5.5 6.5v14q0 10 9 10h56q10 0 10 -9v-419zM321 280q0 40 -27 67 t-69 27q-48 0 -72.5 -27.5t-24.5 -66.5v-124q0 -39 24.5 -67.5t72.5 -28.5q41 0 68 28t27 68zM233 490q-3 -4 -9 -6t-12 2l-19 12q-9 7 -3 18l75 127q3 5 9 9t11 0l44 -29q8 -6 7 -12t-4 -10z" />
<glyph unicode="&#x3ad;" horiz-adv-x="382" d="M204 444q45 0 86 -16t69 -58q4 -6 4.5 -10.5t-4.5 -8.5l-41 -29q-8 -5 -13 -3t-10 9q-17 24 -42 35.5t-51 11.5q-11 0 -24.5 -3t-25.5 -10.5t-20.5 -19.5t-8.5 -30q0 -29 20.5 -39.5t44.5 -10.5h70q9 0 9 -9v-48q0 -8 -9 -8h-72q-24 0 -45 -14.5t-21 -44.5 q0 -20 8.5 -34.5t21 -23.5t27 -13t26.5 -4q29 0 56 14.5t40 31.5q5 7 10.5 10.5t12.5 -2.5l36 -29q15 -12 8 -21q-29 -39 -72.5 -56t-90.5 -17q-72 0 -118.5 35.5t-46.5 106.5q0 20 13.5 45.5t40.5 38.5q4 2 4.5 5.5t-4.5 5.5q-28 8 -40 30.5t-12 42.5q0 32 13 58t35.5 44 t52 28t63.5 10zM199 490q-3 -4 -9 -6t-12 2l-19 12q-9 7 -3 18l75 127q3 5 9 9t11 0l44 -29q8 -6 7 -12t-4 -10z" />
<glyph unicode="&#x3ae;" horiz-adv-x="462" d="M408 10q0 -10 -9 -10h-62q-9 0 -9 9v267q0 43 -24 71t-72 28q-44 0 -70 -27.5t-26 -70.5v-267q0 -10 -10 -10h-61q-10 0 -10 9v419q0 10 9 10h58q9 0 9 -9v-15q0 -9 7 -9q2 0 8 4q42 35 100 35q75 0 118.5 -45.5t43.5 -121.5v-267zM212 490q-3 -4 -9 -6t-12 2l-19 12 q-9 7 -3 18l75 127q3 5 9 9t11 0l44 -29q8 -6 7 -12t-4 -10z" />
<glyph unicode="&#x3af;" horiz-adv-x="213" d="M148 10q0 -10 -10 -10h-62q-10 0 -10 9v419q0 10 9 10h63q10 0 10 -9v-419zM123 490q-3 -4 -9 -6t-12 2l-19 12q-9 7 -3 18l75 127q3 5 9 9t11 0l44 -29q8 -6 7 -12t-4 -10z" />
<glyph unicode="&#x3b0;" horiz-adv-x="454" d="M406 155q0 -37 -12.5 -67.5t-36 -52t-56 -33.5t-72.5 -12t-72.5 11.5t-55.5 33.5t-35.5 52t-12.5 68v273q0 10 10 10h60q10 0 10 -10v-273q0 -39 25.5 -68t70.5 -29q46 0 71 28.5t25 68.5v273q0 10 10 10h62q9 0 9 -10v-273zM398 555q0 -20 -13.5 -33.5t-33.5 -13.5 t-34 13.5t-14 33.5t14 33.5t34 13.5q19 0 33 -13.5t14 -33.5zM156 555q0 -20 -13.5 -33.5t-33.5 -13.5t-33.5 13.5t-13.5 33.5t13.5 33.5t33.5 13.5t33.5 -13.5t13.5 -33.5zM206 490q-3 -4 -9 -6t-12 2l-19 12q-9 7 -3 18l75 127q3 5 9 9t11 0l44 -29q8 -6 7 -12t-4 -10z " />
<glyph unicode="&#x3b1;" horiz-adv-x="453" d="M401 10q0 -10 -10 -10h-61q-9 0 -9 9v10q0 7 -4 9t-12 -4q-13 -11 -37.5 -19t-50.5 -8q-78 0 -123.5 41.5t-45.5 117.5v124q0 36 13 66t35.5 51.5t53.5 33.5t66 12q38 0 60 -10.5t34 -20.5q5 -5 10.5 -4.5t5.5 6.5v14q0 10 9 10h56q10 0 10 -9v-419zM321 280q0 40 -27 67 t-69 27q-48 0 -72.5 -27.5t-24.5 -66.5v-124q0 -39 24.5 -67.5t72.5 -28.5q41 0 68 28t27 68z" />
<glyph unicode="&#x3b2;" horiz-adv-x="458" d="M407 158q0 -34 -12.5 -64t-34 -52.5t-51 -35.5t-63.5 -13q-35 0 -56 7t-44 24q-5 3 -8.5 2t-3.5 -7v-155q0 -10 -9 -10h-62q-10 0 -10 9v602q0 36 12 67t34.5 54.5t54 37t71.5 13.5q82 0 127.5 -44t45.5 -116q0 -30 -12.5 -61t-41.5 -45q-8 -4 0 -7q32 -14 47.5 -46 t15.5 -68v-92zM327 250q0 42 -27.5 65t-69.5 23h-44q-9 0 -9 9v46q0 10 10 10h46q33 0 58.5 18.5t25.5 56.5q0 39 -22.5 63.5t-67.5 24.5q-47 0 -70 -29t-23 -68v-311q0 -20 7.5 -37t20.5 -30.5t30.5 -21t37.5 -7.5q41 0 69 28t28 68v92z" />
<glyph unicode="&#x3b3;" horiz-adv-x="401" d="M201 137q3 -7 6 -7q5 0 6 7q24 79 44 141q8 27 16.5 52.5t15 46.5t11 35t5.5 16q2 4 5 7t11 3h57q10 0 10 -9q0 -4 -1 -6l-134 -387q-5 -12 -6.5 -25t-1.5 -22v-160q0 -10 -10 -10h-61q-10 0 -10 9v164q0 13 -1.5 21.5t-4.5 17.5l-96 312q-3 8 -7 16.5t-21 8.5h-11.5 t-5.5 7l-9 44q-2 9 10 13q31 11 50 11q29 0 41.5 -16.5t23.5 -50.5z" />
<glyph unicode="&#x3b4;" horiz-adv-x="454" d="M404 155q0 -37 -12.5 -67.5t-36 -52t-56 -33.5t-72.5 -12t-72.5 11.5t-55.5 33.5t-35.5 52t-12.5 68v107q0 45 20.5 85t59.5 60q5 2 5.5 6t-4.5 8q-17 12 -27 24.5t-15.5 24t-7.5 21.5t-2 16q-1 37 12.5 62t36.5 40t52.5 21.5t59.5 6.5q32 0 67 -5.5t61 -19.5 q10 -4 6 -14l-16 -42q-4 -10 -13 -7q-29 12 -63 18t-61 2q-26 -4 -42 -17t-16 -36q0 -14 11 -26t28 -20t38.5 -19t44.5 -22t44 -24.5t37.5 -33t26.5 -46.5t10 -63v-107zM324 262q0 14 -4 30t-14 31t-27 27.5t-43 19.5q-10 3 -14.5 3t-12.5 -2q-38 -11 -58 -41.5t-20 -67.5 v-107q0 -39 23.5 -67.5t72.5 -28.5q51 0 74 28t23 68v107z" />
<glyph unicode="&#x3b5;" horiz-adv-x="382" d="M204 444q45 0 86 -16t69 -58q4 -6 4.5 -10.5t-4.5 -8.5l-41 -29q-8 -5 -13 -3t-10 9q-17 24 -42 35.5t-51 11.5q-11 0 -24.5 -3t-25.5 -10.5t-20.5 -19.5t-8.5 -30q0 -29 20.5 -39.5t44.5 -10.5h70q9 0 9 -9v-48q0 -8 -9 -8h-72q-24 0 -45 -14.5t-21 -44.5 q0 -20 8.5 -34.5t21 -23.5t27 -13t26.5 -4q29 0 56 14.5t40 31.5q5 7 10.5 10.5t12.5 -2.5l36 -29q15 -12 8 -21q-29 -39 -72.5 -56t-90.5 -17q-72 0 -118.5 35.5t-46.5 106.5q0 20 13.5 45.5t40.5 38.5q4 2 4.5 5.5t-4.5 5.5q-28 8 -40 30.5t-12 42.5q0 32 13 58t35.5 44 t52 28t63.5 10z" />
<glyph unicode="&#x3b6;" horiz-adv-x="380" d="M396 620q22 0 22 -16v-28q0 -18 -11 -26q-39 -23 -89 -63.5t-95 -89.5t-76 -102.5t-31 -101.5q0 -31 18 -54t46.5 -40t64.5 -30.5t72 -25.5q45 -15 60 -34t15 -43q0 -17 -13.5 -48.5t-43.5 -79.5q-5 -8 -11 -8q-3 0 -9 2l-34 16q-9 3 -9 11q0 4 3 10l22 45q3 6 6 14.5 t3 15.5q0 24 -42 38q-29 10 -68.5 24t-75 37t-60 58t-24.5 87t24 104t60 98.5t79 85.5t81 65q4 4 4 5q0 2 -5 2h-191q-11 0 -14.5 4.5t-3.5 14.5v39q0 14 18 14h308z" />
<glyph unicode="&#x3b7;" horiz-adv-x="462" d="M408 10q0 -10 -9 -10h-62q-9 0 -9 9v267q0 43 -27 71t-69 28q-44 0 -70 -27.5t-26 -70.5v-267q0 -10 -10 -10h-61q-10 0 -10 9v419q0 10 9 10h58q9 0 9 -9v-15q0 -8 5 -9t10 4q22 18 43 26.5t50 8.5q37 0 68.5 -12t53.5 -33.5t34.5 -52.5t12.5 -69v-267v0z" />
<glyph unicode="&#x3b8;" horiz-adv-x="455" d="M407 160q0 -75 -48 -120.5t-129 -45.5t-128.5 45t-47.5 120v314q0 75 47.5 119.5t128.5 44.5t129 -45t48 -119v-313zM326 473q0 38 -24 66.5t-72 28.5q-42 0 -69 -27.5t-27 -67.5v-96q0 -14 14 -14h168q10 0 10 11v99zM327 284q0 11 -11 11h-171q-4 0 -7.5 -3t-3.5 -8 v-30v-40.5t0.5 -37t0.5 -18.5q-2 -21 5.5 -38.5t20.5 -30t31 -19.5t38 -7q48 0 72.5 28.5t24.5 67.5v125z" />
<glyph unicode="&#x3b9;" horiz-adv-x="213" d="M148 10q0 -10 -10 -10h-62q-10 0 -10 9v419q0 10 9 10h63q10 0 10 -9v-419v0z" />
<glyph unicode="&#x3ba;" horiz-adv-x="441" d="M414 17q0 -17 -14 -17h-53q-14 0 -14 14l-5 93q-1 19 -5.5 36.5t-15 31t-28.5 21t-45 7.5q-47 0 -71.5 -28t-24.5 -67v-98q0 -10 -10 -10h-61q-10 0 -10 9v421q0 10 9 10h62q9 0 9 -9v-157q0 -11 5 -13t10 3l155 169q5 5 14 5h74q11 0 11 -9q0 -2 -1.5 -4.5t-3.5 -4.5 l-132 -142q-6 -7 4 -10q10 -1 18.5 -2t16.5 -3q28 -7 47 -21.5t30.5 -35t17 -45.5t7.5 -53l4 -91v0z" />
<glyph unicode="&#x3bb;" horiz-adv-x="474" d="M409 10q0 -10 -10 -10h-61q-9 0 -9 9v273q0 19 -7.5 36.5t-20.5 30.5t-30.5 20.5t-37.5 7.5t-37.5 -7.5t-30.5 -20.5t-20.5 -30.5t-7.5 -36.5v-272q0 -10 -10 -10h-61q-10 0 -10 9v272q0 37 12.5 67t34 51.5t51.5 33.5t66 12q26 0 48.5 -6t42.5 -22q11 -9 14.5 -4t3.5 8 v51q0 39 -25.5 67t-76.5 28q-23 0 -40 -4.5t-45 -16.5q-11 -5 -15.5 -4.5t-7.5 6.5l-16 35q-5 10 -2.5 14t10.5 9q12 7 29 13t35 10t35.5 6t31.5 2q39 0 70 -12.5t52.5 -34.5t33 -52t11.5 -65v-463v0z" />
<glyph unicode="&#x3bc;" horiz-adv-x="474" d="M408 9q0 -9 -9 -9h-57q-10 0 -10 9v15q0 7 -5 8t-10 -3q-14 -13 -34 -22q-26 -13 -60 -13q-21 0 -38 5.5t-31 16.5q-9 7 -13.5 2.5t-4.5 -9.5v-180q0 -10 -9 -10h-61q-10 0 -11 9v600q0 9 10 9h61q9 0 9 -9v-271q0 -19 7.5 -36t20.5 -30t31 -20.5t38 -7.5q42 0 68.5 27 t26.5 67v271q0 9 10 9h61q10 0 10 -9v-419v0z" />
<glyph unicode="&#x3bd;" horiz-adv-x="404" d="M245 12q-2 -7 -5.5 -9.5t-12.5 -2.5h-49q-14 0 -18 11l-146 413q-5 14 8 14h55q17 0 20 -12l68 -207l33 -113q2 -5 4.5 -5t4.5 4l31 108l68 210q2 5 5.5 10t13.5 5h57q14 0 9 -13z" />
<glyph unicode="&#x3be;" horiz-adv-x="368" d="M47 552q-11 0 -15 4t-4 14v39q0 14 19 14h303q21 0 21 -15v-31q0 -18 -11 -20q-122 -26 -176.5 -59.5t-54.5 -70.5q0 -19 9 -33t24 -23.5t35 -14t41 -4.5h92q19 0 19 -14v-34q0 -10 -4 -14t-15 -4h-91q-23 0 -46 -9t-42.5 -24t-31.5 -35.5t-12 -44.5q0 -43 30.5 -68.5 t100.5 -45.5q37 -11 59.5 -21t35.5 -20.5t17.5 -21.5t4.5 -23q0 -13 -9.5 -44t-46.5 -90q-4 -7 -12 -7q-2 0 -8 2l-37 17q-10 4 -10 12q0 4 3 9q19 35 26.5 56.5t7.5 27.5q0 11 -19 19t-60 21q-89 28 -126.5 68.5t-37.5 98.5q0 45 26.5 87t77.5 62q3 1 3 2t-3 3 q-38 14 -58.5 44t-20.5 62q0 25 8 43.5t21.5 32.5t31.5 25t37 20q5 2 5 4q0 3 -6 3z" />
<glyph unicode="&#x3bf;" horiz-adv-x="448" d="M400 163q0 -81 -47.5 -125t-128.5 -44q-83 0 -129.5 43.5t-46.5 124.5v115q0 77 45 122.5t130 45.5t131 -44t46 -124v-114zM320 277q0 43 -23.5 70.5t-72.5 27.5q-44 0 -70 -27t-26 -71v-115q0 -43 22 -71t73 -28t73.5 27.5t23.5 71.5v115z" />
<glyph unicode="&#x3c0;" horiz-adv-x="459" d="M405 10q0 -10 -9 -10h-61q-9 0 -9 9v349q0 11 -11 11h-171q-10 0 -10 -10v-349q0 -10 -10 -10h-61q-10 0 -10 9v419q0 10 10 10h332q10 0 10 -9v-419v0z" />
<glyph unicode="&#x3c1;" horiz-adv-x="445" d="M401 170q0 -82 -42 -129.5t-120 -47.5q-28 0 -51.5 7t-45.5 24q-7 5 -10 2t-3 -8v-189q0 -10 -10 -10h-61q-9 0 -10 9v446q0 40 13.5 72t37.5 54t57 33.5t72 11.5q77 0 125 -43.5t48 -118.5v-113zM320 277q-1 42 -25 70t-70 28q-45 0 -71 -27.5t-26 -71.5v-115 q0 -41 26 -70t70 -29q47 0 72 28.5t25 70.5z" />
<glyph unicode="&#x3c2;" horiz-adv-x="378" d="M341 119q0 -54 -42 -89t-118 -35q-35 0 -64 9.5t-52 32.5q-14 14 -23.5 28.5t-14.5 27.5q-3 8 4 11l51 23q5 2 7.5 0t4.5 -5q15 -29 35.5 -45.5t54.5 -16.5q35 0 56.5 15.5t21.5 41.5q0 25 -17.5 37t-46.5 23q-19 8 -37 14t-35 14q-38 17 -63.5 43t-25.5 72 q0 34 14.5 57.5t37 38.5t51 22t57.5 7q40 0 70 -8.5t46 -15.5q7 -3 12.5 -7.5t2.5 -12.5l-16 -42q-3 -8 -9.5 -8t-12.5 3q-26 13 -52.5 18.5t-43.5 5.5q-30 0 -55.5 -12t-25.5 -40q0 -17 10 -29t25 -20t32 -13.5t31 -10.5q24 -9 47.5 -19t42 -25t29.5 -37t11 -53z" />
<glyph unicode="&#x3c3;" horiz-adv-x="450" d="M441 380q0 -9 -9 -9h-56q-8 0 -10.5 -4.5t2.5 -10.5q16 -19 22.5 -39t6.5 -43v-113q0 -78 -48.5 -122.5t-127.5 -44.5q-81 0 -128.5 44.5t-47.5 122.5v110q0 36 11 67t32 53t51.5 34.5t68.5 12.5h223q10 0 10 -9v-49zM316 271q0 41 -25 69.5t-70 28.5q-43 0 -70 -28 t-27 -69v-111q0 -41 24.5 -69.5t71.5 -28.5q49 0 72.5 28t23.5 70v110z" />
<glyph unicode="&#x3c4;" horiz-adv-x="332" d="M230 -5q-59 0 -90.5 33.5t-31.5 87.5v244q0 10 -11 10h-72q-10 0 -10 9v49q0 10 8 10h274q10 0 10 -9v-49q0 -10 -10 -10h-99q-11 0 -11 -10v-229q0 -25 12 -44t42 -19q10 0 23 1.5t21 3.5t11 1t5 -6l10 -48q2 -8 -1 -11.5t-10 -5.5q-29 -8 -70 -8z" />
<glyph unicode="&#x3c5;" horiz-adv-x="454" d="M406 155q0 -37 -12.5 -67.5t-36 -52t-56 -33.5t-72.5 -12t-72.5 11.5t-55.5 33.5t-35.5 52t-12.5 68v273q0 10 10 10h60q10 0 10 -10v-273q0 -39 25.5 -68t70.5 -29q46 0 71 28.5t25 68.5v273q0 10 10 10h62q9 0 9 -10v-273v0z" />
<glyph unicode="&#x3c6;" horiz-adv-x="531" d="M490 158q0 -36 -13 -66t-36 -52t-55 -35.5t-70 -14.5q-6 0 -7.5 -2.5t-1.5 -7.5v-151q0 -10 -10 -10h-61q-9 0 -9 9v152q0 10 -10 10q-38 1 -70.5 14t-55.5 35t-36 52t-13 66v123q0 52 28 90t72 58l9 4q7 2 9.5 0.5t4.5 -6.5l23 -47q4 -9 -7 -14q-25 -11 -42 -34t-17 -50 v-123q0 -18 7.5 -35.5t20.5 -31t30 -22t36 -9.5q10 -1 10 9v366q0 10 10 10h59q39 0 74.5 -11t62 -32.5t42.5 -53t16 -72.5v-118zM410 275q0 41 -28.5 67.5t-65.5 31.5q-10 0 -10 -10v-294q0 -10 10 -10q18 2 35 10.5t30 22t21 30t8 35.5v117z" />
<glyph unicode="&#x3c7;" horiz-adv-x="387" d="M375 14q4 -5 2.5 -9.5t-9.5 -4.5h-61q-7 0 -12.5 2t-10.5 10l-85 145q-4 7 -7 4l-5 -5l-84 -144q-5 -8 -10.5 -10t-12.5 -2h-60q-8 0 -9.5 4.5t2.5 9.5l125 199q7 11 6 16.5t-5 12.5l-113 181q-4 6 -2 10.5t10 4.5h58q10 0 14 -1.5t9 -9.5l74 -127q4 -6 6.5 -5t4.5 6 l73 126q5 8 9 9.5t14 1.5h58q8 0 10 -4.5t-2 -10.5l-115 -182q-6 -10 -4 -15t4 -9z" />
<glyph unicode="&#x3c8;" horiz-adv-x="535" d="M490 158q0 -36 -12.5 -66t-35 -52t-54.5 -35.5t-70 -14.5q-6 0 -7.5 -2.5t-1.5 -7.5v-151q0 -10 -10 -10h-61q-9 0 -9 9v152q0 10 -10 10q-38 1 -70 14t-55 35t-35.5 52t-12.5 66v271q0 10 9 10h61q10 0 10 -9v-271q0 -41 27.5 -68t65.5 -30q9 0 9 9v388q0 10 10 10h61 q9 0 9 -10v-387q0 -10 10 -10q18 2 35 10.5t29.5 21t20 29.5t7.5 36v271q0 10 9 10h61q10 0 10 -9v-271v0z" />
<glyph unicode="&#x3c9;" horiz-adv-x="632" d="M583 161q0 -79 -42 -123t-111 -44q-25 0 -43 5t-31.5 14t-23 20.5t-16.5 25.5q-17 -27 -45.5 -46t-73.5 -19q-67 0 -107.5 42t-40.5 113v133q0 36 12 66t34 51.5t52.5 33.5t66.5 12q6 0 10.5 -1t4.5 -9v-51q0 -9 -9 -9q-40 -2 -66 -29t-26 -65v-116q0 -47 20.5 -74.5 t54.5 -27.5q36 0 54.5 28.5t18.5 66.5v155q-2 9 9 9h61q10 0 10 -8v-156q0 -38 18.5 -66t55.5 -28q34 0 54.5 23t20.5 57v137q0 38 -27 65t-65 29q-10 0 -10 9v51q0 8 4.5 9t9.5 1q37 0 67.5 -12t52.5 -34t34 -52t12 -66v-120z" />
<glyph unicode="&#x3ca;" horiz-adv-x="213" d="M148 10q0 -10 -10 -10h-62q-10 0 -10 9v419q0 10 9 10h63q10 0 10 -9v-419zM237 545q0 -20 -13 -33.5t-33 -13.5t-34 13.5t-14 33.5t13.5 33.5t33.5 13.5t33.5 -13.5t13.5 -33.5zM75 545q0 -20 -13.5 -33.5t-33.5 -13.5t-33.5 13.5t-13.5 33.5t13.5 33.5t33.5 13.5 t33.5 -13.5t13.5 -33.5z" />
<glyph unicode="&#x3cb;" horiz-adv-x="454" d="M363 545q0 -20 -13 -33.5t-33 -13.5t-34 13.5t-14 33.5t13.5 33.5t33.5 13.5t33.5 -13.5t13.5 -33.5zM201 545q0 -20 -13.5 -33.5t-33.5 -13.5t-33.5 13.5t-13.5 33.5t13.5 33.5t33.5 13.5t33.5 -13.5t13.5 -33.5zM406 155q0 -37 -12.5 -67.5t-36 -52t-56 -33.5 t-72.5 -12t-72.5 11.5t-55.5 33.5t-35.5 52t-12.5 68v273q0 10 10 10h60q10 0 10 -10v-273q0 -39 25.5 -68t70.5 -29q46 0 71 28.5t25 68.5v273q0 10 10 10h62q9 0 9 -10v-273z" />
<glyph unicode="&#x3cc;" horiz-adv-x="448" d="M400 163q0 -81 -47.5 -125t-128.5 -44q-83 0 -129.5 43.5t-46.5 124.5v115q0 77 45 122.5t130 45.5t131 -44t46 -124v-114zM320 277q0 43 -23.5 70.5t-72.5 27.5q-44 0 -70 -27t-26 -71v-115q0 -43 22 -71t73 -28t73.5 27.5t23.5 71.5v115zM234 490q-3 -4 -9 -6t-12 2 l-19 12q-9 7 -3 18l75 127q3 5 9 9t11 0l44 -29q8 -6 7 -12t-4 -10z" />
<glyph unicode="&#x3cd;" horiz-adv-x="454" d="M406 155q0 -37 -12.5 -67.5t-36 -52t-56 -33.5t-72.5 -12t-72.5 11.5t-55.5 33.5t-35.5 52t-12.5 68v273q0 10 10 10h60q10 0 10 -10v-273q0 -39 25.5 -68t70.5 -29q46 0 71 28.5t25 68.5v273q0 10 10 10h62q9 0 9 -10v-273zM239 490q-3 -4 -9 -6t-12 2l-19 12 q-9 7 -3 18l75 127q3 5 9 9t11 0l44 -29q8 -6 7 -12t-4 -10z" />
<glyph unicode="&#x3ce;" horiz-adv-x="632" d="M583 161q0 -79 -42 -123t-111 -44q-25 0 -43 5t-31.5 14t-23 20.5t-16.5 25.5q-17 -27 -45.5 -46t-73.5 -19q-67 0 -107.5 42t-40.5 113v133q0 36 12 66t34 51.5t52.5 33.5t66.5 12q6 0 10.5 -1t4.5 -9v-51q0 -9 -9 -9q-40 -2 -66 -29t-26 -65v-116q0 -47 20.5 -74.5 t54.5 -27.5q36 0 54.5 28.5t18.5 66.5v155q-2 9 9 9h61q10 0 10 -8v-156q0 -38 18.5 -66t55.5 -28q34 0 54.5 23t20.5 57v137q0 38 -27 65t-65 29q-10 0 -10 9v51q0 8 4.5 9t9.5 1q37 0 67.5 -12t52.5 -34t34 -52t12 -66v-120zM315 490q-3 -4 -9 -6t-12 2l-19 12q-9 7 -3 18 l75 127q3 5 9 9t11 0l44 -29q8 -6 7 -12t-4 -10z" />
<glyph unicode="&#x401;" horiz-adv-x="440" d="M410 12q0 -12 -12 -12h-326q-12 0 -12 11v595q0 11 12 11h322q13 0 13 -11v-49q0 -12 -12 -12h-243q-8 0 -8 -8v-171q0 -8 7 -8h201q12 0 12 -12v-50q0 -11 -11 -11h-201q-8 0 -8 -9v-194q0 -9 7 -9h247q12 0 12 -11v-50zM359 700q0 -20 -13 -33.5t-33 -13.5t-34 13.5 t-14 33.5t13.5 33.5t33.5 13.5t33.5 -13.5t13.5 -33.5zM197 700q0 -20 -13.5 -33.5t-33.5 -13.5t-33.5 13.5t-13.5 33.5t13.5 33.5t33.5 13.5t33.5 -13.5t13.5 -33.5z" />
<glyph unicode="&#x402;" horiz-adv-x="619" d="M471 219q0 23 -4.5 43t-16.5 35t-32.5 24t-53.5 9q-35 0 -63 -10t-46 -25q-2 -2 -4.5 -5t-2.5 -11v-268q0 -11 -11 -11h-60q-12 0 -12 10v526q0 9 -8 9h-121q-12 0 -12 11v50q0 11 12 11h423q12 0 12 -10v-51q0 -11 -12 -11h-202q-9 0 -9 -8v-156q0 -7 4 -6t8 3 q58 26 121 26q81 0 127.5 -47t46.5 -125v-81q0 -21 -3 -50t-19 -57.5t-48.5 -52t-91.5 -32.5q-11 -2 -17.5 -0.5t-7.5 11.5l-6 45q-2 11 5.5 12.5t14.5 3.5q31 7 49 20t27 29.5t11 35t2 36.5v67v0z" />
<glyph unicode="&#x403;" horiz-adv-x="426" d="M418 556q0 -11 -12 -11h-234q-8 0 -8 -8v-525q0 -12 -11 -12h-61q-12 0 -12 11v595q0 11 12 11h314q12 0 12 -10v-51zM198 646q-5 -2 -11 -1.5t-10 5.5l-13 18q-8 10 3 18l116 92q5 4 11 5t11 -4l30 -44q6 -8 3 -13t-8 -7z" />
<glyph unicode="&#x404;" horiz-adv-x="448" d="M410 551q5 -6 5 -10.5t-8 -11.5l-38 -32q-4 -4 -10.5 -2.5t-10.5 6.5q-18 23 -47 37t-60 14q-48 0 -73.5 -27t-25.5 -70v-97q0 -4 2 -4.5t4 -0.5h192q12 0 12 -12v-50q0 -11 -11 -11h-192q-2 0 -4.5 -0.5t-2.5 -5.5v-110q0 -42 28 -69.5t76 -27.5q31 0 58 15.5t44 32.5 q5 6 10 9.5t13 -2.5l40 -33q3 -2 3.5 -7t-1.5 -9q-30 -39 -74 -59t-93 -20q-40 0 -74.5 11t-59.5 32.5t-39.5 53t-14.5 72.5v292q0 39 13.5 70.5t37.5 53.5t57.5 34t73.5 12q46 0 89 -15t81 -59z" />
<glyph unicode="&#x405;" horiz-adv-x="453" d="M207 68q57 0 93 25.5t36 76.5q0 25 -10.5 42.5t-27 29.5t-37 20.5t-40.5 15.5q-29 10 -61 23t-58.5 33t-44 49.5t-17.5 71.5q0 40 14 71.5t38.5 53.5t57.5 33.5t71 11.5q36 0 81 -9t88 -41q9 -7 6 -12.5t-5 -9.5l-24 -38q-5 -7 -12 -6t-13 5q-34 20 -60 28.5t-52 8.5 q-22 0 -41.5 -5t-34 -16.5t-23 -30t-8.5 -46.5q0 -20 10.5 -35t27.5 -26.5t38 -20.5t42 -17q33 -13 65 -26.5t57 -33.5t40.5 -49t15.5 -74q0 -41 -15.5 -73.5t-43.5 -55t-67 -35t-85 -12.5q-57 0 -106.5 19.5t-76.5 57.5q-9 10 4 20l37 34q6 5 10.5 2.5t11.5 -9.5 q23 -25 54 -38t65 -13z" />
<glyph unicode="&#x406;" horiz-adv-x="241" d="M162 12q0 -12 -12 -12h-62q-12 0 -12 11v595q0 11 12 11h62q12 0 12 -10v-595v0z" />
<glyph unicode="&#x407;" horiz-adv-x="241" d="M162 12q0 -12 -12 -12h-62q-12 0 -12 11v595q0 11 12 11h62q12 0 12 -10v-595zM247 700q0 -20 -13 -33.5t-33 -13.5t-34 13.5t-14 33.5t13.5 33.5t33.5 13.5t33.5 -13.5t13.5 -33.5zM85 700q0 -20 -13.5 -33.5t-33.5 -13.5t-33.5 13.5t-13.5 33.5t13.5 33.5t33.5 13.5 t33.5 -13.5t13.5 -33.5z" />
<glyph unicode="&#x408;" horiz-adv-x="269" d="M-10 -63q-2 8 -1.5 13t11.5 9q27 11 50 23t39 30t25 44t9 66v482q0 13 15 13h52q15 0 15 -13v-474q0 -47 -8.5 -86t-29.5 -70t-56 -53.5t-88 -37.5q-8 -2 -12.5 0.5t-7.5 13.5z" />
<glyph unicode="&#x409;" horiz-adv-x="780" d="M441 617q6 -1 8 -3t4 -7v-234q0 -9 8 -9h103q42 0 77.5 -14t60.5 -38.5t39 -58t14 -72.5t-13.5 -72t-38.5 -57.5t-60.5 -38t-79.5 -13.5h-181q-8 0 -10.5 3t-2.5 8v526q0 9 -8 9h-152q-8 0 -8 -9v-89q0 -127 -5.5 -209t-22 -133t-46.5 -77.5t-78 -42.5q-9 -3 -12.5 0 t-6.5 9l-14 38q-4 12 12 19q20 10 34.5 20.5t25 27t17.5 42.5t11 66.5t5.5 99t1.5 139.5v159q0 11 12 11h306zM563 73q24 0 44.5 8.5t34.5 23.5t22 34.5t8 40.5q0 56 -31 84t-78 28h-102q-8 0 -8 -7v-207q2 -5 9 -5h101z" />
<glyph unicode="&#x40a;" horiz-adv-x="747" d="M337 283q0 9 -8 9h-174q-8 0 -8 -9v-271q0 -12 -11 -12h-60q-12 0 -12 11v595q0 11 11 11h60q12 0 12 -10v-234q0 -9 8 -9h174q8 0 8 9v234q0 10 12 10h59q12 0 12 -10v-234q0 -9 8 -9h114q43 0 76.5 -14t56.5 -38.5t35 -58t12 -72.5t-13.5 -72t-38.5 -57.5t-60.5 -38 t-79.5 -13.5h-181q-12 0 -12 12v271zM530 73q24 0 44.5 8.5t35 23.5t22.5 34.5t8 40.5q0 56 -31.5 84t-78.5 28h-102q-8 0 -8 -9v-202q0 -8 9 -8h101z" />
<glyph unicode="&#x40b;" horiz-adv-x="609" d="M247 381q0 -7 4 -6t8 3q58 26 121 26q81 0 127.5 -47t46.5 -125v-221q0 -11 -11 -11h-62q-11 0 -11 10v209q0 23 -4.5 43t-16.5 35t-32.5 24t-53.5 9q-35 0 -63 -10t-46 -25q-2 -2 -4.5 -5t-2.5 -11v-268q0 -11 -11 -11h-60q-12 0 -12 10v526q0 9 -8 9h-121q-12 0 -12 11 v50q0 11 12 11h423q12 0 12 -10v-51q0 -11 -12 -11h-202q-9 0 -9 -8v-156v0z" />
<glyph unicode="&#x40c;" horiz-adv-x="499" d="M445 617q10 0 12 -4.5t-2 -9.5l-185 -227q-4 -5 -2 -7.5t7 -2.5q7 0 13.5 0.5t12.5 -0.5q69 -5 103.5 -48t39.5 -117l15 -191q0 -10 -10 -10h-58q-11 0 -11 9l-12 180q-1 16 -5 36t-15 37t-31 28.5t-54 11.5q-57 0 -86 -33t-29 -86v-173q0 -10 -9 -10h-65q-11 0 -11 9 v598q0 10 11 10h65q9 0 9 -9v-248q0 -9 4 -8t7 4l207 254q6 7 14 7h65zM222 649q-5 -2 -11 -1.5t-10 5.5l-13 18q-8 10 3 18l116 92q5 4 11 5t11 -4l30 -44q6 -8 3 -13t-8 -7z" />
<glyph unicode="&#x40e;" horiz-adv-x="434" d="M78 618q17 0 21 -11l118 -357q3 -4 7 0l113 355q4 13 23 13h50q11 0 12.5 -4.5t-1.5 -11.5l-154 -456q-12 -36 -23 -65.5t-26 -50.5t-36.5 -32t-55.5 -11h-45q-11 0 -13.5 3.5t-2.5 14.5v40q0 11 2.5 13.5t10.5 2.5h26q20 0 32.5 5t23.5 24t13.5 32.5t-3.5 31.5l-158 447 q-7 17 10 17h56zM102 752q0 5 2 8t10 3h21q8 0 10 -3t4 -10q9 -29 24.5 -44t44.5 -15q54 0 69 59q2 7 3.5 10t10.5 3h21q8 0 10 -3t2 -8q-1 -25 -10 -47.5t-24 -39t-36 -26t-47 -9.5q-24 0 -44.5 9.5t-36 26t-24.5 39t-10 47.5z" />
<glyph unicode="&#x40f;" horiz-adv-x="556" d="M317 -147q-1 -12 -6.5 -15.5t-11.5 -3.5h-46q-8 0 -10.5 4.5t-3.5 14.5v136q-1 6 -3 8.5t-13 2.5h-136q-12 0 -12 12v595q0 10 12 10h61q12 0 12 -11v-525q0 -9 8 -9h221q8 0 8 9v526q0 10 11 10h61q12 0 12 -11v-595q0 -11 -12 -11h-137q-15 0 -15 -12v-135z" />
<glyph unicode="&#x410;" horiz-adv-x="457" d="M366 0q-13 0 -14 7l-33 130q-2 4 -4 4h-177q-4 0 -4.5 -1t-1.5 -2l-32 -131q-1 -7 -13 -7h-54q-8 0 -11.5 3t-1.5 12l148 590q1 5 4.5 8.5t11.5 3.5h85q12 0 15 -10l152 -590q2 -5 1 -11t-10 -6h-61zM196 402l-45 -184q-1 -5 -0.5 -6.5t5.5 -1.5h138q5 0 6 1.5t0 6.5 l-44 180l-28 126q-1 3 -2.5 3t-2.5 -2z" />
<glyph unicode="&#x411;" horiz-adv-x="473" d="M148 373q0 -9 8 -9h102q45 0 80.5 -14t60 -38.5t37.5 -58t13 -72.5t-13.5 -72t-38.5 -57.5t-60.5 -38t-79.5 -13.5h-181q-12 0 -12 12v595q0 10 12 10h312q12 0 12 -10v-51q0 -11 -12 -11h-232q-8 0 -8 -8v-164zM257 73q24 0 44.5 8.5t34.5 23.5t22 34.5t8 40.5 q0 56 -31 84t-78 28h-102q-8 0 -8 -9v-202q0 -8 9 -8h101z" />
<glyph unicode="&#x412;" horiz-adv-x="476" d="M438 184q0 -41 -12.5 -74.5t-36 -58t-56.5 -38t-74 -13.5h-193q-12 0 -12 11v595q0 11 11 11h179q81 0 128.5 -41t47.5 -120q0 -16 -5 -33t-14 -33t-21 -30t-26 -24q-2 -4 1 -7q41 -21 62 -61t21 -84zM355 181q0 21 -5.5 41.5t-18.5 36t-34 25.5t-51 10h-100q-8 0 -8 -8 v-204q0 -9 8 -9h111q46 0 72 30t26 78zM337 458q0 40 -24 63.5t-70 23.5h-97q-8 0 -8 -8v-163q0 -9 8 -9h98q47 0 70 27.5t23 65.5z" />
<glyph unicode="&#x413;" horiz-adv-x="426" d="M418 556q0 -11 -12 -11h-234q-8 0 -8 -8v-525q0 -12 -11 -12h-61q-12 0 -12 11v595q0 11 12 11h314q12 0 12 -10v-51v0z" />
<glyph unicode="&#x414;" horiz-adv-x="555" d="M85 -121q-1 -14 -4.5 -16.5t-10.5 -2.5h-46q-8 0 -11 2.5t-4 11.5v164q0 15 4 19t13 8l18 7q29 11 44.5 46.5t21.5 90.5q4 30 6.5 63.5t5.5 78t5.5 104.5t6.5 143q1 11 5.5 15t14.5 4h300q9 0 13.5 -4t4.5 -15v-516q0 -2 1 -5.5t5 -3.5h21q11 0 13.5 -4.5t2.5 -14.5v-176 q-1 -14 -4.5 -16t-10.5 -2h-44q-8 0 -11.5 3t-4.5 15v113q-1 7 -5 8t-9 1h-327q-9 0 -10.5 -2.5t-3.5 -10.5v-108zM216 545q-5 0 -6.5 -4t-1.5 -6q-2 -35 -4 -78t-4 -87t-5 -84.5t-6 -71.5q-2 -14 -5 -31.5t-7.5 -36t-11 -36t-14.5 -31.5q-4 -6 5 -6h223q2 0 5.5 1t3.5 8 v451q0 12 -13 12h-159z" />
<glyph unicode="&#x415;" horiz-adv-x="440" d="M410 12q0 -12 -12 -12h-326q-12 0 -12 11v595q0 11 12 11h322q13 0 13 -11v-49q0 -12 -12 -12h-243q-8 0 -8 -8v-171q0 -8 7 -8h201q12 0 12 -12v-50q0 -11 -11 -11h-201q-8 0 -8 -9v-194q0 -9 7 -9h247q12 0 12 -11v-50v0z" />
<glyph unicode="&#x416;" horiz-adv-x="765" d="M114 617q8 0 14 -7l201 -245q2 -3 6 -4.5t5 5.5v242q0 9 9 9h65q11 0 11 -10v-244q1 -7 4.5 -5.5t6.5 4.5l201 248q6 7 14 7h64q10 0 12 -4.5t-2 -9.5l-185 -231q-4 -5 -2 -7.5t7 -2.5h13.5t12.5 -1q65 -6 102 -51t42 -119l14 -181q1 -10 -10 -10h-58q-11 0 -11 9 l-14 176q-1 16 -5.5 36t-15.5 37t-30.5 28.5t-49.5 11.5q-54 0 -82 -34.5t-28 -85.5v-169q0 -9 -11 -9h-65q-9 0 -9 10v175q0 53 -25 83t-83 30q-31 0 -51 -11.5t-31.5 -28.5t-16.5 -37t-6 -36l-12 -176q0 -9 -11 -9h-58q-11 0 -10 10l20 200q6 62 40.5 102.5t92.5 48.5 q8 1 15.5 1h15.5q5 0 7 2.5t-2 7.5l-185 231q-4 5 -2 9.5t12 4.5h64z" />
<glyph unicode="&#x417;" horiz-adv-x="485" d="M238 625q45 0 79 -12.5t57.5 -34t35.5 -51.5t12 -65q0 -19 -5 -39t-15 -38t-24.5 -32.5t-33.5 -20.5q-2 -1 -2 -2.5t1 -2.5q38 -14 64 -50.5t26 -90.5q0 -43 -14.5 -78.5t-41.5 -60.5t-65.5 -39t-86.5 -14q-27 0 -54.5 4t-52.5 13.5t-45.5 26t-33.5 40.5q-2 5 -1 9.5 t8 9.5q9 7 20 13.5t20 13.5q7 5 11.5 5t9.5 -7q16 -23 48 -39t70 -16q60 0 92 33t32 81q0 58 -34.5 85t-86.5 27h-69q-12 0 -12 11v51q0 11 11 11h86q42 0 68 25.5t26 67.5q0 40 -27 67t-80 27q-24 0 -52.5 -11.5t-51.5 -37.5q-4 -4 -9 -7.5t-13 0.5l-39 26q-8 5 -7 11t4 11 q26 41 72.5 60.5t102.5 19.5z" />
<glyph unicode="&#x418;" horiz-adv-x="519" d="M62 607q0 10 12 10h56q11 0 11 -11v-441q0 -2 1 -1.5t2 2.5l233 435q5 7 10 11.5t17 4.5h46q11 0 11 -11v-595q0 -11 -12 -11h-57q-11 0 -11 12v447q0 3 -3 0q-55 -106 -116.5 -222t-116.5 -222q-5 -11 -9 -13t-17 -2h-45q-12 0 -12 12v595z" />
<glyph unicode="&#x419;" horiz-adv-x="519" d="M62 607q0 10 12 10h56q11 0 11 -11v-441q0 -2 1 -1.5t2 2.5l233 435q5 7 10 11.5t17 4.5h46q11 0 11 -11v-595q0 -11 -12 -11h-57q-11 0 -11 12v447q0 3 -3 0q-55 -106 -116.5 -222t-116.5 -222q-5 -11 -9 -13t-17 -2h-45q-12 0 -12 12v595zM145 752q0 5 2 8t10 3h21 q8 0 10 -3t4 -10q9 -29 24.5 -44t44.5 -15q54 0 69 59q2 7 3.5 10t10.5 3h21q8 0 10 -3t2 -8q-1 -25 -10 -47.5t-24 -39t-36 -26t-47 -9.5q-24 0 -44.5 9.5t-36 26t-24.5 39t-10 47.5z" />
<glyph unicode="&#x41a;" horiz-adv-x="499" d="M445 617q10 0 12 -4.5t-2 -9.5l-185 -227q-4 -5 -2 -7.5t7 -2.5q7 0 13.5 0.5t12.5 -0.5q69 -5 103.5 -48t39.5 -117l15 -191q0 -10 -10 -10h-58q-11 0 -11 9l-12 180q-1 16 -5 36t-15 37t-31 28.5t-54 11.5q-57 0 -86 -33t-29 -86v-173q0 -10 -9 -10h-65q-11 0 -11 9 v598q0 10 11 10h65q9 0 9 -9v-248q0 -9 4 -8t7 4l207 254q6 7 14 7h65z" />
<glyph unicode="&#x41b;" horiz-adv-x="523" d="M212 546q-8 0 -8 -9v-129q0 -113 -7 -186t-24.5 -119t-47.5 -72t-77 -45q-2 -1 -7 -1q-9 0 -12 10l-14 39q0 1 -0.5 2t-0.5 2q0 5 4 8.5t9 5.5q19 10 34 20t26.5 26t20 40t13.5 61t7.5 90t2.5 127v190q0 11 12 11h307q12 0 12 -10v-595q0 -12 -12 -12h-61q-11 0 -11 11 v526q0 9 -8 9h-158z" />
<glyph unicode="&#x41c;" horiz-adv-x="627" d="M577 12q0 -12 -11 -12h-57q-11 0 -11 11v388q0 2 -1.5 2.5t-2.5 -1.5l-42 -117l-97 -249q-2 -3 -6 -8.5t-13 -5.5h-39q-8 0 -12.5 2.5t-7.5 10.5l-92 242l-43 122q-3 3 -3 0v-385q0 -12 -11 -12h-56q-12 0 -12 11v587q0 19 18 19h39q14 0 17 -2.5t8 -12.5l134 -358 l38 -110q5 -8 9 -1q10 27 19.5 56.5t19.5 56.5l133 357q5 8 9.5 11t14.5 3h40q11 0 14.5 -5t3.5 -13v-587v0z" />
<glyph unicode="&#x41d;" horiz-adv-x="627" d="M461 12q0 -12 -12 -12h-61q-12 0 -12 11v263q0 9 -8 9h-213q-8 0 -8 -9v-262q0 -12 -11 -12h-61q-12 0 -12 11v595q0 11 11 11h61q12 0 12 -10v-243q0 -9 8 -9h213q8 0 8 9v242q0 11 11 11h61q13 0 13 -10v-595v0z" />
<glyph unicode="&#x41e;" horiz-adv-x="497" d="M439 165q0 -41 -14.5 -72.5t-40 -53.5t-60 -33.5t-75.5 -11.5t-75.5 11t-60.5 32.5t-40.5 53.5t-14.5 74v290q0 40 15 71.5t40.5 53.5t60 33.5t74.5 11.5q39 0 73.5 -11t61 -32.5t41.5 -53.5t15 -73v-290zM355 453q0 43 -29 71t-77 28q-49 0 -78 -28.5t-29 -70.5v-286 q0 -45 27.5 -72.5t78.5 -27.5q50 0 78.5 27.5t28.5 72.5v286z" />
<glyph unicode="&#x41f;" horiz-adv-x="546" d="M481 12q0 -12 -12 -12h-61q-11 0 -11 11v526q0 9 -8 9h-221q-8 0 -8 -9v-525q0 -12 -12 -12h-61q-12 0 -12 11v595q0 11 12 11h382q12 0 12 -10v-595v0z" />
<glyph unicode="&#x420;" horiz-adv-x="458" d="M434 434q0 -37 -14 -70t-39 -57.5t-59 -38.5t-74 -14h-92q-8 0 -8 -9v-233q0 -12 -12 -12h-60q-12 0 -12 11v595q0 11 12 11h171q44 0 78.5 -14t58.5 -38.5t37 -58t13 -72.5zM156 545q-9 0 -9 -8v-203q0 -9 8 -9h92q47 0 75.5 29.5t28.5 80.5q0 19 -6.5 39t-19.5 35.5 t-32.5 25.5t-45.5 10h-91z" />
<glyph unicode="&#x421;" horiz-adv-x="430" d="M410 551q5 -6 5 -10.5t-8 -11.5l-38 -32q-4 -4 -10.5 -2.5t-10.5 6.5q-18 23 -47 37t-60 14q-48 0 -73.5 -27t-25.5 -70v-291q0 -42 28 -69.5t76 -27.5q31 0 58 15.5t44 32.5q5 6 10 9.5t13 -2.5l40 -33q3 -2 3.5 -7t-1.5 -9q-30 -39 -74 -59t-93 -20q-40 0 -74.5 11 t-59.5 32.5t-39.5 53t-14.5 72.5v292q0 39 13.5 70.5t37.5 53.5t57.5 34t73.5 12q46 0 89 -15t81 -59z" />
<glyph unicode="&#x422;" horiz-adv-x="417" d="M402 556q0 -11 -12 -11h-132q-9 0 -9 -8v-525q0 -12 -11 -12h-61q-12 0 -12 11v525q0 9 -8 9h-130q-12 0 -12 11v50q0 11 12 11h363q12 0 12 -10v-51v0z" />
<glyph unicode="&#x423;" horiz-adv-x="434" d="M78 618q17 0 21 -11l118 -357q3 -4 7 0l113 355q4 13 23 13h50q11 0 12.5 -4.5t-1.5 -11.5l-154 -456q-12 -36 -23 -65.5t-26 -50.5t-36.5 -32t-55.5 -11h-45q-11 0 -13.5 3.5t-2.5 14.5v40q0 11 2.5 13.5t10.5 2.5h26q20 0 32.5 5t23.5 24t13.5 32.5t-3.5 31.5l-158 447 q-7 17 10 17h56z" />
<glyph unicode="&#x424;" horiz-adv-x="571" d="M512 235q0 -33 -14.5 -63t-38.5 -53t-56 -37.5t-68 -17.5q-10 -1 -10 -11v-42q0 -11 -10 -11h-61q-10 0 -10 10v43q0 11 -11 11q-37 2 -68.5 15.5t-55 36t-37 53t-13.5 66.5v170q0 36 13 66.5t36 53t55 36.5t71 16q9 0 9 7v22q0 11 11 11h60q11 0 11 -10v-23q0 -7 7 -7 q40 -2 73 -15.5t57 -36t37 -53t13 -66.5v-171zM433 410q0 19 -5.5 36t-17.5 30t-31 21t-47 9q-7 0 -7 -7v-352q0 -9 10 -9q40 5 69 29t29 66v177zM244 497q0 9 -9 9q-47 -2 -71.5 -31t-24.5 -64v-178q0 -35 25.5 -62.5t70.5 -32.5q9 0 9 8v351z" />
<glyph unicode="&#x425;" horiz-adv-x="451" d="M234 233q-1 3 -4.5 4.5t-5.5 -3.5l-111 -223q-5 -8 -9.5 -9.5t-12.5 -1.5h-62q-17 0 -9 16l154 294q5 11 3 16t-4 9l-140 268q-8 14 11 14h66q9 0 13 -2.5t7 -8.5l97 -200q4 -4 8 0q25 49 50 99.5t49 100.5q3 6 7 8.5t13 2.5h60q16 0 11 -14q-35 -68 -71.5 -136 t-71.5 -136q-5 -12 0 -20q18 -34 37.5 -71.5t40 -76t40.5 -76t38 -71.5q8 -16 -9 -16h-62q-8 0 -13 1.5t-9 9.5z" />
<glyph unicode="&#x426;" horiz-adv-x="556" d="M481 81q0 -2 1 -5t5 -4h34q12 0 14 -7t2 -15v-172q-1 -12 -5 -15t-11 -3h-42q-7 0 -12 2t-5 16v113q-1 7 -5 8t-9 1h-361q-12 0 -12 12v595q0 10 12 10h61q12 0 12 -11v-525q0 -9 8 -9h221q8 0 8 9v526q0 10 11 10h61q12 0 12 -11v-525z" />
<glyph unicode="&#x427;" horiz-adv-x="483" d="M340 272q0 7 -4 6t-8 -3q-23 -14 -57.5 -21.5t-62.5 -7.5q-37 0 -69 12.5t-55 35t-36.5 54.5t-13.5 71v188q0 11 11 11h62q11 0 11 -10v-176q0 -46 24 -78.5t83 -32.5q35 0 63 10t46 25q2 2 4.5 5t2.5 11v235q0 11 11 11h60q12 0 12 -10v-597q0 -11 -12 -11h-60 q-12 0 -12 12v260z" />
<glyph unicode="&#x428;" horiz-adv-x="777" d="M702 11q0 -11 -12 -11h-602q-12 0 -12 12v595q0 10 12 10h60q12 0 12 -11v-525q0 -9 8 -9h172q8 0 8 9v526q0 10 11 10h61q12 0 12 -11v-525q0 -9 8 -9h171q8 0 8 9v526q0 10 11 10h60q12 0 12 -11v-595z" />
<glyph unicode="&#x429;" horiz-adv-x="777" d="M88 0q-12 0 -12 12v595q0 10 12 10h60q12 0 12 -11v-525q0 -9 8 -9h172q8 0 8 9v526q0 10 11 10h61q12 0 12 -11v-525q0 -9 8 -9h171q8 0 8 9v526q0 10 11 10h60q12 0 12 -11v-525q0 -2 1.5 -5.5t6.5 -3.5h32q12 0 14 -7t2 -15v-172q0 -12 -4.5 -15t-11.5 -3h-43 q-7 0 -12 2.5t-5 15.5v113q-1 7 -5 8t-9 1h-580z" />
<glyph unicode="&#x42a;" horiz-adv-x="600" d="M383 73q24 0 44.5 8.5t35 23.5t22.5 34.5t8 40.5q0 56 -31.5 84t-78.5 28h-102q-8 0 -8 -9v-202q0 -8 9 -8h101zM191 535q0 8 -8 8l-156 1q-12 0 -12 11v51q0 10 12 10h234q12 0 12 -11v-232q0 -9 8 -9h106q46 0 81 -14t59 -38.5t36 -58t12 -72.5t-13.5 -72t-38.5 -57.5 t-60.5 -38t-79.5 -13.5h-180q-12 0 -12 12v523z" />
<glyph unicode="&#x42b;" horiz-adv-x="655" d="M147 373q0 -9 8 -9h115q41 0 74 -14t56.5 -38.5t36 -58t12.5 -72.5t-13.5 -72t-38.5 -57.5t-60.5 -38t-79.5 -13.5h-181q-11 0 -11 12v595q0 10 11 10h59q12 0 12 -10v-234zM595 12q0 -12 -11 -12h-62q-12 0 -12 11v595q0 11 12 11h62q11 0 11 -10v-595zM257 73 q24 0 44.5 8.5t35 23.5t22.5 34.5t8 40.5q0 56 -31.5 84t-78.5 28h-102q-8 0 -8 -9v-202q0 -8 9 -8h101z" />
<glyph unicode="&#x42c;" horiz-adv-x="473" d="M147 373q0 -9 8 -9h110q45 0 79 -14t57.5 -38.5t35.5 -58t12 -72.5t-13.5 -72t-38.5 -57.5t-60.5 -38t-79.5 -13.5h-181q-12 0 -12 12v595q0 10 12 10h59q12 0 12 -10v-234zM257 73q24 0 44.5 8.5t34.5 23.5t22 34.5t8 40.5q0 56 -31 84t-78 28h-102q-8 0 -8 -9v-202 q0 -8 9 -8h101z" />
<glyph unicode="&#x42d;" horiz-adv-x="448" d="M44 552q19 22 41 36t44.5 22.5t45.5 11.5t43 3q94 0 137 -45.5t43 -124.5v-292q0 -82 -53.5 -125.5t-141.5 -43.5q-49 0 -93 20t-74 59q-2 4 -1.5 9t3.5 7l40 33q8 6 13 2.5t10 -9.5q17 -17 44 -32.5t58 -15.5q59 0 85 27.5t26 69.5v121q0 5 -2.5 5.5t-4.5 0.5h-192 q-11 0 -11 11v50q0 12 12 12h192q2 0 4 0.5t2 4.5v86q0 43 -24.5 69.5t-81.5 26.5q-26 0 -55 -12.5t-53 -38.5q-9 -9 -16 -2l-37 32q-8 7 -8 11.5t5 10.5z" />
<glyph unicode="&#x42e;" horiz-adv-x="688" d="M248 274q0 5 -1 7t-8 2h-84q-8 0 -8 -9v-262q0 -12 -11 -12h-61q-11 0 -11 11v595q0 11 10 11h61q12 0 12 -10v-243q0 -9 8 -9h83q6 0 8 0.5t2 5.5v94q0 40 14.5 71.5t40 53.5t60.5 33.5t75 11.5q39 0 73.5 -11t60.5 -32.5t41 -53.5t15 -73v-290q0 -41 -14 -72.5 t-39.5 -53.5t-60 -33.5t-75.5 -11.5t-76 11t-60.5 32.5t-40 53.5t-14.5 74v109zM545 453q0 43 -29.5 71t-76.5 28q-49 0 -78.5 -28.5t-29.5 -70.5v-286q0 -45 28 -72.5t79 -27.5q49 0 78 27.5t29 72.5v286z" />
<glyph unicode="&#x42f;" horiz-adv-x="491" d="M253 545q-29 0 -50.5 -10t-35 -25.5t-20 -35.5t-6.5 -39q0 -12 2.5 -26t8.5 -28.5t15.5 -28t23.5 -22.5q3 -2 7 -3.5t9 -1.5h132q8 0 8 9v203q0 8 -9 8h-85zM57 441q0 39 13 71.5t37.5 56t58.5 36t76 12.5h176q12 0 12 -11v-595q0 -11 -12 -11h-60q-12 0 -12 12v233 q0 9 -8 9h-100q-8 0 -10.5 -2.5t-4.5 -7.5l-106 -227q-5 -9 -9 -13t-21 -4h-48q-6 0 -13 2.5t-1 15.5l116 244q2 2 -2 6q-34 28 -58 72.5t-24 100.5z" />
<glyph unicode="&#x430;" horiz-adv-x="438" d="M40 147q0 32 10.5 60t31 48.5t50.5 32.5t70 12q44 0 79 -19q7 -4 12.5 -2.5t5.5 10.5v9q0 40 -20.5 59t-68.5 19q-9 0 -23 -2t-28.5 -5t-28.5 -7.5t-23 -9.5q-11 -5 -15 6l-17 44q-3 10 5 13q27 14 65 22t74 8q46 0 77 -11t49.5 -32t26 -50.5t7.5 -65.5v-276 q0 -10 -9 -10h-55q-9 0 -9 8v18q0 7 -4 8t-9 -4q-20 -20 -45.5 -28t-54.5 -8q-75 0 -114 42t-39 111zM115 149q0 -37 22 -62.5t68 -25.5q41 0 65 25t24 63q0 37 -21.5 62.5t-68.5 25.5q-41 0 -65 -25t-24 -63z" />
<glyph unicode="&#x431;" horiz-adv-x="448" d="M400 163q0 -81 -48.5 -125t-129.5 -44q-85 0 -129.5 43.5t-44.5 124.5v157q0 46 7 91t29.5 84.5t64.5 70.5t111 49q33 8 52 14.5t40 12.5q8 2 12.5 1t6.5 -9l11 -45q2 -9 -4.5 -12t-11.5 -5q-20 -5 -43 -12t-47 -13q-69 -18 -104.5 -53t-41.5 -98q0 -8 7 -4q47 33 102 33 q77 0 119 -45.5t42 -121.5v-94zM319 257q0 43 -25.5 70.5t-69.5 27.5t-70 -27t-26 -71v-95q0 -43 23 -71t70 -28q44 0 71 27.5t27 71.5v95z" />
<glyph unicode="&#x432;" horiz-adv-x="444" d="M399 129q0 -59 -39 -94t-108 -35h-182q-15 0 -15 13v412q0 5 2.5 9t11.5 4h173q68 0 106 -31.5t38 -88.5q0 -23 -12.5 -47t-35.5 -38q-2 -1 -2.5 -2.5t3.5 -3.5q32 -14 46 -41.5t14 -56.5zM322 130q0 27 -18.5 46.5t-56.5 19.5h-109q-4 0 -4 -6v-117q0 -5 5 -5h111 q34 0 53 17.5t19 44.5zM309 315q0 25 -18.5 40.5t-52.5 15.5h-98q-5 0 -5.5 -3t-0.5 -7v-98q0 -7 6 -7h99q34 0 52 17.5t18 41.5z" />
<glyph unicode="&#x433;" horiz-adv-x="345" d="M345 384q0 -13 -14 -13h-186q-10 0 -10.5 -3.5t-0.5 -11.5v-342q0 -14 -14 -14h-52q-14 0 -14 13v412q0 13 14 13h263q14 0 14 -12v-42v0z" />
<glyph unicode="&#x434;" horiz-adv-x="455" d="M196 371q-11 0 -12.5 -4.5t-2.5 -9.5q-5 -65 -9.5 -112.5t-9.5 -85.5q-2 -21 -9 -44.5t-16 -38.5l-2 -4q0 -4 7 -4h157q6 0 9.5 2.5t3.5 11.5v271q0 13 -4 15.5t-14 2.5h-98zM371 438q11 0 15 -2.5t4 -14.5v-341q0 -8 2 -10t9 -2h16q8 0 11 -5.5t3 -12.5v-144 q-1 -13 -5 -15t-10 -2h-37q-8 0 -11.5 2t-4.5 15v84q-1 5 -2 7.5t-10 2.5h-263q-4 0 -7.5 -1.5t-4.5 -9.5v-83q0 -13 -4.5 -15t-10.5 -2h-37q-8 0 -11.5 2t-4.5 15v138q0 8 1.5 13.5t12.5 7.5l17 4q11 3 19.5 12.5t14 22.5t9.5 28t6 28q6 37 9 59t5 46t4.5 57.5t7.5 94.5 q1 12 5 16.5t15 4.5h237z" />
<glyph unicode="&#x435;" horiz-adv-x="438" d="M399 225q0 -11 -6.5 -17.5t-13.5 -6.5h-234q-8 0 -13 -5t-5 -13v-19q0 -20 5 -38.5t16.5 -32t30 -21.5t44.5 -8q30 0 54.5 14t41.5 37q8 11 20 3l35 -24q12 -8 8 -16q-24 -44 -66 -64t-91 -20q-81 0 -129.5 44.5t-48.5 119.5v114q0 38 13 70t36.5 55t55.5 35.5t71 12.5 q40 0 72.5 -12.5t55.5 -35.5t35.5 -55t12.5 -70v-47zM223 376q-42 0 -68 -27t-26 -65v-7q0 -4 3 -8t12 -4h164q10 0 10 11v9q0 38 -24 64.5t-71 26.5z" />
<glyph unicode="&#x436;" horiz-adv-x="703" d="M48 108q3 56 24.5 97t78.5 57q15 4 34 6q10 3 4 10l-132 142q-2 2 -3.5 4.5t-1.5 4.5q0 9 11 9h74q9 0 14 -5l145 -160q5 -5 10 -3t5 13v148q0 9 9 9h62q9 0 9 -10v-151q0 -11 5 -13t10 3l148 164q5 5 14 5h71q11 0 11 -9q0 -2 -1.5 -4.5t-3.5 -4.5l-132 -142 q-6 -7 4 -10q6 -1 12.5 -1.5t11.5 -2.5q31 -7 52.5 -21.5t34 -35t18.5 -45.5t8 -54l4 -91q0 -17 -14 -17h-53q-14 0 -14 14l-5 93q-1 19 -5.5 36.5t-15 31t-28.5 21t-45 7.5q-42 0 -64.5 -28t-22.5 -67v-99q0 -9 -10 -9h-61q-10 0 -10 10v105q0 39 -22 63.5t-64 24.5 q-27 0 -45 -7.5t-28.5 -21t-15 -31t-5.5 -36.5l-5 -93q0 -14 -14 -14h-53q-14 0 -14 17z" />
<glyph unicode="&#x437;" horiz-adv-x="390" d="M181 -6q-45 0 -88 17.5t-73 62.5q-4 5 -3 10.5t11 11.5l39 25q10 7 15 1q18 -23 40.5 -40.5t57.5 -17.5q17 0 33 4t28 13t19.5 23t7.5 34q0 30 -19.5 44.5t-43.5 14.5h-72q-9 0 -9 8v48q0 9 9 9h66q24 0 42.5 10.5t18.5 39.5q0 18 -6.5 30t-17 19.5t-24 10.5t-26.5 3 q-28 0 -51.5 -13.5t-40.5 -38.5q-10 -15 -23 -6l-36 27q-6 4 -7 10.5t3 11.5q60 78 159 78q68 0 111 -31.5t43 -96.5q0 -16 -10.5 -42.5t-38.5 -42.5q-5 -2 -4.5 -5.5t4.5 -5.5q29 -12 43 -38t14 -46q0 -69 -47.5 -105.5t-123.5 -36.5z" />
<glyph unicode="&#x438;" horiz-adv-x="454" d="M55 428q0 10 13 10h54q8 0 9.5 -3t1.5 -8v-286q0 -12 6 -4l54 89l123 197q5 8 9.5 11.5t15.5 3.5h45q8 0 10.5 -3t2.5 -8v-416q0 -11 -11 -11h-57q-7 0 -9.5 2t-2.5 10v289q0 5 -1.5 4.5t-3.5 -2.5l-51 -85l-128 -206q-6 -11 -10 -11.5t-9 -0.5h-48q-8 0 -10.5 2t-2.5 10 v416z" />
<glyph unicode="&#x439;" horiz-adv-x="454" d="M55 428q0 10 13 10h54q8 0 9.5 -3t1.5 -8v-286q0 -12 6 -4l54 89l123 197q5 8 9.5 11.5t15.5 3.5h45q8 0 10.5 -3t2.5 -8v-416q0 -11 -11 -11h-57q-7 0 -9.5 2t-2.5 10v289q0 5 -1.5 4.5t-3.5 -2.5l-51 -85l-128 -206q-6 -11 -10 -11.5t-9 -0.5h-48q-8 0 -10.5 2t-2.5 10 v416zM111 614q0 5 2 8t10 3h21q8 0 10 -3t4 -10q9 -29 24.5 -44t44.5 -15q54 0 69 59q2 7 3.5 10t10.5 3h21q8 0 10 -3t2 -8q-1 -25 -10 -47.5t-24 -39t-36 -26t-47 -9.5q-24 0 -44.5 9.5t-36 26t-24.5 39t-10 47.5z" />
<glyph unicode="&#x43a;" horiz-adv-x="441" d="M414 17q0 -17 -14 -17h-53q-14 0 -14 14l-5 93q-1 19 -5.5 36.5t-15 31t-28.5 21t-45 7.5q-47 0 -71.5 -28t-24.5 -67v-98q0 -10 -10 -10h-61q-10 0 -10 9v421q0 10 9 10h62q9 0 9 -9v-157q0 -11 5 -13t10 3l155 169q5 5 14 5h74q11 0 11 -9q0 -2 -1.5 -4.5t-3.5 -4.5 l-132 -142q-6 -7 4 -10q10 -1 18.5 -2t16.5 -3q28 -7 47 -21.5t30.5 -35t17 -45.5t7.5 -53l4 -91v0z" />
<glyph unicode="&#x43b;" horiz-adv-x="429" d="M92 425q0 13 16 13h252q5 0 9.5 -3t4.5 -9v-412q0 -8 -4.5 -11t-9.5 -3h-54q-8 0 -10.5 3t-2.5 10v348q0 5 -3 7.5t-6 2.5h-107q-5 0 -7.5 -3.5t-2.5 -7.5v-91q0 -81 -8.5 -131t-24.5 -81t-39.5 -47t-54.5 -28q-11 -4 -16 6l-17 39q-3 6 -1.5 9.5t10.5 8.5q20 12 34.5 24 t23.5 34.5t13.5 61t4.5 103.5v157v0z" />
<glyph unicode="&#x43c;" horiz-adv-x="554" d="M275 128q2 -4 4 0l54 120l85 177q5 8 8 10.5t12 2.5h48q13 0 13 -13v-411q0 -14 -14 -14h-51q-9 0 -11.5 3t-2.5 10v246q0 10 -2.5 7t-4.5 -6l-40 -84l-64 -126q-2 -4 -5 -9t-12 -5h-36q-11 0 -17 13l-56 114l-44 96q-2 5 -4 6.5t-2 -6.5v-245q0 -8 -2.5 -11t-10.5 -3 h-50q-15 0 -15 13v411q0 5 3 9.5t11 4.5h45q12 0 15 -4t6 -10q20 -39 44 -89t47 -99q14 -28 26 -57t23 -51z" />
<glyph unicode="&#x43d;" horiz-adv-x="448" d="M393 12q0 -8 -4.5 -10t-10.5 -2h-51q-15 0 -15 11v177q0 8 -7 8h-162q-7 0 -7 -8v-176q0 -8 -4 -10t-10 -2h-52q-15 0 -15 11v415q0 5 2.5 8.5t10.5 3.5h55q8 0 10.5 -2.5t2.5 -8.5v-163q0 -2 2 -5t5 -3h162q7 0 7 8v162q0 12 14 12h51q16 0 16 -11v-415v0z" />
<glyph unicode="&#x43e;" horiz-adv-x="448" d="M400 163q0 -81 -47.5 -125t-128.5 -44q-83 0 -129.5 43.5t-46.5 124.5v115q0 77 45 122.5t130 45.5t131 -44t46 -124v-114zM320 277q0 43 -23.5 70.5t-72.5 27.5q-44 0 -70 -27t-26 -71v-115q0 -43 22 -71t73 -28t73.5 27.5t23.5 71.5v115z" />
<glyph unicode="&#x43f;" horiz-adv-x="459" d="M405 10q0 -10 -9 -10h-61q-9 0 -9 9v349q0 11 -11 11h-171q-10 0 -10 -10v-349q0 -10 -10 -10h-61q-10 0 -10 9v419q0 10 10 10h332q10 0 10 -9v-419v0z" />
<glyph unicode="&#x440;" horiz-adv-x="454" d="M408 161q0 -35 -12 -65.5t-33.5 -53.5t-51 -36t-64.5 -13q-39 0 -60.5 9.5t-34.5 21.5q-8 7 -12.5 3.5t-4.5 -9.5v-189q0 -10 -9 -10h-62q-9 0 -9 9v601q0 9 9 9h55q10 0 10 -9v-21q0 -6 5 -5.5t11 6.5q13 11 38.5 22.5t63.5 11.5q72 0 116.5 -42.5t44.5 -121.5v-118z M327 278q0 42 -24.5 69.5t-71.5 27.5q-42 0 -69 -27.5t-27 -68.5v-118q0 -41 26.5 -70t69.5 -29q44 0 70 28.5t26 70.5v117z" />
<glyph unicode="&#x441;" horiz-adv-x="402" d="M375 368q4 -5 3 -11.5t-7 -10.5l-35 -27q-13 -9 -23 6q-17 25 -41.5 37.5t-52.5 12.5q-43 0 -68.5 -26.5t-25.5 -68.5v-124q0 -41 26.5 -66.5t70.5 -25.5q39 0 62 17t41 40q5 6 15 -1l33 -24q10 -6 11 -11.5t-3 -10.5q-30 -45 -71.5 -62.5t-86.5 -17.5q-81 0 -129.5 44 t-48.5 121v115q0 40 13.5 72t37 53.5t55.5 33t70 11.5q97 -1 154 -76z" />
<glyph unicode="&#x442;" horiz-adv-x="360" d="M350 384q0 -13 -15 -13h-109q-4 0 -5.5 -3t-1.5 -6v-348q0 -8 -2.5 -11t-10.5 -3h-53q-15 0 -15 13v349q0 9 -8 9h-105q-8 0 -11.5 2.5t-3.5 10.5v41q0 13 15 13h310q15 0 15 -12v-42v0z" />
<glyph unicode="&#x443;" horiz-adv-x="412" d="M187 87q2 -8 6 -9.5t8 9.5l110 333q2 6 6.5 12.5t16.5 6.5h47q10 0 12.5 -5.5t0.5 -13.5l-193 -582q-2 -7 -9.5 -14t-21.5 -7h-37q-22 0 -14 26l47 142q2 5 2.5 10t-7.5 5h-10q-19 0 -24 20l-110 401q-2 8 0 13t11 5h53q10 0 15 -4.5t7 -10.5z" />
<glyph unicode="&#x444;" horiz-adv-x="517" d="M472 167q0 -73 -43 -118.5t-117 -53.5q-3 -3 -12 -4.5t-9 -16.5v-145q0 -10 -10 -10h-52q-9 0 -9 9v143q0 18 -7 21t-12 4q-73 8 -114.5 53t-41.5 117v108q0 34 11.5 64t32.5 52.5t51 37t68 18.5q3 0 7 2.5t4 12.5v167q0 10 10 10h52q8 0 9.5 -1.5t0.5 -8.5v-165 q0 -11 6.5 -13.5t11.5 -3.5q73 -8 118 -53t45 -119v-107zM392 274q0 41 -23 66t-60 31q-5 1 -11.5 -1t-6.5 -12v-277q0 -13 6 -13.5t11 0.5q40 8 62 33t22 65v108zM125 166q0 -42 21 -67.5t56 -30.5q4 -1 10.5 -0.5t6.5 13.5v274q0 14 -5.5 15t-9.5 0q-34 -5 -56.5 -30.5 t-22.5 -65.5v-108z" />
<glyph unicode="&#x445;" horiz-adv-x="387" d="M375 14q4 -5 2.5 -9.5t-9.5 -4.5h-61q-7 0 -12.5 2t-10.5 10l-85 145q-4 7 -7 4l-5 -5l-84 -144q-5 -8 -10.5 -10t-12.5 -2h-60q-8 0 -9.5 4.5t2.5 9.5l125 199q7 11 6 16.5t-5 12.5l-113 181q-4 6 -2 10.5t10 4.5h58q10 0 14 -1.5t9 -9.5l74 -127q4 -6 6.5 -5t4.5 6 l73 126q5 8 9 9.5t14 1.5h58q8 0 10 -4.5t-2 -10.5l-115 -182q-6 -10 -4 -15t4 -9z" />
<glyph unicode="&#x446;" horiz-adv-x="462" d="M66 0q-8 0 -10 4t-2 10v414q0 10 14 10h54q8 0 10.5 -1.5t2.5 -8.5v-347q0 -10 3.5 -11.5t11.5 -1.5h153q10 0 12 2.5t2 10.5v344q0 6 1.5 9.5t9.5 3.5h57q6 0 9 -1.5t3 -8.5v-348q0 -8 1.5 -10t9.5 -2h25q9 -2 11 -7.5t2 -12.5v-138q0 -13 -3.5 -17t-9.5 -4h-42 q-8 0 -11 4t-3 17v80q-1 5 -2 7.5t-10 2.5h-299z" />
<glyph unicode="&#x447;" horiz-adv-x="438" d="M30 432q0 10 9 10h62q9 0 9 -9v-113q0 -43 23 -71.5t73 -28.5q30 0 51.5 9t33.5 18q3 2 7 7t4 15v163q0 10 10 10h61q10 0 10 -9v-422q0 -10 -9 -10h-62q-9 0 -9 10v160q0 9 -8 9q-4 0 -7 -3q-18 -13 -46.5 -18.5t-56.5 -5.5q-75 0 -115 45.5t-40 120.5v113v0z" />
<glyph unicode="&#x448;" horiz-adv-x="658" d="M522 427q0 6 2 8.5t11 2.5h55q8 0 10.5 -2.5t2.5 -9.5v-414q0 -12 -15 -12h-518q-15 0 -15 11v416q0 11 13 11h56q8 0 10 -2.5t2 -9.5v-351q0 -5 2.5 -6t6.5 -1h135q3 0 6 0.5t3 5.5v353q0 11 13 11h55q13 0 13 -12v-352q0 -6 8 -6h137q7 0 7 5v354z" />
<glyph unicode="&#x449;" horiz-adv-x="672" d="M70 0q-15 0 -15 11v416q0 11 13 11h56q8 0 10 -2.5t2 -9.5v-351q0 -5 2.5 -6t6.5 -1h135q3 0 6 0.5t3 5.5v353q0 11 13 11h55q13 0 13 -12v-352q0 -6 8 -6h137q7 0 7 5v354q0 6 2 8.5t11 2.5h54q8 0 10.5 -2.5t2.5 -9.5v-346q0 -8 1.5 -10t9.5 -2h25q9 -2 11 -7.5 t2 -12.5v-138q0 -13 -3.5 -17t-9.5 -4h-42q-8 0 -11 4t-3 17v80q0 5 -1.5 7.5t-10.5 2.5h-500z" />
<glyph unicode="&#x44a;" horiz-adv-x="515" d="M226 287q0 -6 7 -6h113q35 0 62.5 -11t47 -30t29.5 -44.5t10 -53.5t-10 -54t-29 -45.5t-47 -31t-64 -11.5h-185q-15 0 -15 14v346q0 5 -1.5 8t-9.5 3h-111q-15 0 -15 13v42q0 6 4.5 9t10.5 3h187q16 0 16 -12v-139zM345 68q18 0 32 6.5t23.5 17t14 23.5t4.5 26 q0 35 -19.5 54t-54.5 19h-109q-3 0 -6.5 -1.5t-3.5 -6.5v-132q0 -5 3 -5.5t6 -0.5h110z" />
<glyph unicode="&#x44b;" horiz-adv-x="582" d="M56 426q0 6 4.5 9t10.5 3h50q16 0 16 -12v-139q0 -6 7 -6h113q35 0 62.5 -11t47 -30t29.5 -44.5t10 -53.5t-10 -54t-29 -45.5t-47 -31t-64 -11.5h-186q-15 0 -15 14zM527 14q0 -14 -15 -14h-49q-15 0 -15 13v411q0 13 15 13h49q15 0 15 -12v-411zM256 68q18 0 32 6.5 t23.5 17t14 23.5t4.5 26q0 35 -19.5 54t-54.5 19h-109q-3 0 -6.5 -1.5t-3.5 -6.5v-132q0 -5 3 -5.5t6 -0.5h110z" />
<glyph unicode="&#x44c;" horiz-adv-x="426" d="M56 426q0 6 4.5 9t10.5 3h50q16 0 16 -12v-139q0 -6 7 -6h113q35 0 62.5 -11t47 -30t29.5 -44.5t10 -53.5t-10 -54t-29 -45.5t-47 -31t-64 -11.5h-186q-15 0 -15 14zM256 68q18 0 32 6.5t23.5 17t14 23.5t4.5 26q0 35 -19.5 54t-54.5 19h-109q-3 0 -6.5 -1.5t-3.5 -6.5 v-132q0 -5 3 -5.5t6 -0.5h110z" />
<glyph unicode="&#x44d;" horiz-adv-x="402" d="M105 255q0 9 10 9h150q12 0 12 16q0 41 -20.5 68t-75.5 27q-57 0 -90 -49q-7 -10 -13 -10q-2 0 -10 4l-35 24q-7 4 -7 13q0 4 3 9q60 78 157 78q94 0 132.5 -45t38.5 -125v-115q0 -77 -48.5 -121t-129.5 -44q-45 0 -85.5 17.5t-70.5 62.5q-4 5 -3 10.5t11 11.5l37 22 q10 7 15 1q18 -23 38 -39t59 -16q41 0 69 25.5t28 66.5v28q-1 14 -12 14h-151q-9 0 -9 10v47z" />
<glyph unicode="&#x44e;" horiz-adv-x="601" d="M219 191q0 4 -7 4h-70q-5 0 -5.5 -2t-0.5 -4v-176q0 -13 -13 -13h-55q-13 0 -13 12v415q0 11 12 11h55q14 0 14 -10v-163q0 -6 5 -6h72q6 0 6 6v12q0 77 43 122.5t122 45.5t123 -44t44 -124v-114q0 -81 -42.5 -125t-123.5 -44t-123.5 43.5t-42.5 124.5v29zM471 277 q0 43 -21 70.5t-65 27.5t-65 -27t-21 -71v-115q0 -43 20.5 -71t64.5 -28t65 27.5t22 71.5v115z" />
<glyph unicode="&#x44f;" horiz-adv-x="445" d="M191 375q-18 0 -30 -7t-19.5 -18t-11 -24t-3.5 -25q0 -14 9.5 -33t29.5 -33q3 -2 6 -3t11 -1h115q13 0 13 15v118q0 11 -12 11h-108zM49 305q0 28 9 53t26 43.5t41.5 29t54.5 10.5h193q17 0 17 -17v-408q0 -16 -13 -16h-52q-9 0 -12 3.5t-3 13.5v134q0 13 -14 13h-92 q-10 0 -15 -10l-66 -135q-5 -9 -9.5 -14t-20.5 -5h-43q-6 0 -10.5 2t-4.5 8q0 5 4 13l72 144q3 6 3 8q0 3 -5 8q-28 23 -44 54t-16 68z" />
</font>
</defs>
</svg>
