<?xml version="1.0" standalone="no"?>
<!DOCTYPE svg PUBLIC "-//W3C//DTD SVG 1.1//EN" "http://www.w3.org/Graphics/SVG/1.1/DTD/svg11.dtd" >
<svg xmlns="http://www.w3.org/2000/svg">
<metadata></metadata>
<defs>
<font id="pf_handbook_prothin" horiz-adv-x="1818" >
<font-face units-per-em="1000" ascent="750" descent="-250" />
<missing-glyph horiz-adv-x="200" />
<glyph unicode="fj" horiz-adv-x="392" d="M332 -64q0 -57 -24 -86t-77 -29q-14 0 -27 1.5t-21 4.5q-7 1 -6 9l5 22q2 6 10 5q8 -2 18 -3t18 -1q38 0 50.5 20t12.5 60v454q0 6 -6 6h-159q-6 -1 -6 -9v-384q0 -6 -7 -6h-29q-7 0 -7 6v383q0 9 -5 10h-50q-6 0 -6 6v22q0 7 7 7h47q8 0 8 9v51q0 71 33 108t93 37 q35 0 64.5 -10t50.5 -27q7 -5 2 -11l-12 -17q-4 -5 -6.5 -4t-5.5 3q-17 12 -42 20.5t-51 8.5q-45 0 -64.5 -28.5t-19.5 -70.5v-60q0 -9 7 -9h199q7 0 7 -7z" />
<glyph unicode="ffj" horiz-adv-x="610" d="M551 -64q0 -57 -24 -86t-77 -29q-14 0 -27 1.5t-21 4.5q-7 1 -6 9l5 22q2 6 10 5q8 -2 18 -3t18 -1q38 0 50.5 20t12.5 60v454q0 6 -6 6h-159q-6 -1 -6 -9v-384q0 -6 -7 -6h-28q-7 0 -7 6v383q0 9 -6 10h-158q-6 -1 -6 -9v-384q0 -6 -7 -6h-28q-7 0 -7 6v383q0 9 -6 10 h-49q-6 0 -6 6v22q0 7 6 7h47q9 0 9 9v48q0 33 10.5 58t29.5 41.5t44 25t55 8.5q55 0 93 -19q1 0 2 -0.5t3 -0.5q3 0 4 1q18 19 43 29t52 10q34 0 65 -10.5t52 -27.5q7 -5 2 -11l-12 -17q-4 -5 -6.5 -4t-5.5 3q-17 12 -42 20.5t-51 8.5q-43 0 -64 -27.5t-21 -67.5v-68 q0 -9 8 -9h197q7 0 7 -7v-491zM297 522q0 14 2 24.5t5 18.5v1q-2 4 -7 6q-17 7 -35.5 11t-34.5 4q-56 0 -78 -28.5t-22 -75.5v-40q0 -9 8 -9h154q8 0 8 9v79z" />
<glyph unicode="ff" horiz-adv-x="476" d="M332 443q0 -9 8 -9h117q7 0 7 -7v-22q0 -6 -6 -6h-120q-6 -1 -6 -9v-384q0 -6 -7 -6h-28q-7 0 -7 6v383q0 9 -6 10h-158q-6 -1 -6 -9v-384q0 -6 -7 -6h-29q-7 0 -7 6v383q0 9 -5 10h-50q-6 0 -6 6v22q0 7 7 7h47q8 0 8 9v52q0 33 11 57.5t29.5 41t44 24.5t54.5 8t52.5 -6 t41.5 -14q1 0 2 -0.5t3 -0.5q3 0 4 1q37 39 97 39q31 0 54 -8t40 -19q5 -3 5 -6q0 -4 -4 -11t-7 -12q-3 -7 -10 -3q-13 9 -32.5 15t-45.5 6q-44 0 -64.5 -27.5t-20.5 -66.5v-70zM290 523q0 14 2 24.5t4 19.5q0 1 -1 3t-5 3q-17 7 -35.5 11t-35.5 4q-56 0 -77.5 -28 t-21.5 -75v-42q0 -9 7 -9h155q8 0 8 9v80z" />
<glyph unicode="fi" horiz-adv-x="393" d="M120 444q0 -9 8 -9h197q6 0 7.5 -2.5t1.5 -7.5v-419q0 -6 -7 -6h-28q-7 0 -7 6v387q0 6 -6 6h-160q-6 -1 -6 -9v-384q0 -6 -7 -6h-28q-7 0 -7 6v384q0 8 -6 9h-49q-6 0 -6 7v22q0 7 6 7h47q9 0 9 9v68q0 34 10 58t27.5 39.5t40.5 23t50 7.5q38 0 66.5 -10.5t45.5 -25.5 q7 -5 2 -11l-11 -18q-4 -6 -12 -2q-13 11 -36.5 20.5t-55.5 9.5q-47 0 -66.5 -28.5t-19.5 -70.5v-60z" />
<glyph unicode="fl" horiz-adv-x="420" d="M399 2q0 -7 -8 -7h-19q-26 0 -41.5 8.5t-24 22t-11.5 30.5t-3 35v480q0 5 -1.5 6.5l-2.5 2.5q-17 11 -40.5 16.5t-44.5 5.5q-45 0 -64 -28t-19 -70v-61q0 -9 7 -9h108q8 0 8 -9v-18q0 -6 -2 -7t-6 -1h-109q-6 -1 -6 -9v-384q0 -6 -7 -6h-29q-7 0 -7 6v383q0 9 -5 10h-50 q-6 0 -6 6v22q0 7 7 7h47q8 0 8 9v69q0 34 10 58t27.5 39.5t40 23t47.5 7.5q30 0 53.5 -6.5t47.5 -15.5q5 2 11 5t11 3q7 0 7 -10v-521q0 -30 9 -45.5t39 -15.5h10q6 0 7 -2.5t1 -6.5v-23z" />
<glyph unicode="ffi" horiz-adv-x="612" d="M297 523q0 14 2 24.5t5 18.5v1q-2 4 -7 6q-17 7 -35.5 11t-34.5 4q-56 0 -78 -28.5t-22 -75.5v-41q0 -9 8 -9h154q8 0 8 9v80zM424 606q-43 0 -64 -27.5t-21 -67.5v-68q0 -9 8 -9h197q6 0 7.5 -2.5t1.5 -7.5v-418q0 -6 -7 -6h-29q-7 0 -7 6v387q0 6 -6 6h-159 q-6 -1 -6 -9v-384q0 -6 -7 -6h-28q-7 0 -7 6v383q0 9 -6 10h-158q-6 -1 -6 -9v-384q0 -6 -7 -6h-28q-7 0 -7 6v383q0 9 -6 10h-49q-6 0 -6 6v22q0 7 6 7h47q9 0 9 9v51q0 32 10.5 56.5t28.5 41t42.5 25t52.5 8.5q26 0 52.5 -5.5t45.5 -14.5q1 0 2 -0.5t3 -0.5q3 0 4 1 q18 19 43 29t52 10q35 0 65 -11t47 -25q6 -4 2 -11l-11 -18q-4 -6 -12 -2q-14 9 -38 19t-51 10z" />
<glyph unicode="ffl" horiz-adv-x="631" d="M297 509q0 31 8 53q0 1 0.5 2t0.5 2q0 5 -5 6q-19 8 -39 12t-37 4q-51 0 -74.5 -27t-23.5 -77v-41q0 -9 8 -9h154q8 0 8 9v66zM424 644q30 0 53.5 -6.5t47.5 -15.5q5 2 11 5t11 3q7 0 7 -10v-521q0 -30 9 -45.5t39 -15.5h10q6 0 7 -2.5t1 -6.5v-23q0 -7 -8 -7h-19 q-26 0 -41.5 8.5t-24 22t-11.5 30.5t-3 35v480q0 5 -1.5 6.5l-2.5 2.5q-17 11 -40.5 17t-46.5 6q-45 0 -64 -28.5t-19 -70.5v-65q0 -9 7 -9h108q8 0 8 -9v-18q0 -6 -2 -7t-6 -1h-109q-6 -1 -6 -9v-384q0 -6 -7 -6h-29q-7 0 -7 6v383q0 5 -0.5 7t-5.5 3h-157q-6 -1 -6 -9 v-384q0 -6 -7 -6h-28q-7 0 -7 6v383q0 9 -6 10h-49q-6 0 -6 6v22q0 7 6 7h47q9 0 9 9v51q0 32 10.5 56.5t28.5 41t42.5 25t52.5 8.5q26 0 52.5 -5.5t45.5 -14.5q1 0 2 -0.5t3 -0.5q3 0 4 1q37 39 97 39z" />
<glyph unicode="ft" horiz-adv-x="486" d="M336 443q0 -8 6 -8h112q6 0 6 -7v-22q0 -7 -6 -7h-110q-8 0 -8 -9v-270q0 -46 16.5 -67t52.5 -21q14 0 32 2.5t29 6.5q7 2 9 -5l5 -22q2 -5 0.5 -6.5t-5.5 -3.5q-14 -5 -36.5 -7t-39.5 -2q-30 0 -50 9.5t-32 25.5t-17 37.5t-5 46.5v276q0 9 -8 9h-161q-6 -1 -6 -9v-384 q0 -6 -7 -6h-28q-7 0 -7 6v384q0 8 -6 9h-49q-6 0 -6 7v22q0 7 6 7h47q9 0 9 9v68q0 65 34.5 96.5t85.5 31.5q23 0 43 -4.5t34 -10.5q8 -3 6 -10l-8 -23q-2 -6 -10 -3q-29 13 -62 13q-46 0 -64 -27.5t-18 -67.5v-63q0 -9 8 -9h160q7 1 7 9v88q0 7 7 8l27 7q7 1 7 -7v-97v0z " />
<glyph unicode=" "  horiz-adv-x="200" />
<glyph unicode="&#x09;" horiz-adv-x="200" />
<glyph unicode="&#xa0;" horiz-adv-x="200" />
<glyph unicode="!" horiz-adv-x="248" d="M138 165q0 -8 -8 -8h-9q-8 0 -8 8l-15 442q0 9 10 9h30q11 0 10 -9zM161 29q0 -15 -10 -25t-26 -10q-14 0 -24.5 10.5t-10.5 24.5t10.5 24.5t24.5 10.5q16 0 26 -10t10 -25z" />
<glyph unicode="&#x22;" horiz-adv-x="217" d="M163 617q7 0 6 -6v-185q0 -6 -6 -6h-22q-8 0 -8 6v185q0 6 8 6h22zM78 617q7 0 7 -6v-185q0 -6 -7 -6h-22q-7 0 -7 6v185q0 6 7 6h22z" />
<glyph unicode="#" horiz-adv-x="445" d="M417 403q-1 -7 -8 -7h-62q-9 0 -10 -7l-34 -158q-1 -10 7 -10h72q6 0 4 -7l-3 -19q-2 -6 -8 -6h-74q-8 0 -9 -6l-29 -137q-2 -5 -7 -5h-20q-9 0 -7 8l29 132q0 4 -1 6t-7 2h-112q-8 0 -9 -6l-30 -137q-2 -5 -7 -5h-20q-9 0 -7 8q0 1 5 21t10 45q6 28 14 65q1 5 0 7t-7 2 h-58q-6 0 -6 5q1 2 1.5 6t2.5 14q2 7 10 7h59q7 0 8 7l34 159q3 9 -6 9h-68q-7 0 -5 6q1 2 2 8.5t2 10.5q2 7 8 7h71q6 0 7 7l26 120q1 5 7 5h21q8 0 6 -8l-25 -115q-2 -9 7 -9h114q5 0 7 7l26 120q1 5 8 5h20q8 0 6 -8l-24 -114q-1 -5 0 -7.5t8 -2.5h59q5 0 6 -3t0 -6z M302 388q1 4 0 6t-7 2h-111q-9 0 -11 -8l-34 -159q-1 -5 0.5 -6.5t7.5 -1.5h113q7 0 8 8z" />
<glyph unicode="$" horiz-adv-x="445" d="M351 169q0 30 -12.5 51t-31 35.5t-40 23.5t-40.5 15q-27 8 -57.5 18.5t-56.5 28.5t-43 44.5t-17 65.5q0 31 12 57t31.5 45t45 31t53.5 16q6 1 6 8v56q0 7 7 7h17q7 0 7 -7v-56q0 -6 8 -7q70 -3 126 -42q4 -6 0 -12l-15 -19q-6 -6 -12 1q-28 21 -58 29.5t-59 8.5 q-22 0 -45 -7t-41.5 -21.5t-30 -36.5t-11.5 -53q0 -27 13 -46t33 -32.5t44 -22t45 -14.5q31 -9 60 -22.5t52 -32t37 -44.5t14 -61t-12 -62t-32.5 -46.5t-48.5 -30.5t-59 -15q-8 0 -8 -8v-67q0 -7 -7 -7h-17q-7 0 -7 7v67q0 7 -9 7q-38 2 -70 12.5t-63 32.5q-5 5 0 11l16 19 q5 5 11 -1q24 -18 56 -28.5t67 -10.5q27 0 53 7t45.5 21t31.5 36t12 51z" />
<glyph unicode="%" horiz-adv-x="645" d="M192 -24q-2 -6 -9 -6h-17q-7 0 -4 6l283 665q4 6 9 6h15q8 0 6 -7zM262 335q0 -46 -29 -72t-82 -26q-51 0 -80 26.5t-29 71.5v189q0 45 29.5 71.5t79.5 26.5t80.5 -25.5t30.5 -72.5v-189zM226 524q0 29 -20 48t-55 19q-33 0 -52.5 -19t-19.5 -48v-188q0 -29 19 -48.5 t53 -19.5q33 0 54 17.5t21 50.5v188zM601 94q0 -47 -28.5 -72.5t-81.5 -25.5q-51 0 -80 26t-29 72v189q0 45 29.5 71.5t79.5 26.5t80 -26t30 -72v-189zM566 283q0 29 -20 48t-55 19q-34 0 -53.5 -19.5t-19.5 -47.5v-189q0 -30 19.5 -49.5t53.5 -19.5q33 0 54 17.5t21 51.5 v189z" />
<glyph unicode="&#x26;" horiz-adv-x="570" d="M381 548q9 0 9 -7v-22q0 -8 -8 -8h-140q-29 0 -52.5 -9t-41 -24.5t-27 -37.5t-9.5 -49v-227q0 -27 8 -51t24 -43t40 -30t57 -11h19q34 0 59 11.5t41 31t23.5 44t7.5 51.5v124q0 2 -1 5t-8 3h-140q-7 0 -7 7v21q0 8 8 8h192q37 0 67 8t65 31q4 2 6 2q5 0 6 -4l11 -17 q2 -4 2 -6q0 -4 -4 -7q-38 -24 -73.5 -32.5t-71.5 -10.5q-10 0 -10 -11v-100q0 -40 -9.5 -75t-30.5 -61.5t-54 -42t-79 -15.5h-19q-40 0 -72 12.5t-54 35t-33.5 53.5t-11.5 67v230q0 34 13 62.5t35.5 49.5t54 32.5t69.5 11.5h139z" />
<glyph unicode="'" horiz-adv-x="153" d="M87 617q7 0 7 -6l-1 -185q0 -6 -6 -6h-22q-8 0 -8 6v185q0 6 7 6h23v0z" />
<glyph unicode="(" horiz-adv-x="296" d="M256 -127q5 -7 -2 -10l-14 -9q-8 -7 -13 1q-29 34 -56.5 80t-48.5 99.5t-34 112t-13 118.5q0 59 14.5 119.5t37 116t49.5 102.5t52 79q5 7 13 2l12 -6q6 -5 3 -10q-29 -43 -53.5 -91t-42 -100t-27.5 -105.5t-10 -106.5q0 -57 11 -111.5t29.5 -104.5t42.5 -94.5t50 -81.5z " />
<glyph unicode=")" horiz-adv-x="296" d="M246 265q0 -60 -13 -118.5t-34 -112t-48.5 -99.5t-56.5 -80q-5 -8 -13 -1l-14 9q-7 3 -2 10q25 37 49 81.5t43 94.5t30 104.5t11 111.5q0 53 -10 106.5t-27.5 105.5t-42 100t-53.5 91q-3 5 3 10l12 6q8 5 13 -2q25 -32 52 -79t49.5 -102.5t37 -116t14.5 -119.5z" />
<glyph unicode="*" horiz-adv-x="352" d="M207 502q-9 -2 -3 -8l65 -78q8 -10 -1 -15l-17 -12q-11 -8 -17 2l-52 87q-4 6 -10 -1l-53 -86q-6 -10 -16 -2l-17 12q-10 6 -2 16l66 77q2 2 2 4t-5 3l-98 25q-11 3 -8 13l7 21q4 12 15 7l95 -39q5 -3 5 4l-8 103q0 5 2 8t10 3h21q13 0 11 -11l-8 -102q-1 -8 5 -5l94 38 q12 5 15 -6l8 -21q3 -12 -7 -13z" />
<glyph unicode="+" horiz-adv-x="445" d="M412 228q0 -9 -9 -9h-159q-6 0 -6 -5v-164q0 -8 -8 -8h-20q-9 0 -9 8v164q0 5 -6 5h-155q-8 0 -8 8v20q0 9 8 9h156q5 0 5 6v164q0 8 9 8h20q8 0 8 -8v-165q0 -5 6 -5h159q9 0 9 -9v-19v0z" />
<glyph unicode="," horiz-adv-x="167" d="M80 -96q-3 -9 -10 -9h-15q-9 0 -7 11l9 151q0 10 10 10h41q13 0 9 -13z" />
<glyph unicode="-" horiz-adv-x="298" d="M237 225q0 -7 -6 -7h-165q-7 0 -7 7v27q0 7 7 7h165q6 0 6 -7v-27v0z" />
<glyph unicode="." horiz-adv-x="165" d="M82 62q16 0 25.5 -9.5t9.5 -24.5q0 -14 -9.5 -24t-25.5 -10q-14 0 -24 10t-10 24t10 24t24 10z" />
<glyph unicode="/" horiz-adv-x="284" d="M35 -59q-3 -8 -9 -8h-15q-10 0 -7 8l242 725q3 8 11 8h14q9 0 7 -8z" />
<glyph unicode="0" horiz-adv-x="445" d="M390 150q0 -75 -43 -116t-121 -41q-77 0 -121 42t-44 115v319q0 71 44.5 113t119.5 42t120 -41t45 -114v-319zM348 467q0 53 -33 86.5t-90 33.5q-55 0 -88.5 -33.5t-33.5 -86.5v-316q0 -54 33 -87.5t89 -33.5q54 0 88.5 30.5t34.5 90.5v316z" />
<glyph unicode="1" horiz-adv-x="445" d="M259 7q0 -7 -6 -7h-30q-6 0 -6 6v549q0 7 -6 3l-92 -56q-8 -5 -8 3v28q0 10 6 14l101 64q4 2 6.5 3.5t7.5 1.5h22q5 0 5 -5v-604v0z" />
<glyph unicode="2" horiz-adv-x="445" d="M382 7q0 -7 -6 -7h-324q-10 0 -10 9v15q0 16 6 23l222 292q32 42 49.5 79.5t17.5 61.5q0 49 -32 78t-86 29q-34 0 -65.5 -13.5t-47.5 -35.5q-8 -10 -15 -4l-18 13q-9 5 -2 12q23 32 63 48.5t85 16.5q33 0 62.5 -8.5t51 -25.5t34.5 -43.5t13 -63.5q0 -30 -17 -70t-60 -96 l-206 -272q-6 -7 4 -7h274q7 0 7 -7v-24v0z" />
<glyph unicode="3" horiz-adv-x="445" d="M202 357q22 0 42.5 8t35.5 22.5t24 35t9 46.5q0 49 -29.5 83.5t-90.5 34.5q-35 0 -63 -12.5t-45 -35.5q-6 -11 -15 -5l-20 13q-4 2 -3 6t3 6q23 32 60.5 48.5t82.5 16.5q78 0 120.5 -41.5t42.5 -110.5q0 -25 -8 -47t-20 -39.5t-27 -29t-30 -15.5q-4 0 -4 -3q0 -2 4 -4 q24 -6 40 -20t26.5 -32t15 -38t4.5 -38v-40q0 -39 -12.5 -70.5t-35 -54t-55 -35t-71.5 -12.5q-29 0 -54.5 5t-46.5 19q-27 18 -43 40q-4 8 4 14l15 12q5 4 7 3t7 -6t11 -10.5t11 -10.5q37 -31 90 -31q27 0 51 9.5t41.5 27t28 42t10.5 54.5v41q0 5 -0.5 11t-1.5 11 q-6 40 -34.5 67t-76.5 27h-66q-7 0 -7 7v24q0 7 6 7h67v0z" />
<glyph unicode="4" horiz-adv-x="445" d="M300 617q11 0 5 -11l-219 -411q-2 -3 -1.5 -6t5.5 -3h190q6 0 6.5 3t0.5 7v188q0 7 8 7h26q7 0 7 -7v-187q0 -5 1.5 -8t7.5 -3h76q7 0 7 -7v-22q0 -7 -7 -7h-75q-5 0 -7 -1t-2 -7v-135q0 -7 -7 -7h-27q-8 0 -8 7v135q0 8 -8 8h-230q-9 0 -9 8v16q0 10 1 15t5 12l216 409 q3 7 11 7h27z" />
<glyph unicode="5" horiz-adv-x="445" d="M379 157q0 -79 -46 -121.5t-123 -42.5q-101 0 -144 67q-2 5 -2 7t5 6l20 12q5 2 7 1.5t7 -5.5q39 -51 107 -51q57 0 92 32t35 89v85q0 52 -32.5 85.5t-91.5 33.5q-17 0 -38.5 -7t-35.5 -17q-12 -11 -23 -5l-22 13q-5 3 -7.5 6t-2.5 11v254q0 7 8 7h267q7 0 7 -7v-24 q0 -6 -7 -6h-225q-7 0 -7 -7v-197q0 -12 13 -5q21 13 40.5 17.5t37.5 4.5q78 0 119.5 -43t41.5 -111v-82z" />
<glyph unicode="6" horiz-adv-x="445" d="M396 152q0 -74 -44.5 -116.5t-122.5 -42.5q-36 0 -67 10.5t-53 30.5t-34.5 49t-12.5 67v309q0 37 13 67.5t35.5 52.5t53.5 33.5t68 11.5q92 0 143 -63q6 -7 -1 -11l-19 -16q-8 -5 -13 3q-18 23 -45.5 36.5t-62.5 13.5q-60 0 -95 -37t-35 -91v-130q0 -9 8 -3q46 55 121 55 q38 0 68.5 -11.5t51.5 -32t32 -48t11 -60.5v-77zM354 226q0 56 -35.5 86.5t-90.5 30.5q-25 0 -47.5 -9.5t-39.5 -26t-27 -38.5t-10 -47v-69q0 -55 34 -89.5t91 -34.5q60 0 92 34.5t33 91.5v71z" />
<glyph unicode="7" horiz-adv-x="445" d="M390 592q0 -5 -1.5 -10.5t-3.5 -8.5q-68 -155 -122 -278q-23 -53 -45 -103.5t-40 -90.5t-29 -65.5t-12 -27.5q-2 -5 -4.5 -6.5t-7.5 -1.5h-30q-9 0 -6 9l248 562q4 9 -7 9h-220q-9 0 -9 -8v-55q0 -7 -7 -7h-25q-7 0 -7 7v93q0 7 8 7h309q11 0 11 -9v-16v0z" />
<glyph unicode="8" horiz-adv-x="445" d="M224 625q78 0 123 -44t45 -115q0 -40 -22 -76.5t-59 -56.5q-3 -2 -4 -4t3 -4q42 -21 66 -58.5t24 -94.5q0 -44 -14.5 -77.5t-39 -56t-57.5 -34t-70 -11.5q-38 0 -69.5 11t-54.5 32.5t-36 54.5t-13 77q0 59 27.5 100.5t64.5 56.5q4 1 4 3.5t-4 4.5q-42 19 -62 57t-20 75 q0 35 12 64.5t34 50.5t53 33t69 12zM348 465q0 54 -32.5 88.5t-92.5 34.5q-55 0 -89.5 -34.5t-34.5 -89.5q0 -25 10 -46.5t27 -37t39.5 -24.5t47.5 -9t47.5 8.5t39.5 24t27.5 37t10.5 48.5zM222 310q-26 0 -50 -9.5t-42 -27.5t-29 -45t-11 -62q0 -66 37.5 -101t91.5 -35 q26 0 50.5 8t44 25t31 43t11.5 62q0 34 -10.5 60.5t-29 44.5t-43 27.5t-51.5 9.5z" />
<glyph unicode="9" horiz-adv-x="445" d="M384 170q0 -43 -13.5 -76t-36.5 -55.5t-55.5 -34t-69.5 -11.5q-47 0 -83.5 17.5t-59.5 49.5q-6 8 1 12l20 13q9 4 13 -3q18 -23 45 -37.5t62 -14.5q58 0 96.5 36.5t38.5 105.5v117q0 10 -7 3q-48 -55 -122 -55q-38 0 -68 12t-51 32.5t-32.5 48.5t-11.5 61v70 q0 74 47 118.5t126 44.5q73 0 117 -43.5t44 -121.5v-289zM342 461q0 55 -32.5 91t-89.5 36q-30 0 -54 -10t-40.5 -27t-25 -40t-8.5 -50v-68q0 -56 34.5 -87.5t92.5 -31.5q25 0 47.5 9.5t39 26t26.5 38.5t10 47v66z" />
<glyph unicode=":" horiz-adv-x="165" d="M117 343q0 -14 -10 -24.5t-26 -10.5q-14 0 -23.5 10.5t-9.5 24.5t9.5 23.5t23.5 9.5q16 0 26 -9.5t10 -23.5zM117 28q0 -15 -10 -24.5t-26 -9.5q-14 0 -23.5 9.5t-9.5 23.5t9.5 24t23.5 10q16 0 26 -9.5t10 -23.5z" />
<glyph unicode=";" horiz-adv-x="173" d="M123 343q0 -14 -10 -24t-26 -10q-14 0 -23.5 10t-9.5 24t9.5 24t23.5 10q16 0 26 -10t10 -24zM79 -96q-1 -9 -10 -9h-15q-7 0 -7 11l9 151q0 10 11 10h41q12 0 9 -13z" />
<glyph unicode="&#x3c;" horiz-adv-x="445" d="M407 75q8 -4 9.5 -7.5t1.5 -8.5v-21q0 -7 -6 -7q-1 0 -7 2l-366 195q-14 7 -14 17v17q0 9 11 15l369 197q5 2 9 1.5t4 -7.5v-19q0 -10 -11 -15l-328 -177q-4 -1 -4 -4q0 -1 4 -4z" />
<glyph unicode="=" horiz-adv-x="445" d="M410 149q0 -9 -8 -9h-360q-8 0 -8 8v17q0 9 8 9h360q8 0 8 -9v-16zM410 330q0 -9 -8 -9h-360q-8 0 -8 8v17q0 9 8 9h360q8 0 8 -9v-16z" />
<glyph unicode="&#x3e;" horiz-adv-x="445" d="M365 249q6 3 0 6l-328 179q-12 5 -12 15v19q0 8 7 8q2 0 6 -2l371 -197q10 -5 10 -13v-19q0 -6 -4 -9.5t-11 -7.5l-366 -195q-6 -2 -7 -2q-6 0 -6 7v21q0 5 2 8.5t9 7.5z" />
<glyph unicode="?" horiz-adv-x="442" d="M382 477q0 -41 -24.5 -81.5t-75.5 -73.5q-47 -29 -69.5 -57.5t-22.5 -72.5v-47q0 -8 -6 -8h-27q-9 0 -9 9v52q0 37 18.5 72t55.5 60q23 15 44 31t37.5 33t26 37.5t9.5 44.5q0 17 -5.5 36.5t-18.5 36.5t-35.5 28t-56.5 11t-63 -14t-46 -37q-5 -8 -13 -2l-20 13q-8 4 -1 11 q23 32 61 49.5t84 17.5q33 0 62 -10t50 -29t33 -46.5t12 -63.5zM203 28q0 -14 -10 -24.5t-25 -10.5q-14 0 -24.5 10.5t-10.5 24.5t10.5 23.5t24.5 9.5q15 0 25 -9.5t10 -23.5z" />
<glyph unicode="@" horiz-adv-x="714" d="M472 212q0 -21 10 -37.5t40 -16.5q27 0 48 13t35.5 36.5t22.5 56t8 71.5q0 61 -23 107t-59.5 77t-83 47t-93.5 16q-63 0 -115.5 -21.5t-90.5 -60t-59 -92t-21 -117.5q0 -66 21.5 -120t60 -92t92.5 -59t119 -21q46 0 87 8.5t76 22.5q6 2 8 2q4 0 7 -7l6 -15q2 -7 -10 -12 q-42 -15 -83.5 -23t-86.5 -8q-74 0 -135 22.5t-104.5 64.5t-67.5 102t-24 135q0 68 23 126.5t64.5 102t100 68t129.5 24.5q62 0 116 -19t94 -54t63 -86.5t23 -115.5q0 -55 -12 -95t-32 -66t-47 -38.5t-57 -12.5q-15 0 -38 7t-36 27q-2 4 -3 4q-2 0 -5 -3q-18 -20 -42 -29 t-44 -9q-23 0 -43.5 8t-36.5 22.5t-25 35t-9 45.5q0 24 9 44t24 34.5t36 22.5t45 8q22 0 42 -8t34 -24q1 -1 3 -1q6 0 6 8v18q0 17 -4 32t-14 26t-27 17.5t-43 6.5q-18 0 -37.5 -6t-35.5 -13q-9 -4 -11 4l-5 17q-1 2 -1 4t5 5q19 8 43 13.5t46 5.5q63 0 90 -32t27 -84v-119z M433 233q0 31 -20 54.5t-59 23.5q-32 0 -55.5 -22.5t-23.5 -55.5q0 -32 23 -55.5t56 -23.5q38 0 58.5 23.5t20.5 55.5z" />
<glyph unicode="A" horiz-adv-x="445" d="M395 0q-8 0 -10 6l-43 146q-1 4 -6 4h-231q-4 0 -5 -3q-1 -5 -7.5 -27t-13.5 -46.5t-13.5 -46.5t-7.5 -27q-2 -6 -9 -6h-28q-5 0 -7 1.5t0 7.5l175 601q2 7 8 7h47q8 0 9 -7l177 -599q4 -11 -5 -11h-30zM181 437l-68 -237q-2 -7 3 -7h209q6 0 5 6l-70 239l-37 132 q-1 3 -2.5 3t-2.5 -3z" />
<glyph unicode="B" horiz-adv-x="472" d="M429 174q0 -38 -11.5 -70t-33 -55t-52 -36t-69.5 -13h-195q-7 0 -7 8v601q0 8 7 8h184q72 0 116 -38.5t44 -113.5q0 -37 -19.5 -74.5t-62.5 -55.5q-2 -1 -2 -2.5t2 -2.5q25 -9 44 -25t31 -37t18 -45.5t6 -48.5zM386 172q0 29 -9 54.5t-26.5 44.5t-42 30t-55.5 11h-143 q-6 0 -6 -7v-261q0 -5 7 -5h151q29 0 52 10.5t39 28.5t24.5 42t8.5 52zM369 465q0 51 -30 82.5t-87 31.5h-142q-3 0 -4.5 -0.5t-1.5 -5.5v-216q0 -4 0.5 -5.5t5.5 -1.5h143q53 0 84.5 31.5t31.5 83.5z" />
<glyph unicode="C" horiz-adv-x="413" d="M385 71q8 -7 2 -13q-28 -31 -66 -47.5t-84 -16.5q-42 0 -75 12t-56 33.5t-35.5 51.5t-12.5 66v306q0 34 12.5 63.5t36 51t56 34t71.5 12.5q45 0 84.5 -15t66.5 -48q6 -6 -1 -13l-18 -15q-6 -6 -14 3q-19 24 -52 37t-66 13q-60 0 -96.5 -35.5t-36.5 -88.5v-303 q0 -27 9 -50t26 -40.5t42.5 -27.5t58.5 -10q32 0 63 12.5t53 35.5q10 11 17 5z" />
<glyph unicode="D" horiz-adv-x="473" d="M422 167q0 -81 -44 -124t-123 -43h-186q-7 0 -7 8v601q0 8 7 8h187q166 0 166 -161v-289zM378 454q0 27 -6 50t-20.5 39.5t-38.5 26t-60 9.5h-141q-3 0 -5 -0.5t-2 -5.5v-529q0 -6 7 -6h143q57 0 90 31t33 94v291z" />
<glyph unicode="E" horiz-adv-x="429" d="M399 8q0 -8 -8 -8h-322q-8 0 -8 8v601q0 8 8 8h310q7 0 7 -8v-23q0 -7 -7 -7h-267q-4 0 -6 -0.5t-2 -5.5v-229q0 -6 7 -6h233q7 0 7 -8v-23q0 -7 -7 -7h-233q-7 0 -7 -7v-249q0 -6 7 -6h280q8 0 8 -7v-23v0z" />
<glyph unicode="F" horiz-adv-x="397" d="M389 586q0 -7 -7 -7h-270q-3 0 -5 -0.5t-2 -5.5v-230q0 -4 0.5 -5t5.5 -1h229q7 0 7 -8v-24q0 -7 -7 -7h-228q-7 0 -7 -7l-1 -284q0 -7 -6 -7h-29q-8 0 -8 7v602q0 8 9 8h312q7 0 7 -7v-24v0z" />
<glyph unicode="G" horiz-adv-x="461" d="M414 156q0 -35 -12.5 -65t-36 -52t-56 -34t-72.5 -12q-39 0 -71.5 11t-56.5 32t-37.5 51t-13.5 68v310q0 34 13.5 63t37.5 50.5t56.5 33.5t70.5 12q45 0 87.5 -16t65.5 -48q5 -7 -2 -13l-18 -14q-8 -7 -15 3q-19 26 -52 38t-65 12q-30 0 -55 -9.5t-43 -26.5t-28 -40 t-10 -49v-304q0 -29 10.5 -52t29 -39.5t43 -25.5t53.5 -9q58 0 95.5 32.5t37.5 93.5v128q0 7 -6 7h-88q-8 0 -8 7v24q0 8 8 8h129q9 0 9 -8v-167v0z" />
<glyph unicode="H" horiz-adv-x="499" d="M439 7q0 -7 -7 -7h-29q-8 0 -8 7v285q0 7 -6 7h-278q-7 0 -7 -7v-285q0 -7 -7 -7h-28q-8 0 -8 7v603q0 7 8 7h28q7 0 7 -7v-267q0 -6 7 -6h278q5 0 5.5 1.5t0.5 4.5v267q0 7 8 7h28q8 0 8 -7v-603v0z" />
<glyph unicode="I" horiz-adv-x="201" d="M122 7q0 -7 -8 -7h-28q-8 0 -8 7v603q0 7 8 7h28q8 0 8 -7v-603v0z" />
<glyph unicode="J" horiz-adv-x="227" d="M148 123q0 -52 -6 -88.5t-23 -63t-47.5 -45.5t-79.5 -36q-3 -1 -7 -0.5t-6 6.5l-6 22q-3 9 7 13q42 15 66.5 31.5t37.5 38.5t17 51t4 67v489q0 8 8 8h26q9 0 9 -8v-485z" />
<glyph unicode="K" horiz-adv-x="470" d="M432 7q0 -7 -7 -7h-26q-7 0 -7 7l-13 183q-2 23 -6.5 47t-18.5 44t-40 33t-69 13q-41 0 -68 -12.5t-43 -32.5t-23 -44.5t-7 -48.5v-182q0 -7 -6 -7h-30q-8 0 -8 6v602q0 9 8 9h30q6 0 6 -9v-285q0 -6 1.5 -8.5t7.5 4.5l260 291q6 6 12 6h30q6 0 6.5 -3t-1.5 -6l-214 -242 q-5 -5 -3 -6.5t7 -1.5q12 3 26.5 4t26.5 1q43 -1 72 -15t47 -36.5t26.5 -51t10.5 -58.5z" />
<glyph unicode="L" horiz-adv-x="395" d="M385 8q0 -8 -7 -8h-312q-9 0 -9 8v602q0 7 8 7h28q7 0 7 -7v-565q0 -6 7 -6h271q7 0 7 -7v-24v0z" />
<glyph unicode="M" horiz-adv-x="603" d="M549 7q0 -7 -7 -7h-27q-8 0 -8 7v495q0 5 -4 1l-88 -233q-23 -60 -45.5 -118.5t-45.5 -118.5q-5 -9 -13 -9h-22q-5 0 -8 1.5t-5 6.5q-24 64 -48 127.5t-49 127.5l-81 215q-3 3 -4 0v-495q0 -7 -7 -7h-27q-8 0 -8 7v597q0 5 2.5 9t9.5 4h23q11 0 14 -9l142 -377 q14 -37 27 -73.5t27 -73.5q3 -7 7 0l54 148q36 95 71.5 188.5t70.5 188.5q2 4 5 6t9 2h23q8 0 10 -4t2 -9v-597v0z" />
<glyph unicode="N" horiz-adv-x="497" d="M92 617q7 0 9.5 -2.5t5.5 -6.5l287 -522q4 -6 4 0v523q0 8 7 8h28q7 0 7 -7v-598q0 -7 -3.5 -9.5t-8.5 -2.5h-22q-7 0 -10 2t-5 6q-6 11 -28 51t-52 94t-63.5 115.5t-63.5 115.5t-52 93.5t-28 50.5q-4 6 -4 0v-520q0 -8 -8 -8h-27q-7 0 -7 8v596q0 13 11 13h23z" />
<glyph unicode="O" horiz-adv-x="476" d="M418 160q0 -37 -12 -67.5t-35.5 -52.5t-57 -34.5t-75.5 -12.5q-44 0 -78 13t-56.5 36.5t-34 55t-11.5 67.5v293q0 36 13 66t36 52.5t56 35t74 12.5t74.5 -12t57 -34t36.5 -52.5t13 -67.5v-298zM375 456q0 26 -8.5 49.5t-25.5 41t-42.5 28t-60.5 10.5q-33 0 -59 -10.5 t-43 -28t-26 -41t-9 -49.5v-289q0 -27 8 -51.5t24.5 -43t42.5 -30t62 -11.5q66 0 101.5 36t35.5 95v294z" />
<glyph unicode="P" horiz-adv-x="445" d="M425 453q0 -36 -11.5 -65.5t-33 -51.5t-51.5 -34t-66 -12h-148q-7 0 -7 -8v-275q0 -7 -8 -7h-27q-8 0 -8 7v602q0 8 9 8h188q38 0 68 -12.5t51 -34t32.5 -51.5t11.5 -66zM116 579q-9 0 -9 -6v-238q0 -8 8 -8h147q59 0 90 35t31 92q0 25 -8 48t-23.5 40t-38 27t-51.5 10 h-146z" />
<glyph unicode="Q" horiz-adv-x="476" d="M418 156q0 -67 -40.5 -110t-111.5 -51q-5 -1 -6 -3t-1 -6q0 -16 1.5 -30t7.5 -24.5t17.5 -16.5t31.5 -6q13 0 28.5 2.5t32.5 9.5q9 4 12 -4l7 -18q2 -6 0.5 -8.5t-5.5 -4.5q-18 -8 -38.5 -12t-37.5 -4q-30 0 -49 9t-30 24.5t-15.5 36.5t-4.5 46q0 9 -7 9q-69 8 -110.5 53 t-41.5 111v304q0 36 14 65.5t38.5 50.5t57 33t69.5 12q38 0 71 -11.5t57.5 -32.5t38.5 -50.5t14 -66.5v-307zM375 461q0 26 -9.5 48.5t-27.5 39.5t-43.5 27t-56.5 10q-30 0 -55.5 -10t-43.5 -27t-28 -39.5t-10 -48.5v-300q0 -56 36 -93t101 -37q60 0 98.5 34t38.5 93v303z " />
<glyph unicode="R" horiz-adv-x="465" d="M423 451q0 -30 -8 -56t-21.5 -47.5t-31.5 -38t-37 -28.5q-5 -3 -1 -9l121 -261q3 -6 0.5 -8.5t-6.5 -2.5h-26q-8 0 -11 2.5t-5 8.5l-115 248q-2 6 -5.5 9t-11.5 3h-153q-8 0 -8 -8v-256q0 -7 -7 -7h-28q-8 0 -8 7v600q0 9 11 9h180q85 0 128 -45t43 -120zM114 579 q-10 0 -10 -8v-255q0 -8 7 -8h172q8 0 12.5 1.5t6.5 3.5q35 19 56 54.5t21 77.5q0 23 -5.5 46.5t-21 43t-42.5 32t-69 12.5h-127z" />
<glyph unicode="S" horiz-adv-x="427" d="M194 31q66 0 110 31.5t44 94.5q0 31 -10 53t-27.5 38t-41.5 28t-51 23q-29 11 -60.5 24.5t-57.5 32t-43.5 45t-17.5 64.5q0 39 14.5 68.5t38 50t54 30.5t63.5 10q40 0 80.5 -10.5t73.5 -35.5q5 -3 4 -6t-3 -7l-12 -18q-3 -5 -7 -4t-7 3q-26 19 -60 29t-65 10 q-23 0 -46.5 -6.5t-42.5 -20.5t-30.5 -37t-11.5 -56q0 -26 13.5 -45t34 -33.5t45.5 -25.5t48 -20q32 -13 62.5 -27.5t54 -35.5t37.5 -49t14 -68q0 -41 -15 -72t-41.5 -52t-62.5 -31.5t-77 -10.5q-48 0 -92.5 16.5t-71.5 45.5q-4 4 -3 6.5t5 6.5l13 13q6 6 14 0 q24 -20 61.5 -36t72.5 -16z" />
<glyph unicode="T" horiz-adv-x="400" d="M388 586q0 -7 -7 -7h-153q-4 0 -6 -0.5t-2 -5.5v-566q0 -7 -7 -7h-27q-9 0 -9 7v566q0 6 -7 6h-151q-7 0 -7 7v23q0 8 7 8h362q7 0 7 -7v-24v0z" />
<glyph unicode="U" horiz-adv-x="479" d="M420 159q0 -38 -13.5 -68.5t-37.5 -52t-57 -33.5t-72 -12q-42 0 -76 12.5t-57 34.5t-35.5 52.5t-12.5 66.5v451q0 7 8 7h28q7 0 7 -7v-449q0 -27 9 -50.5t26.5 -41.5t43.5 -28t60 -10q33 0 58.5 10t42.5 27.5t26 41t9 50.5v450q0 7 8 7h28q7 0 7 -7v-451v0z" />
<glyph unicode="V" horiz-adv-x="419" d="M239 6q-1 -6 -9 -6h-41q-6 0 -8 7l-171 600q-4 10 7 10h29q7 0 10 -7l98 -355l55 -205q2 -6 4 0l5 20t10 37t12.5 45.5t12.5 45.5t10 37l5 20l96 355q2 7 10 7h29q7 0 8 -3.5t-1 -8.5z" />
<glyph unicode="W" horiz-adv-x="637" d="M622 617q7 0 7.5 -3t-0.5 -8l-132 -600q-2 -6 -8 -6h-43q-5 0 -7 5q-19 83 -37.5 164.5t-38.5 164.5l-47 206q0 2 -1 2t-2 -2l-45 -208l-72 -327q-3 -5 -9 -5h-42q-5 0 -7 5l-136 603v3q0 6 7 6h30q7 0 9 -9q21 -98 43 -195.5t42 -196.5q9 -39 16.5 -77.5t15.5 -77.5 q1 -2 2.5 -2t2.5 2l30 141q2 8 4 17t5.5 25.5t9 43.5t15 69.5t23 104t32.5 148.5q1 3 2.5 5t7.5 2h32q7 0 9 -9q19 -82 38.5 -165t38.5 -166l49 -216q1 -3 3 -3.5t2 3.5l44 220l34 164l34 164q3 8 10 8h29z" />
<glyph unicode="X" horiz-adv-x="413" d="M211 274q-3 7 -7 1l-147 -270q-3 -5 -5.5 -5h-6.5h-29q-5 0 -6 3t1 7l167 303q5 8 3.5 11.5t-3.5 5.5l-152 278q-5 9 5 9h31q10 0 12 -5l130 -243q2 -2 4 -2t3 2q3 5 13 24t23.5 44t29.5 53.5t29.5 53.5t23.5 43.5t13 24.5q2 5 11 5h29q10 0 6 -9q-4 -8 -16 -29 t-27.5 -49.5t-33.5 -60.5t-33.5 -60.5t-27 -50t-15.5 -28.5q-4 -6 -3 -10t3 -6q4 -8 16.5 -31t30 -54.5t37.5 -66.5t37.5 -66.5t30.5 -55t17 -30.5q4 -10 -5 -10h-30h-7t-5 5z" />
<glyph unicode="Y" horiz-adv-x="403" d="M228 252q-4 -8 -4.5 -13.5t-0.5 -10.5v-221q0 -7 -7 -7h-28q-8 0 -8 7v216q0 8 -0.5 13t-3.5 12l-162 359q-5 10 6 10h28q5 0 7.5 -2t4.5 -6l139 -316l3 -3t3 3q3 8 13.5 32t25 56.5t30.5 69.5t30.5 69.5t25 56.5t13.5 32q3 5 5 6.5t8 1.5h28q11 0 5 -11z" />
<glyph unicode="Z" horiz-adv-x="393" d="M376 8q0 -8 -7 -8h-341q-10 0 -10 9v16q0 9 4 19l296 528q5 7 -5 7h-272q-9 0 -9 8v22q0 8 8 8h321q11 0 11 -10v-15q0 -6 -2 -11.5t-4 -9.5l-292 -524q-5 -8 4 -8h290q8 0 8 -8v-23v0z" />
<glyph unicode="[" horiz-adv-x="304" d="M232 -135q0 -7 -6 -7h-125q-7 0 -7 7v804q0 8 7 8h125q6 0 6 -8v-22q0 -6 -6 -6h-82q-8 0 -8 -7v-734q0 -7 8 -7h82q6 0 6 -6v-22v0z" />
<glyph unicode="\" horiz-adv-x="284" d="M280 -59q1 -4 -1.5 -6t-5.5 -2h-15q-7 0 -9 8l-243 725q-3 8 6 8h14q8 0 11 -8l243 -725v0z" />
<glyph unicode="]" horiz-adv-x="305" d="M191 -136q0 -7 -6 -7h-126q-6 0 -6 7v22q0 7 6 7h82q8 0 8 7v734q0 6 -8 6h-82q-6 0 -6 7v22q0 7 6 7h125q7 0 7 -7v-805v0z" />
<glyph unicode="^" horiz-adv-x="502" d="M420 377q-6 -4 -12 2l-152 182q-4 5 -5.5 5t-5.5 -5l-147 -178q-2 -2 -4 -5t-7 0l-13 10q-6 5 -2 10l159 219q4 5 5.5 6.5t5.5 1.5h17q7 0 12 -8l162 -219q6 -6 -2 -12z" />
<glyph unicode="_" horiz-adv-x="500" d="M503 -107q0 -6 -6 -6h-493q-7 0 -7 6l-1 20q0 7 8 7h493q6 0 6 -7v-20v0z" />
<glyph unicode="`" horiz-adv-x="402" d="M130 608q-4 5 -4 8.5t9 8.5l22 12q12 6 18 -4l68 -124q2 -3 2.5 -6t-5.5 -7l-11 -6q-5 -3 -8 -1t-5 5z" />
<glyph unicode="a" horiz-adv-x="382" d="M28 138q0 31 10 58t29 47t47.5 32t65.5 12q31 0 59.5 -11t45.5 -31q4 -4 6.5 -2.5t2.5 6.5v46q0 21 -4.5 40.5t-16.5 34.5t-33.5 24.5t-54.5 9.5q-12 0 -26 -1.5t-28.5 -4.5t-28 -7t-23.5 -8q-7 -5 -10 3l-9 21q-1 6 5 9q25 12 59 18.5t64 6.5q80 0 114 -38.5t34 -110.5 v-285q0 -7 -7 -7h-26q-6 0 -6 6v39q0 7 -3 7t-6 -4q-39 -53 -116 -53q-69 0 -106.5 39.5t-37.5 103.5zM67 140q0 -47 26 -79t85 -32q51 0 82.5 33t31.5 80q0 46 -29.5 79t-81.5 33q-27 0 -48.5 -9t-36 -24.5t-22 -36.5t-7.5 -44z" />
<glyph unicode="b" horiz-adv-x="411" d="M376 151q0 -33 -10 -61.5t-29.5 -49.5t-49 -33t-69.5 -12q-37 0 -68 13t-49 35q-5 5 -7.5 4t-2.5 -6v-34q0 -7 -7 -7h-25q-8 0 -8 6v624q0 7 8 7h28q6 0 6 -6v-236q0 -6 2.5 -8t7.5 3q21 23 50 36.5t68 13.5q44 0 73.5 -14.5t47.5 -38t26 -53t8 -59.5v-124zM334 277 q0 25 -6.5 48t-21 40.5t-37 28t-55.5 10.5q-27 0 -49 -10t-38.5 -27t-25.5 -40t-9 -48v-128q0 -26 9 -48t25 -38.5t38 -25.5t49 -9q65 0 93 34t28 89v124z" />
<glyph unicode="c" horiz-adv-x="371" d="M343 377q5 -8 -2 -12l-18 -15q-6 -4 -13 3q-17 24 -44 37.5t-58 13.5q-54 0 -88 -34.5t-34 -87.5v-129q0 -57 34.5 -89.5t88.5 -32.5q36 0 61 13.5t42 36.5q4 7 11 2l18 -11q5 -4 5.5 -7t-1.5 -6q-23 -33 -58.5 -48.5t-78.5 -15.5q-77 0 -120 43t-43 115v128 q0 36 12.5 65.5t34.5 50t52 32t65 11.5q86 0 134 -63z" />
<glyph unicode="d" horiz-adv-x="418" d="M372 6q0 -6 -7 -6h-26q-6 0 -6 7v34q0 5 -3 6.5t-8 -3.5q-17 -23 -48 -36t-68 -13q-38 0 -67.5 11.5t-49.5 32.5t-30.5 49.5t-10.5 62.5v126q0 30 9 59t28 52.5t49 37.5t72 14q38 0 68 -13.5t46 -36.5q5 -6 7.5 -4t2.5 8v236q0 7 7 7h28q7 0 7 -6v-625zM331 279 q0 25 -9 48t-25 39.5t-38 26.5t-49 10q-32 0 -55 -10.5t-37.5 -27.5t-21.5 -40t-7 -48v-124q0 -54 30.5 -88.5t90.5 -34.5q27 0 49 9t38 25.5t25 38.5t9 48v128z" />
<glyph unicode="e" horiz-adv-x="408" d="M372 231q0 -9 -4.5 -13t-9.5 -4h-257q-12 0 -12 -13v-48q0 -52 33 -87t89 -35q33 0 58.5 13t42.5 36q6 8 13 3l19 -12q6 -5 4 -11q-21 -32 -57 -48.5t-81 -16.5q-75 0 -118.5 42.5t-43.5 114.5v126q0 38 12.5 68t34 51t51 32t63.5 11q35 0 65 -10.5t51.5 -31t34 -51.5 t12.5 -73v-43zM330 283q0 53 -33 87t-88 34q-26 0 -47.5 -9t-38 -25.5t-25.5 -38.5t-9 -47v-24q0 -11 12 -11h220q9 0 9 11v23z" />
<glyph unicode="f" horiz-adv-x="257" d="M271 603q-2 -8 -10 -5q-10 4 -23.5 6.5t-27.5 2.5q-51 0 -70.5 -27.5t-19.5 -72.5v-63q0 -9 8 -9h118q6 0 6 -7v-23q0 -6 -6 -6h-120q-6 -1 -6 -9v-384q0 -6 -7 -6h-28q-7 0 -7 6v384q0 8 -6 9h-49q-6 0 -6 7v22q0 7 6 7h47q9 0 9 9v71q0 65 34 97t91 32q17 0 35 -2 t31 -7q5 -2 6.5 -3t-0.5 -6z" />
<glyph unicode="g" horiz-adv-x="415" d="M416 -81q0 -35 -20 -65.5t-52 -49.5q-4 -2 -7.5 -3t-7.5 4l-13 18q-4 7 4 13q19 12 36 33t17 47q0 25 -13 41t-33.5 26t-46 14t-50.5 4q-32 0 -71.5 -4.5t-77.5 -9.5q-9 -2 -14.5 0.5t-10.5 14.5q-7 15 -7 44q0 20 17.5 50t49.5 53q3 1 3 4q0 1 -4 5h-1q-33 20 -52 54 t-19 76q0 30 12 57.5t33 48.5t50 33.5t64 12.5q23 0 51.5 -7.5t51.5 -27.5q4 -4 7 -4t7 4q17 14 39 23t45 11h3q7 0 7 -10v-30q0 -8 -6 -8h-3q-15 0 -34 -4t-27 -8q-5 -2 -5 -5q0 -2 4 -10q10 -15 15 -35t5 -39q0 -36 -13.5 -65t-36 -49t-51.5 -31t-61 -11h-17t-16 2 q-8 0 -11.5 -1.5t-8.5 -4.5q-10 -7 -20.5 -17t-18.5 -21.5t-13.5 -23.5t-5.5 -24q0 -15 3.5 -18t14.5 -1q13 3 29 5.5t32.5 4.5t32 3t27.5 1q36 0 69.5 -6.5t60 -21t42.5 -37t16 -55.5zM320 289q0 23 -8 44t-23.5 36.5t-37 24.5t-48.5 9t-48.5 -9.5t-37 -25.5t-24 -37 t-8.5 -44t8 -44t22.5 -37.5t36 -26.5t48.5 -10q28 0 50.5 10t38 26.5t23.5 38.5t8 45z" />
<glyph unicode="h" horiz-adv-x="428" d="M379 7q0 -7 -7 -7h-28q-7 0 -7 6v271q0 25 -6.5 48.5t-21 40.5t-37.5 27.5t-56 10.5q-27 0 -49 -10t-37.5 -27t-24.5 -39.5t-9 -48.5v-272q0 -7 -7 -7h-28q-7 0 -7 6v624q0 7 7 7h28q6 0 6 -7v-237q0 -6 3 -7.5t7 3.5q23 26 54.5 38.5t66.5 12.5q42 0 71 -14t47.5 -36.5 t26.5 -52.5t8 -61v-269v0z" />
<glyph unicode="i" horiz-adv-x="172" d="M114 562q0 -13 -9 -22t-21 -9t-21 8.5t-9 22.5q0 13 9 21.5t21 8.5q13 0 21.5 -8.5t8.5 -21.5zM62 428q0 7 7 7h28q7 0 7 -7v-422q0 -6 -7 -6h-28q-7 0 -7 6v422z" />
<glyph unicode="j" horiz-adv-x="164" d="M115 562q0 -13 -9 -22t-20 -9q-13 0 -22 8.5t-9 22.5q0 13 9 21.5t21 8.5q13 0 21.5 -8.5t8.5 -21.5zM-44 -142q2 6 10 5q8 -2 18 -3t18 -1q38 0 50 20t12 60v489q0 7 7 7h28q7 0 7 -7v-492q0 -57 -24 -86t-77 -29q-14 0 -27 1.5t-21 4.5q-7 1 -6 9z" />
<glyph unicode="k" horiz-adv-x="406" d="M376 9q0 -9 -8 -9h-26q-8 0 -8 8l-5 101q-1 24 -7.5 46t-20.5 38.5t-35.5 26t-52.5 9.5q-25 0 -47 -9t-38 -25t-25 -36.5t-9 -42.5v-109q0 -7 -6 -7h-28q-8 0 -8 6v624q0 7 7 7h29q6 0 6 -6v-399q0 -8 3.5 -8.5t7.5 2.5l205 204q6 5 14 5h35q4 0 5.5 -2.5t-0.5 -4.5 l-156 -157q-5 -5 -3 -7t5 -1q4 1 7.5 1h6.5q71 0 107 -41.5t40 -113.5l5 -100v0z" />
<glyph unicode="l" horiz-adv-x="195" d="M177 2q0 -7 -8 -7h-19q-26 0 -41.5 7t-24 18.5t-11.5 27t-3 33.5v549q0 7 6 7h28q7 0 7 -7v-535q0 -30 9 -45.5t39 -15.5h10q6 0 7 -2.5t1 -6.5v-23z" />
<glyph unicode="m" horiz-adv-x="664" d="M614 7q0 -7 -6 -7h-29q-7 0 -7 6v283q0 49 -26 82t-84 33q-21 0 -40.5 -9t-34.5 -25t-24 -36.5t-9 -44.5v-282q0 -7 -7 -7h-28q-7 0 -7 6v283q0 24 -8.5 45t-23 36.5t-34 24.5t-41.5 9q-56 0 -84 -33t-28 -82v-282q0 -7 -6 -7h-29q-7 0 -7 6v283q0 34 12 62t32.5 48 t48 30.5t59.5 10.5q35 0 68.5 -16t57.5 -54q5 -6 10 0q20 33 57 51.5t73 18.5q71 0 108 -40.5t37 -110.5v-282v0z" />
<glyph unicode="n" horiz-adv-x="427" d="M378 7q0 -7 -6 -7h-29q-7 0 -7 6v271q0 25 -6.5 48.5t-20.5 40.5t-37.5 27.5t-56.5 10.5q-27 0 -49 -10t-37.5 -27t-24.5 -39.5t-9 -48.5v-272q0 -7 -7 -7h-28q-7 0 -7 6v422q0 7 7 7h27q6 0 6 -7v-37q0 -6 2.5 -7t7.5 4q22 25 54.5 38.5t67.5 13.5q42 0 71 -13.5 t47.5 -36.5t26.5 -52.5t8 -61.5v-269v0z" />
<glyph unicode="o" horiz-adv-x="421" d="M373 156q0 -77 -42.5 -119t-118.5 -42q-79 0 -121 43t-42 116v128q0 71 43.5 114.5t119.5 43.5q75 0 118 -42.5t43 -116.5v-125zM332 280q0 54 -30 89t-90 35q-54 0 -88 -34.5t-34 -88.5v-126q0 -57 31 -91t91 -34t90 34t30 92v124z" />
<glyph unicode="p" horiz-adv-x="425" d="M379 159q0 -30 -8.5 -60t-27 -53t-48 -37.5t-71.5 -14.5q-39 0 -67.5 13.5t-49.5 37.5q-10 10 -10 -4v-215q0 -6 -7 -6h-28q-7 0 -7 6v602q0 7 7 7h26q7 0 7 -7v-37q0 -11 10 -1q18 23 48.5 36.5t67.5 13.5q75 0 116.5 -43.5t41.5 -112.5v-125zM338 281q0 55 -29.5 89 t-91.5 34q-54 0 -87.5 -34t-33.5 -86v-128q0 -26 9 -48.5t25 -40t38 -27.5t49 -10q32 0 55 10t37.5 27t21.5 40.5t7 49.5v124z" />
<glyph unicode="q" horiz-adv-x="418" d="M366 -177q0 -7 -7 -7h-28q-7 0 -7 7v217q0 6 -2.5 8t-7.5 -4q-18 -23 -48 -36.5t-68 -13.5q-44 0 -73.5 13.5t-48 36t-26.5 52.5t-8 63v124q0 34 11 63t31 50t49.5 32.5t66.5 11.5t67.5 -13t48.5 -36q5 -5 7.5 -3.5t2.5 6.5v34q0 7 7 7h26q7 0 7 -7v-605zM325 283 q0 53 -33.5 87t-87.5 34q-57 0 -89 -33.5t-32 -88.5v-125q0 -25 6 -48t20.5 -40t37.5 -27.5t57 -10.5q27 0 49 10t38 27t25 39.5t9 48.5v127z" />
<glyph unicode="r" horiz-adv-x="254" d="M89 435q6 0 6 -7v-48q0 -13 8 -2q18 26 47 45t64 19q7 0 15 -0.5t14 -2.5q8 -3 7 -10l-7 -29q-1 -8 -11 -6q-5 1 -12 1.5t-13 0.5q-53 0 -81 -36t-28 -91v-262q0 -7 -6 -7h-28q-8 0 -8 6v422q0 7 7 7h26z" />
<glyph unicode="s" horiz-adv-x="340" d="M314 109q0 -21 -8.5 -42t-26.5 -37t-45.5 -26t-64.5 -10q-45 0 -85 19.5t-60 60.5q-4 6 3 9l22 11q4 2 6 0l4 -4q15 -27 45.5 -44t65.5 -17q46 0 74.5 21.5t28.5 57.5q0 20 -8.5 34.5t-21.5 25t-29.5 18.5t-32.5 14q-22 8 -47.5 17.5t-47.5 24t-36.5 35t-14.5 50.5 q0 28 12 49t31 35t43.5 21.5t49.5 7.5q40 0 74 -13t57 -37q5 -6 -1 -12l-14 -16q-6 -6 -13 1q-20 19 -47.5 30t-55.5 11q-14 0 -30.5 -4t-31 -13t-24 -23t-9.5 -34t10 -34t26 -24t34 -17.5t35 -13.5q25 -9 48.5 -19.5t42.5 -25.5t30.5 -36t11.5 -51z" />
<glyph unicode="t" horiz-adv-x="278" d="M190 -5q-31 0 -51 9t-31.5 25t-16 38t-4.5 47v276q0 9 -8 9h-55q-6 0 -6 7v22q0 7 6 7h56q7 0 7 8v102q0 7 7 8l27 7q8 1 8 -7v-110q0 -8 6 -8h111q7 0 7 -7v-22q0 -7 -7 -7h-110q-7 0 -7 -9v-269q0 -47 15.5 -68.5t51.5 -21.5q14 0 33 3t30 6q6 2 8 -0.5t3 -5.5l4 -20 q1 -7 -5 -9q-15 -6 -39 -8t-40 -2z" />
<glyph unicode="u" horiz-adv-x="426" d="M376 7q0 -7 -8 -7h-27q-6 0 -6 6v37q0 16 -10 4q-21 -26 -54 -39t-68 -13q-44 0 -73 13.5t-46.5 36.5t-25 52.5t-7.5 61.5v269q0 7 6 7h29q6 0 6 -7v-271q0 -25 6 -47.5t20.5 -40t37.5 -27.5t57 -10q27 0 49 9.5t38 26.5t24.5 39.5t8.5 48.5v272q0 7 7 7h28q8 0 8 -7 v-421v0z" />
<glyph unicode="v" horiz-adv-x="371" d="M209 9q-2 -5 -3.5 -7t-7.5 -2h-24q-11 0 -13 8l-149 418q-3 9 6 9h25q6 0 8.5 -2.5t4.5 -7.5l83 -239l43 -131q3 -9 7 0l42 128l82 241q2 5 4 8t9 3h26q9 0 6 -9z" />
<glyph unicode="w" horiz-adv-x="564" d="M292 434q5 0 7.5 -1.5t4.5 -8.5l75 -244l35 -121q2 -4 4 -4t2 4l28 121l59 244q2 10 13 10h25q6 0 7 -2t0 -6l-112 -417q-2 -6 -4 -7.5t-7 -1.5h-23q-7 0 -9 1t-4 6l-76 239l-35 117q0 4 -2 4.5t-3 -4.5l-34 -119l-73 -236q-2 -6 -4 -7t-7 -1h-24q-6 0 -8.5 1t-4.5 7 l-112 418q-2 8 5 8h26q6 0 8 -2t4 -7l61 -242l29 -124q2 -4 4 -4t2 4l35 123l72 242q2 6 3.5 8t7.5 2h25z" />
<glyph unicode="x" horiz-adv-x="343" d="M336 9q6 -9 -5 -9h-27q-6 0 -9.5 1.5t-7.5 7.5l-110 179q-2 5 -4.5 4t-4.5 -4l-110 -179q-4 -6 -7.5 -7.5t-8.5 -1.5h-27q-11 0 -5 9l131 208q5 8 5 11.5t-5 10.5l-116 187q-2 3 -1 6t6 3h26q7 0 10 -1t7 -8l96 -157q4 -8 8 1l95 156q4 7 7 8t10 1h26q5 0 6 -3t-1 -6 l-117 -188q-5 -8 -3.5 -11.5t3.5 -6.5z" />
<glyph unicode="y" horiz-adv-x="361" d="M160 -6q2 6 -3 6h-6q-9 0 -12 9l-131 417q-2 9 7 9h25q8 0 12 -8l117 -382q2 -5 4 -5q4 0 5 5l128 381q1 3 3 6t8 3h24q9 0 8 -9l-201 -598q-2 -11 -15 -11h-20q-10 0 -7 12z" />
<glyph unicode="z" horiz-adv-x="338" d="M321 7q0 -7 -7 -7h-281q-9 0 -9 9v14q0 11 4 16l224 351q6 9 -5 9h-207q-8 0 -8 7v21q0 8 7 8h259q10 0 10 -10v-15q0 -12 -3 -16l-224 -349q-5 -9 6 -9h226q8 0 8 -7v-22v0z" />
<glyph unicode="{" horiz-adv-x="301" d="M265 -142q0 -7 -6 -7h-17q-66 -1 -91.5 30t-25.5 102v148q0 41 -14 71.5t-56 47.5q-7 3 -10.5 5t-3.5 7v21q0 8 3.5 10t8.5 4q42 17 57 47.5t15 72.5v135q0 71 25.5 102t91.5 30h17q6 0 6 -7v-22q0 -6 -6 -6h-19q-46 0 -60.5 -19.5t-14.5 -68.5v-162q0 -35 -18 -70 t-55 -51q-8 -5 0 -7q36 -14 54.5 -49.5t18.5 -79.5v-168q0 -49 14.5 -68.5t60.5 -19.5h19q6 0 6 -6v-22v0z" />
<glyph unicode="|" horiz-adv-x="197" d="M114 -106q0 -6 -6 -6h-21q-7 0 -7 6v774q0 7 7 7h21q6 0 6 -6v-775v0z" />
<glyph unicode="}" horiz-adv-x="301" d="M267 262q0 -5 -3 -7t-11 -5q-42 -17 -56 -47.5t-14 -71.5v-148q0 -71 -25 -102t-91 -30h-17q-7 0 -7 7v22q0 7 6 7h20q22 0 36.5 4.5t23 15t11.5 27t3 41.5v167q0 44 18.5 79.5t54.5 49.5q8 2 0 7q-37 16 -55 51t-18 70v162q0 49 -14.5 68.5t-59.5 19.5h-20q-6 0 -6 6v22 q0 7 7 7h17q66 1 91.5 -30t25.5 -102v-135q0 -42 14.5 -72t56.5 -48q5 -2 8.5 -4t3.5 -10v-21v0z" />
<glyph unicode="~" horiz-adv-x="445" d="M427 303q-20 -31 -49 -48t-59 -17q-29 0 -57 11t-54 24q-20 11 -42.5 22t-43.5 11q-23 0 -42.5 -12.5t-36.5 -33.5q-4 -4 -9 0l-17 15q-3 3 -3 5.5t2 5.5q22 31 50 45.5t57 14.5q23 0 45.5 -8t42.5 -19q26 -14 53 -27t54 -13q23 0 43 14.5t33 31.5q6 10 12 4l19 -15 q4 -3 4 -5.5t-2 -5.5z" />
<glyph unicode="&#xa1;" horiz-adv-x="246" d="M104 -180q2 117 4 231.5t4 230.5q0 7 6 7h15q7 0 7 -6l12 -463q0 -8 -8 -8h-32q-8 0 -8 8zM92 400q0 14 9.5 24t24.5 10q14 0 24.5 -10t10.5 -24t-10.5 -24t-24.5 -10q-15 0 -24.5 10t-9.5 24z" />
<glyph unicode="&#xa2;" horiz-adv-x="445" d="M230 403q-29 0 -50.5 -10t-36 -26.5t-22 -38.5t-7.5 -46v-130q0 -51 30 -86t84 -35q38 0 63 12.5t46 37.5q3 5 6 4.5t6 -2.5l19 -12q6 -4 6 -6.5t-2 -6.5q-40 -56 -119 -62q-2 0 -4.5 -1t-2.5 -6v-68q0 -7 -6 -7h-20q-7 0 -7 6v70q0 5 -7 7q-66 5 -100 48.5t-34 106.5 v113q0 69 31.5 116t96.5 56q8 1 10.5 2.5t2.5 7.5v62q0 7 8 7h17q8 0 8 -7v-63q0 -8 8 -8q37 -2 65 -18t50 -42q4 -5 3 -7.5t-4 -5.5l-19 -16q-8 -4 -13 3q-19 26 -46.5 38.5t-59.5 12.5z" />
<glyph unicode="&#xa3;" horiz-adv-x="445" d="M275 302q0 -7 -6 -7h-127q-6 0 -6 -7v-116q0 -38 -4.5 -70.5t-25.5 -57.5q-1 -1 -1 -4t5 -3h266q7 0 7 -7v-23q0 -7 -6 -7h-336q-7 0 -7 6v18q0 10 11 16q28 17 38.5 46t10.5 78v125q-1 5 -7 5h-47q-7 0 -7 8v23q0 7 7 7h45q3 0 6 1.5t3 8.5v131q1 32 14 59.5t35 48 t52.5 32t66.5 11.5q49 -2 84 -17.5t59 -44.5q7 -7 -1 -14l-18 -15q-7 -7 -12 1q-18 24 -48.5 38.5t-62.5 14.5q-27 0 -50 -8.5t-40.5 -24t-27 -37.5t-9.5 -48v-130q0 -7 6 -7h127q6 0 6 -7v-23v0z" />
<glyph unicode="&#xa4;" horiz-adv-x="487" d="M160 126q-9 3 -15 -3l-44 -44q-3 -3 -10 1l-17 15q-2 2 -2 5.5t2 5.5l47 47q3 6 0.5 10t-4.5 9q-22 32 -22 75t25 81q8 8 0 16q-11 12 -22.5 23.5t-22.5 23.5q-3 5 0 9l19 18q3 3 8 -1l44 -46q5 -6 9 -4t9 4q33 21 76 21q45 0 80 -24q6 -4 8.5 -4t8.5 4l47 47q2 3 4.5 3 t4.5 -3l18 -17q3 -2 2.5 -4.5t-2.5 -4.5l-48 -48q-9 -9 -1 -16q25 -36 25 -78q0 -43 -23 -78q-3 -5 -4.5 -8t4.5 -7l46 -45q4 -6 0 -9l-16 -14q-2 -2 -6 -3.5t-10 4.5l-41 39q-5 5 -7 4.5t-7 -3.5q-17 -13 -38 -20t-44 -7q-44 0 -81 26zM130 247q0 -23 9 -43t24 -35t35 -24 t43 -9t43.5 9t35.5 24t23.5 35t8.5 43t-8.5 43.5t-23.5 35.5t-35.5 23.5t-43.5 8.5t-43 -8.5t-35 -23.5t-24 -35.5t-9 -43.5z" />
<glyph unicode="&#xa5;" horiz-adv-x="445" d="M57 283q-7 0 -7 7v17q0 7 7 7h117q9 0 5 8l-138 286q-5 9 5 9h29q5 0 7 -2t4 -6q20 -43 41 -84t41 -84l51 -108q3 -9 7 -1l60 128l72 148q3 5 5 7t7 2h27q7 0 7 -4q0 -2 -2 -6l-136 -279q-2 -5 -3 -9.5t7 -4.5h125q7 0 7 -6v-18q0 -7 -7 -7h-338zM395 238q7 0 7 -6v-18 q0 -7 -7 -7h-143q-9 0 -9 -10v-191q0 -6 -7 -6h-28q-7 0 -7 6v191q0 3 -1.5 6.5t-7.5 3.5h-135q-7 0 -7 7v18q0 6 7 6h338z" />
<glyph unicode="&#xa6;" horiz-adv-x="197" d="M114 -106q0 -6 -6 -6h-21q-7 0 -7 6v363q0 7 7 7h21q7 0 7 -6zM114 304q0 -6 -6 -6h-21q-7 0 -7 6v364q0 7 7 7h21q6 0 6 -6v-365z" />
<glyph unicode="&#xa7;" horiz-adv-x="408" d="M214 614q-49 0 -77 -22t-28 -52q0 -29 24 -50t78 -41q31 -11 57.5 -22.5t46.5 -26.5t31.5 -35.5t11.5 -48.5q0 -38 -20 -65t-52 -39q-3 -1 -6 -1t-5 5l-7 16q-2 4 -1.5 6t7.5 7q19 13 32 27.5t13 41.5q0 20 -9 35t-25.5 26.5t-38.5 21t-48 18.5q-56 20 -92 47.5t-36 73.5 q0 49 38 80.5t108 31.5q39 0 71.5 -13.5t55.5 -37.5q3 -2 3 -5q0 -5 -3 -6l-15 -16q-2 -2 -6 -2q-5 0 -8 3q-19 20 -45.5 31.5t-54.5 11.5zM207 -35q19 0 39.5 5t37.5 15t27.5 25.5t10.5 36.5q0 20 -9.5 35t-26.5 26.5t-40 21t-49 18.5q-57 20 -94.5 48.5t-37.5 73.5 q0 37 22.5 63t61.5 40l6 1q4 0 6 -6l5 -12q2 -6 2 -7q0 -5 -8 -8q-26 -10 -41.5 -28.5t-15.5 -38.5q0 -26 24.5 -48.5t80.5 -42.5q31 -11 59 -22.5t49 -27t33.5 -36t12.5 -48.5t-12.5 -50t-34 -37t-50 -23t-61.5 -8q-44 0 -82 14.5t-61 38.5q-2 2 -2 5t3 6l11 10q8 8 12 8 q3 0 7 -4q19 -18 50 -31t65 -13z" />
<glyph unicode="&#xa8;" horiz-adv-x="407" d="M315 561q0 -12 -8.5 -21t-20.5 -9q-13 0 -21.5 9t-8.5 21q0 13 8.5 21.5t20.5 8.5t21 -8.5t9 -21.5zM161 561q0 -13 -9 -21.5t-20 -8.5q-12 0 -20.5 9t-8.5 21q0 13 8.5 21.5t20.5 8.5t20.5 -8.5t8.5 -21.5z" />
<glyph unicode="&#xa9;" horiz-adv-x="700" d="M465 425q3 -6 -2 -9l-13 -9q-7 -5 -11 1q-13 18 -34.5 28.5t-47.5 10.5q-42 0 -69 -26t-27 -68v-104q0 -42 28 -68.5t69 -26.5q24 0 45.5 10t35.5 28q4 5 6 5.5t5 -1.5l14 -10q4 -2 4 -4.5t-2 -5.5q-18 -23 -45.5 -36t-62.5 -13q-57 0 -92 32.5t-35 87.5v107 q0 53 35 86.5t92 33.5q72 0 107 -49zM352 0q-65 0 -118 17t-90.5 48t-58.5 75t-21 98v141q0 54 21 98t58.5 75t90.5 48t118 17q64 0 117.5 -16t91.5 -46.5t59.5 -74.5t21.5 -101v-141q0 -57 -21.5 -101t-59.5 -74.5t-91.5 -46.5t-117.5 -16zM617 382q0 45 -18 83.5t-52 67 t-83.5 45t-112.5 16.5q-64 0 -113 -17t-82 -45.5t-49.5 -67.5t-16.5 -82v-147q0 -43 16.5 -81.5t49.5 -67.5t82 -46t113 -17q63 0 112.5 16.5t83.5 45.5t52 67.5t18 82.5v147z" />
<glyph unicode="&#xaa;" horiz-adv-x="260" d="M231 251q0 -9 -7 -9h-19q-8 0 -8 8v17q0 3 -1 3q-2 0 -5 -3q-28 -28 -71 -28q-46 0 -75 26t-29 69t29 70.5t76 27.5q20 0 38 -7.5t31 -22.5q1 0 2 -1q3 0 3 2v26q0 28 -15 48t-57 20q-14 0 -34.5 -3.5t-34.5 -9.5q-6 -3 -8 -1t-4 5l-4 12q-2 4 -1 6.5t6 6.5q17 8 39.5 12 t42.5 4q55 0 80.5 -28.5t25.5 -73.5v-176zM192 335q0 27 -20.5 47t-50.5 20q-29 0 -50 -20t-21 -47t20.5 -47t50.5 -20q31 0 51 20.5t20 46.5z" />
<glyph unicode="&#xab;" horiz-adv-x="447" d="M263 203q-4 -5 -3 -6.5l3 -4.5l129 -161q4 -5 2 -8t-7 -3h-25q-5 0 -9 1.5t-9 7.5l-125 157q-9 12 -1 23l126 154q4 5 7 7t11 2h25q14 0 5 -11zM117 203q-3 -5 -2.5 -6.5t2.5 -4.5l129 -161q4 -5 2 -8t-7 -3h-25q-6 0 -10 1.5t-9 7.5l-125 157q-8 12 0 23l126 154 q4 5 7 7t11 2h25q14 0 5 -11z" />
<glyph unicode="&#xac;" horiz-adv-x="445" d="M412 50q0 -8 -8 -8h-23q-8 0 -8 8v162q0 4 -1 5.5t-6 1.5h-326q-8 0 -8 8v20q0 9 8 9h364q8 0 8 -9v-197z" />
<glyph unicode="&#xad;" horiz-adv-x="298" d="M237 225q0 -7 -6 -7h-165q-7 0 -7 7v27q0 7 7 7h165q6 0 6 -7v-27v0z" />
<glyph unicode="&#xae;" horiz-adv-x="402" d="M199 306q-73 0 -114.5 37t-41.5 93v79q0 57 41.5 93.5t114.5 36.5q72 0 115 -35.5t43 -94.5v-79q0 -58 -40 -94t-118 -36zM337 514q0 51 -36 81.5t-102 30.5t-101.5 -31.5t-35.5 -80.5v-77q0 -49 35.5 -81t101.5 -32t102 31t36 82v77zM250 383q-4 0 -5 2t-3 4l-34 70 q-3 5 -8 5h-25q-7 0 -7 -7v-68q0 -6 -5 -6h-9q-7 0 -7 6v172q0 7 8 7h54q28 0 41.5 -14t13.5 -36q0 -16 -11 -30t-22 -19q-4 -2 -1 -9l36 -72q2 -5 -5 -5h-11zM175 549q-2 0 -4.5 -0.5t-2.5 -5.5v-56q0 -5 1.5 -5.5t5.5 -0.5h33q11 0 23 10.5t12 25.5q0 14 -9 23t-23 9h-36z " />
<glyph unicode="&#xaf;" horiz-adv-x="382" d="M294 538q0 -7 -6 -7h-182q-6 0 -6 7v20q0 7 6 7h181q7 0 7 -7v-20v0z" />
<glyph unicode="&#xb0;" horiz-adv-x="302" d="M254 528q0 -20 -8.5 -38t-22.5 -31t-33.5 -20.5t-40.5 -7.5q-43 0 -72.5 27.5t-29.5 69.5q0 21 8 39t21.5 31.5t32 21t39.5 7.5q53 0 79.5 -28.5t26.5 -70.5zM148 601q-29 0 -49.5 -20.5t-20.5 -52.5q0 -29 19.5 -50.5t50.5 -21.5q30 0 52.5 20.5t22.5 51.5t-20 52 t-55 21z" />
<glyph unicode="&#xb1;" horiz-adv-x="445" d="M414 327q0 -8 -9 -8h-159q-7 0 -7 -6v-164q0 -8 -8 -8h-20q-9 0 -9 8v164q0 6 -6 6h-154q-9 0 -9 8v19q0 9 9 9h155q5 0 5 6v164q0 8 9 8h20q8 0 8 -8v-164q0 -6 7 -6h159q9 0 9 -9v-19zM418 54q0 -8 -8 -8h-375q-8 0 -8 8v19q0 9 8 9h375q8 0 8 -9v-19z" />
<glyph unicode="&#xb2;" horiz-adv-x="290" d="M245 340q0 -8 -7 -8h-210q-10 0 -10 8v12q0 7 5 14q35 43 75 91.5t75 91.5q20 25 27.5 42.5t7.5 31.5q0 27 -20 43t-53 16q-24 0 -43 -10t-30 -19q-5 -4 -9 -6.5t-7 2.5l-13 15q-5 4 2 11q18 17 45 27.5t56 10.5q45 0 76 -23t31 -65q0 -26 -12 -48.5t-37 -52.5l-127 -156 q-2 -2 -2 -4t4 -2h168q8 0 8 -8v-14v0z" />
<glyph unicode="&#xb3;" horiz-adv-x="290" d="M238 437q0 -48 -32 -79.5t-86 -31.5q-64 0 -95 43q-5 8 1 12l15 10q8 4 13 -2q11 -16 29 -24.5t37 -8.5q41 0 61.5 22.5t20.5 54.5v26q0 26 -17 44t-49 18h-44q-7 0 -7 6v18q0 3 1 5t6 2h44q26 0 46.5 17.5t20.5 46.5q0 26 -19.5 45t-54.5 19q-21 0 -38.5 -7.5 t-27.5 -19.5q-3 -5 -6.5 -7t-8.5 2l-13 9q-8 6 0 14q15 20 40 30t54 10q50 0 79.5 -25.5t29.5 -68.5q0 -27 -14 -48.5t-31 -32.5q-2 -2 0 -3q25 -9 35 -30t10 -42v-24v0z" />
<glyph unicode="&#xb4;" horiz-adv-x="402" d="M202 494q-6 -7 -13 -3l-9 6q-2 2 -3.5 4.5t1.5 8.5l68 124q3 5 7 7t11 -2l21 -13q7 -4 7 -9q0 -2 -1 -3.5t-2 -3.5z" />
<glyph unicode="&#xb6;" horiz-adv-x="403" d="M191 324q-34 0 -62 12t-48.5 32.5t-32 48.5t-11.5 60t11.5 60t32.5 49t49 33.5t61 12.5h78q6 0 6 -7v-295q0 -6 -6 -6h-78zM347 65q0 -37 -6 -65.5t-22.5 -49t-46.5 -33.5t-78 -18q-6 0 -7 6l-2 19q-2 6 5 8q42 5 66.5 16t36.5 27.5t15.5 37.5t3.5 47v565q0 7 7 7h21 q7 0 7 -7v-560z" />
<glyph unicode="&#xb7;" horiz-adv-x="165" d="M117 234q0 -14 -9.5 -24.5t-25.5 -10.5q-14 0 -24 10.5t-10 24.5t10 24t24 10q15 0 25 -10t10 -24z" />
<glyph unicode="&#xb8;" horiz-adv-x="372" d="M300 -125q0 -29 -23.5 -49t-63.5 -20q-20 0 -40 5.5t-32 14.5q-4 4 0 9l8 11q3 5 8 2q12 -8 26 -12.5t28 -4.5q29 0 43.5 11.5t14.5 31.5q0 13 -9 28t-41 15h-33q-18 0 -18 14q0 4 1 6l18 66q1 2 2 5t5 3h18q4 0 3.5 -3t-0.5 -5q-1 -2 -3 -10t-4.5 -16.5t-4 -15.5 t-1.5 -8q0 -2 -0.5 -2.5t-0.5 -1.5q0 -6 7 -6h13q35 0 57 -18t22 -50z" />
<glyph unicode="&#xb9;" horiz-adv-x="229" d="M149 340q0 -9 -10 -9h-19q-8 0 -8 8v322q0 4 -6 1l-60 -36q-7 -3 -7 3v23q0 6 1.5 8.5t5.5 4.5l67 39q6 3 8.5 3.5t5.5 0.5h15q7 0 7 -6v-362v0z" />
<glyph unicode="&#xba;" horiz-adv-x="287" d="M257 345q0 -51 -29.5 -78.5t-82.5 -27.5q-56 0 -85 28.5t-29 76.5v80q0 47 31 76t83 29t82 -28.5t30 -76.5v-79zM221 424q0 31 -20.5 51.5t-55.5 20.5t-56 -20.5t-21 -51.5v-80q0 -34 21 -54t56 -20t55.5 20t20.5 55v79z" />
<glyph unicode="&#xbb;" horiz-adv-x="447" d="M257 28q-5 -6 -9 -7.5t-10 -1.5h-25q-4 0 -6 3.5t2 8.5l129 160q2 3 2.5 4.5t-2.5 6.5l-130 159q-3 4 -2 7t7 3h26q7 0 10 -1.5t7 -6.5l126 -155q8 -11 0 -23zM111 28q-5 -6 -9 -7.5t-10 -1.5h-25q-5 0 -7 3.5t3 8.5l128 160l3 4.5t-3 6.5l-129 159q-4 4 -2.5 7t7.5 3h26 q8 0 10.5 -1.5t6.5 -6.5l126 -155q9 -11 0 -23z" />
<glyph unicode="&#xbc;" horiz-adv-x="645" d="M167 250q0 -9 -10 -9h-19q-8 0 -8 8v322q0 4 -6 1l-60 -36q-7 -3 -7 3v23q0 6 1.5 8.5t5.5 4.5l67 39q6 3 8.5 3.5t5.5 0.5h15q7 0 7 -6v-362zM161 -24q-2 -6 -9 -6h-17q-7 0 -4 6l283 665q4 6 9 6h15q8 0 6 -7zM502 378q5 0 5 -3t-1 -4l-143 -245q-2 -2 -0.5 -3.5 t4.5 -1.5h120q4 0 4 3v121q0 7 6 7h21q6 0 6 -7v-119q0 -5 4 -5h52q5 0 5 -4v-21q0 -4 -3 -4h-51q-7 0 -7 -7v-79q0 -6 -6 -6h-21q-6 0 -6 6v81q0 5 -5 5h-157q-9 0 -9 6v11q0 8 4 16l146 249l3 3t6 1h23z" />
<glyph unicode="&#xbd;" horiz-adv-x="645" d="M161 250q0 -9 -10 -9h-19q-8 0 -8 8v322q0 4 -6 1l-60 -36q-7 -3 -7 3v23q0 6 1.5 8.5t5.5 4.5l67 39q6 3 8.5 3.5t5.5 0.5h15q7 0 7 -6v-362zM155 -24q-2 -6 -9 -6h-17q-7 0 -4 6l283 665q4 6 9 6h15q8 0 6 -7zM593 9q0 -9 -8 -9h-209q-10 0 -10 9v11q0 9 4 14 q35 43 75.5 91.5t74.5 91.5q20 25 28 42.5t8 31.5q0 27 -20 43t-54 16q-23 0 -42.5 -10t-30.5 -19q-5 -4 -8.5 -6t-7.5 2l-13 15q-2 2 -1 5.5t3 5.5q18 18 45 28.5t56 10.5q45 0 76.5 -23.5t31.5 -65.5q0 -26 -12.5 -48.5t-36.5 -52.5l-127 -155q-2 -4 -2 -5q0 -2 4 -2h167 q9 0 9 -7v-14z" />
<glyph unicode="&#xbe;" horiz-adv-x="645" d="M528 378q5 0 5 -3t-1 -4l-143 -245q-2 -2 -0.5 -3.5t4.5 -1.5h120q4 0 4 3v121q0 7 6 7h21q6 0 6 -7v-119q0 -5 4 -5h52q5 0 5 -4v-21q0 -4 -3 -4h-51q-7 0 -7 -7v-79q0 -6 -6 -6h-21q-6 0 -6 6v81q0 5 -5 5h-157q-9 0 -9 6v11q0 8 4 16l146 249l3 3t6 1h23zM248 347 q0 -48 -32 -79.5t-86 -31.5q-64 0 -95 43q-5 8 1 12l15 10q8 4 13 -2q11 -16 29 -24.5t37 -8.5q41 0 61.5 22.5t20.5 54.5v26q0 26 -17 44t-49 18h-44q-7 0 -7 6v18q0 3 1 5t6 2h44q26 0 46.5 17.5t20.5 46.5q0 26 -19.5 45t-54.5 19q-21 0 -38.5 -7.5t-27.5 -19.5 q-3 -5 -6.5 -7t-8.5 2l-13 9q-8 6 0 14q15 20 40 30t54 10q50 0 79.5 -25.5t29.5 -68.5q0 -27 -14 -48.5t-31 -32.5q-2 -2 0 -3q25 -9 35 -30t10 -42v-24zM193 -24q-2 -6 -9 -6h-17q-7 0 -4 6l283 665q4 6 9 6h15q8 0 6 -7z" />
<glyph unicode="&#xbf;" horiz-adv-x="442" d="M77 -47q0 40 25 80t76 73q47 29 69.5 57.5t22.5 73.5v46q0 8 6 8h28q8 0 8 -8v-61q-2 -35 -20.5 -67.5t-53.5 -55.5q-23 -15 -43.5 -30.5t-37 -33t-26.5 -37.5t-11 -44q0 -17 5.5 -36.5t19 -36.5t35.5 -28.5t56 -11.5q26 0 46.5 7.5t36.5 20.5q8 5 14.5 10.5t12.5 12.5 q3 5 8 5q2 0 6 -2l20 -14q4 -4 4 -6t-3 -5q-23 -32 -60.5 -49t-83.5 -17q-34 0 -63 9.5t-50.5 28.5t-34 47t-12.5 64zM258 401q0 14 9.5 24t25.5 10q14 0 24 -10t10 -24t-10 -24t-24 -10q-16 0 -25.5 9.5t-9.5 24.5z" />
<glyph unicode="&#xc0;" horiz-adv-x="445" d="M395 0q-8 0 -10 6l-43 146q-1 4 -6 4h-231q-4 0 -5 -3q-1 -5 -7.5 -27t-13.5 -46.5t-13.5 -46.5t-7.5 -27q-2 -6 -9 -6h-28q-5 0 -7 1.5t0 7.5l175 601q2 7 8 7h47q8 0 9 -7l177 -599q4 -11 -5 -11h-30zM181 437l-68 -237q-2 -7 3 -7h209q6 0 5 6l-70 239l-37 132 q-1 3 -2.5 3t-2.5 -3zM100 720q-5 3 -7 6.5t5 10.5l17 20q8 8 19 1l105 -94q2 -2 4.5 -5t-2.5 -8l-9 -9q-4 -5 -7.5 -4t-5.5 3z" />
<glyph unicode="&#xc1;" horiz-adv-x="445" d="M395 0q-8 0 -10 6l-43 146q-1 4 -6 4h-231q-4 0 -5 -3q-1 -5 -7.5 -27t-13.5 -46.5t-13.5 -46.5t-7.5 -27q-2 -6 -9 -6h-28q-5 0 -7 1.5t0 7.5l175 601q2 7 8 7h47q8 0 9 -7l177 -599q4 -11 -5 -11h-30zM181 437l-68 -237q-2 -7 3 -7h209q6 0 5 6l-70 239l-37 132 q-1 3 -2.5 3t-2.5 -3zM220 646q-7 -4 -13 2l-6 8q-5 8 1 12l109 93q8 7 15 -1l19 -23q9 -9 -2 -15z" />
<glyph unicode="&#xc2;" horiz-adv-x="445" d="M395 0q-8 0 -10 6l-43 146q-1 4 -6 4h-231q-4 0 -5 -3q-1 -5 -7.5 -27t-13.5 -46.5t-13.5 -46.5t-7.5 -27q-2 -6 -9 -6h-28q-5 0 -7 1.5t0 7.5l175 601q2 7 8 7h47q8 0 9 -7l177 -599q4 -11 -5 -11h-30zM181 437l-68 -237q-2 -7 3 -7h209q6 0 5 6l-70 239l-37 132 q-1 3 -2.5 3t-2.5 -3zM191 757q5 5 8 6t8 1h25q9 0 15 -7q48 -46 94 -94q4 -4 4 -5.5t-4 -5.5q-3 -2 -6 -5t-8 -3q-4 0 -7 3q-23 19 -47.5 37t-48.5 37q-7 5 -13 0l-92 -74q-3 -3 -7 -3t-7.5 3t-6.5 5q-3 3 -3 5q0 3 3 6z" />
<glyph unicode="&#xc3;" horiz-adv-x="445" d="M395 0q-8 0 -10 6l-43 146q-1 4 -6 4h-231q-4 0 -5 -3q-1 -5 -7.5 -27t-13.5 -46.5t-13.5 -46.5t-7.5 -27q-2 -6 -9 -6h-28q-5 0 -7 1.5t0 7.5l175 601q2 7 8 7h47q8 0 9 -7l177 -599q4 -11 -5 -11h-30zM181 437l-68 -237q-2 -7 3 -7h209q6 0 5 6l-70 239l-37 132 q-1 3 -2.5 3t-2.5 -3zM350 717q-14 -26 -35 -36t-39 -10q-16 0 -30.5 5t-28 10.5t-27 10.5t-26.5 5q-11 0 -22 -7.5t-17 -18.5q-5 -8 -12 -4l-14 7q-4 2 -3.5 5t2.5 6q25 45 70 45q14 0 28 -5t27 -10.5t26 -10.5t25 -5q28 0 47 29q2 3 3.5 4t5.5 -1l17 -8q6 -2 3 -11z" />
<glyph unicode="&#xc4;" horiz-adv-x="445" d="M395 0q-8 0 -10 6l-43 146q-1 4 -6 4h-231q-4 0 -5 -3q-1 -5 -7.5 -27t-13.5 -46.5t-13.5 -46.5t-7.5 -27q-2 -6 -9 -6h-28q-5 0 -7 1.5t0 7.5l175 601q2 7 8 7h47q8 0 9 -7l177 -599q4 -11 -5 -11h-30zM181 437l-68 -237q-2 -7 3 -7h209q6 0 5 6l-70 239l-37 132 q-1 3 -2.5 3t-2.5 -3zM327 704q0 -13 -8.5 -21.5t-20.5 -8.5t-20.5 8.5t-8.5 21.5t8.5 21.5t20.5 8.5t20.5 -8.5t8.5 -21.5zM173 704q0 -13 -8.5 -21.5t-20.5 -8.5t-20.5 8.5t-8.5 21.5t8.5 21.5t20.5 8.5t20.5 -8.5t8.5 -21.5z" />
<glyph unicode="&#xc5;" horiz-adv-x="445" d="M395 0q-8 0 -10 6l-43 146q-1 4 -6 4h-231q-4 0 -5 -3q-1 -5 -7.5 -27t-13.5 -46.5t-13.5 -46.5t-7.5 -27q-2 -6 -9 -6h-28q-5 0 -7 1.5t0 7.5l175 601q2 7 8 7h47q8 0 9 -7l177 -599q4 -11 -5 -11h-30zM181 437l-68 -237q-2 -7 3 -7h209q6 0 5 6l-70 239l-37 132 q-1 3 -2.5 3t-2.5 -3zM290 723q0 -29 -20.5 -50t-49.5 -21q-30 0 -49.5 20.5t-19.5 49.5q0 30 19.5 51t49.5 21q29 0 49.5 -20.5t20.5 -50.5zM263 723q0 18 -13 31t-30 13q-18 0 -30 -13t-12 -31q0 -19 12 -32t30 -13q17 0 30 13t13 32z" />
<glyph unicode="&#xc6;" horiz-adv-x="654" d="M626 7q0 -7 -6 -7h-310q-7 0 -7 7v141q0 5 -1 8.5t-9 3.5h-175q-6 0 -8 -5l-51 -148q-3 -7 -10 -7h-27q-9 0 -4 9l212 600q1 2 4 5t8 3h376q7 0 7 -7v-23q0 -7 -6 -7h-266q-8 0 -8 -6v-232q0 -6 7 -6h220q7 0 7 -8v-23q0 -6 -6 -6h-220q-8 0 -8 -8v-247q0 -7 8 -7h267 q6 0 6 -6v-24zM267 580q-9 0 -12 -7l-128 -369q-3 -7 6 -7h159q11 0 11 11v366q0 6 -8 6h-28z" />
<glyph unicode="&#xc7;" horiz-adv-x="413" d="M322 -125q0 -29 -23.5 -49t-63.5 -20q-20 0 -40 5.5t-32 14.5q-4 4 0 9l8 11q3 5 8 2q12 -8 26 -12.5t28 -4.5q29 0 43.5 11.5t14.5 31.5q0 13 -9 28t-41 15h-33q-18 0 -18 14q0 4 1 6l16 59q-70 8 -109.5 51.5t-39.5 109.5v306q0 34 12.5 63.5t36 51t56 34t71.5 12.5 q45 0 84.5 -15t66.5 -48q6 -6 -1 -13l-18 -15q-6 -6 -14 3q-19 24 -52 37t-66 13q-60 0 -96.5 -35.5t-36.5 -88.5v-303q0 -27 9 -50t26 -40.5t42.5 -27.5t58.5 -10q32 0 63 12.5t53 35.5q10 11 17 5l15 -13q8 -7 2 -13q-28 -31 -66 -47.5t-84 -16.5h-3q-3 -11 -6.5 -25 t-3.5 -16t-0.5 -2.5t-0.5 -1.5q0 -6 7 -6h13q35 0 57 -18t22 -50z" />
<glyph unicode="&#xc8;" horiz-adv-x="429" d="M399 8q0 -8 -8 -8h-322q-8 0 -8 8v601q0 8 8 8h310q7 0 7 -8v-23q0 -7 -7 -7h-267q-4 0 -6 -0.5t-2 -5.5v-229q0 -6 7 -6h233q7 0 7 -8v-23q0 -7 -7 -7h-233q-7 0 -7 -7v-249q0 -6 7 -6h280q8 0 8 -7v-23zM118 720q-5 3 -7 6.5t5 10.5l17 20q8 8 19 1l105 -94 q2 -2 4.5 -5t-2.5 -8l-9 -9q-4 -5 -7.5 -4t-5.5 3z" />
<glyph unicode="&#xc9;" horiz-adv-x="429" d="M399 8q0 -8 -8 -8h-322q-8 0 -8 8v601q0 8 8 8h310q7 0 7 -8v-23q0 -7 -7 -7h-267q-4 0 -6 -0.5t-2 -5.5v-229q0 -6 7 -6h233q7 0 7 -8v-23q0 -7 -7 -7h-233q-7 0 -7 -7v-249q0 -6 7 -6h280q8 0 8 -7v-23zM191 646q-7 -4 -13 2l-6 8q-5 8 1 12l109 93q8 7 15 -1l19 -23 q9 -9 -2 -15z" />
<glyph unicode="&#xca;" horiz-adv-x="429" d="M399 8q0 -8 -8 -8h-322q-8 0 -8 8v601q0 8 8 8h310q7 0 7 -8v-23q0 -7 -7 -7h-267q-4 0 -6 -0.5t-2 -5.5v-229q0 -6 7 -6h233q7 0 7 -8v-23q0 -7 -7 -7h-233q-7 0 -7 -7v-249q0 -6 7 -6h280q8 0 8 -7v-23zM191 757q5 5 8 6t8 1h25q9 0 15 -7q48 -46 94 -94q4 -4 4 -5.5 t-4 -5.5q-3 -2 -6 -5t-8 -3q-4 0 -7 3q-23 19 -47.5 37t-48.5 37q-7 5 -13 0l-92 -74q-3 -3 -7 -3t-7.5 3t-6.5 5q-3 3 -3 5q0 3 3 6z" />
<glyph unicode="&#xcb;" horiz-adv-x="429" d="M399 8q0 -8 -8 -8h-322q-8 0 -8 8v601q0 8 8 8h310q7 0 7 -8v-23q0 -7 -7 -7h-267q-4 0 -6 -0.5t-2 -5.5v-229q0 -6 7 -6h233q7 0 7 -8v-23q0 -7 -7 -7h-233q-7 0 -7 -7v-249q0 -6 7 -6h280q8 0 8 -7v-23zM328 704q0 -13 -8.5 -21.5t-20.5 -8.5t-20.5 8.5t-8.5 21.5 t8.5 21.5t20.5 8.5t20.5 -8.5t8.5 -21.5zM174 704q0 -13 -8.5 -21.5t-20.5 -8.5t-20.5 8.5t-8.5 21.5t8.5 21.5t20.5 8.5t20.5 -8.5t8.5 -21.5z" />
<glyph unicode="&#xcc;" horiz-adv-x="201" d="M122 7q0 -7 -8 -7h-28q-8 0 -8 7v603q0 7 8 7h28q8 0 8 -7v-603zM-29 720q-5 3 -7 6.5t5 10.5l17 20q8 8 19 1l105 -94q2 -2 4.5 -5t-2.5 -8l-9 -9q-4 -5 -7.5 -4t-5.5 3z" />
<glyph unicode="&#xcd;" horiz-adv-x="201" d="M122 7q0 -7 -8 -7h-28q-8 0 -8 7v603q0 7 8 7h28q8 0 8 -7v-603zM106 646q-7 -4 -13 2l-6 8q-5 8 1 12l109 93q8 7 15 -1l19 -23q9 -9 -2 -15z" />
<glyph unicode="&#xce;" horiz-adv-x="201" d="M122 7q0 -7 -8 -7h-28q-8 0 -8 7v603q0 7 8 7h28q8 0 8 -7v-603zM71 759q5 5 8 6t8 1h25q9 0 15 -7q48 -46 94 -94q4 -4 4 -5.5t-4 -5.5q-3 -2 -6 -5t-8 -3q-4 0 -7 3q-23 19 -47.5 37t-48.5 37q-7 5 -13 0l-92 -74q-3 -3 -7 -3t-7.5 3t-6.5 5q-3 3 -3 5q0 3 3 6z" />
<glyph unicode="&#xcf;" horiz-adv-x="201" d="M122 7q0 -7 -8 -7h-28q-8 0 -8 7v603q0 7 8 7h28q8 0 8 -7v-603zM204 704q0 -13 -8.5 -21.5t-20.5 -8.5t-20.5 8.5t-8.5 21.5t8.5 21.5t20.5 8.5t20.5 -8.5t8.5 -21.5zM50 704q0 -13 -8.5 -21.5t-20.5 -8.5t-20.5 8.5t-8.5 21.5t8.5 21.5t20.5 8.5t20.5 -8.5t8.5 -21.5z " />
<glyph unicode="&#xd0;" horiz-adv-x="473" d="M422 167q0 -81 -44 -124t-123 -43h-186q-7 0 -7 8v287q-2 7 -9 7h-42q-7 0 -7 7v17q0 8 7 8h43q5 0 6.5 1.5t1.5 7.5v266q0 8 7 8h187q166 0 166 -161v-289zM378 454q0 27 -6 50t-20.5 39.5t-38.5 26t-60 9.5h-141q-3 0 -5 -0.5t-2 -5.5v-236q1 -3 7 -3h137q7 0 7 -8v-17 q0 -7 -7 -7h-137q-5 0 -7 -2v-256q0 -6 7 -6h143q57 0 90 31t33 94v291z" />
<glyph unicode="&#xd1;" horiz-adv-x="497" d="M92 617q7 0 9.5 -2.5t5.5 -6.5l287 -522q4 -6 4 0v523q0 8 7 8h28q7 0 7 -7v-598q0 -7 -3.5 -9.5t-8.5 -2.5h-22q-7 0 -10 2t-5 6q-6 11 -28 51t-52 94t-63.5 115.5t-63.5 115.5t-52 93.5t-28 50.5q-4 6 -4 0v-520q0 -8 -8 -8h-27q-7 0 -7 8v596q0 13 11 13h23zM375 711 q-14 -26 -35 -36t-39 -10q-16 0 -30.5 5t-28 10.5t-27 10.5t-26.5 5q-11 0 -22 -7.5t-17 -18.5q-5 -8 -12 -4l-14 7q-4 2 -3.5 5t2.5 6q25 45 70 45q14 0 28 -5t27 -10.5t26 -10.5t25 -5q28 0 47 29q2 3 3.5 4t5.5 -1l17 -8q6 -2 3 -11z" />
<glyph unicode="&#xd2;" horiz-adv-x="476" d="M418 160q0 -37 -12 -67.5t-35.5 -52.5t-57 -34.5t-75.5 -12.5q-44 0 -78 13t-56.5 36.5t-34 55t-11.5 67.5v293q0 36 13 66t36 52.5t56 35t74 12.5t74.5 -12t57 -34t36.5 -52.5t13 -67.5v-298zM375 456q0 26 -8.5 49.5t-25.5 41t-42.5 28t-60.5 10.5q-33 0 -59 -10.5 t-43 -28t-26 -41t-9 -49.5v-289q0 -27 8 -51.5t24.5 -43t42.5 -30t62 -11.5q66 0 101.5 36t35.5 95v294zM129 727q-5 3 -7 6.5t5 10.5l17 20q8 8 19 1l105 -94q2 -2 4.5 -5t-2.5 -8l-9 -9q-4 -5 -7.5 -4t-5.5 3z" />
<glyph unicode="&#xd3;" horiz-adv-x="476" d="M418 160q0 -37 -12 -67.5t-35.5 -52.5t-57 -34.5t-75.5 -12.5q-44 0 -78 13t-56.5 36.5t-34 55t-11.5 67.5v293q0 36 13 66t36 52.5t56 35t74 12.5t74.5 -12t57 -34t36.5 -52.5t13 -67.5v-298zM375 456q0 26 -8.5 49.5t-25.5 41t-42.5 28t-60.5 10.5q-33 0 -59 -10.5 t-43 -28t-26 -41t-9 -49.5v-289q0 -27 8 -51.5t24.5 -43t42.5 -30t62 -11.5q66 0 101.5 36t35.5 95v294zM225 646q-7 -4 -13 2l-6 8q-5 8 1 12l109 93q8 7 15 -1l19 -23q9 -9 -2 -15z" />
<glyph unicode="&#xd4;" horiz-adv-x="476" d="M418 160q0 -37 -12 -67.5t-35.5 -52.5t-57 -34.5t-75.5 -12.5q-44 0 -78 13t-56.5 36.5t-34 55t-11.5 67.5v293q0 36 13 66t36 52.5t56 35t74 12.5t74.5 -12t57 -34t36.5 -52.5t13 -67.5v-298zM375 456q0 26 -8.5 49.5t-25.5 41t-42.5 28t-60.5 10.5q-33 0 -59 -10.5 t-43 -28t-26 -41t-9 -49.5v-289q0 -27 8 -51.5t24.5 -43t42.5 -30t62 -11.5q66 0 101.5 36t35.5 95v294zM211 757q5 5 8 6t8 1h25q9 0 15 -7q48 -46 94 -94q4 -4 4 -5.5t-4 -5.5q-3 -2 -6 -5t-8 -3q-4 0 -7 3q-23 19 -47.5 37t-48.5 37q-7 5 -13 0l-92 -74q-3 -3 -7 -3 t-7.5 3t-6.5 5q-3 3 -3 5q0 3 3 6z" />
<glyph unicode="&#xd5;" horiz-adv-x="476" d="M418 160q0 -37 -12 -67.5t-35.5 -52.5t-57 -34.5t-75.5 -12.5q-44 0 -78 13t-56.5 36.5t-34 55t-11.5 67.5v293q0 36 13 66t36 52.5t56 35t74 12.5t74.5 -12t57 -34t36.5 -52.5t13 -67.5v-298zM375 456q0 26 -8.5 49.5t-25.5 41t-42.5 28t-60.5 10.5q-33 0 -59 -10.5 t-43 -28t-26 -41t-9 -49.5v-289q0 -27 8 -51.5t24.5 -43t42.5 -30t62 -11.5q66 0 101.5 36t35.5 95v294zM369 721q-14 -26 -35 -36t-39 -10q-16 0 -30.5 5t-28 10.5t-27 10.5t-26.5 5q-11 0 -22 -7.5t-17 -18.5q-5 -8 -12 -4l-14 7q-4 2 -3.5 5t2.5 6q25 45 70 45 q14 0 28 -5t27 -10.5t26 -10.5t25 -5q28 0 47 29q2 3 3.5 4t5.5 -1l17 -8q6 -2 3 -11z" />
<glyph unicode="&#xd6;" horiz-adv-x="476" d="M418 160q0 -37 -12 -67.5t-35.5 -52.5t-57 -34.5t-75.5 -12.5q-44 0 -78 13t-56.5 36.5t-34 55t-11.5 67.5v293q0 36 13 66t36 52.5t56 35t74 12.5t74.5 -12t57 -34t36.5 -52.5t13 -67.5v-298zM375 456q0 26 -8.5 49.5t-25.5 41t-42.5 28t-60.5 10.5q-33 0 -59 -10.5 t-43 -28t-26 -41t-9 -49.5v-289q0 -27 8 -51.5t24.5 -43t42.5 -30t62 -11.5q66 0 101.5 36t35.5 95v294zM347 704q0 -13 -8.5 -21.5t-20.5 -8.5t-20.5 8.5t-8.5 21.5t8.5 21.5t20.5 8.5t20.5 -8.5t8.5 -21.5zM193 704q0 -13 -8.5 -21.5t-20.5 -8.5t-20.5 8.5t-8.5 21.5 t8.5 21.5t20.5 8.5t20.5 -8.5t8.5 -21.5z" />
<glyph unicode="&#xd7;" horiz-adv-x="445" d="M359 88q-7 -7 -12 0l-120 120q-5 4 -8 0l-120 -120q-6 -5 -12 0l-14 15q-6 5 0 11l120 120q3 5 0 9l-117 116q-6 6 0 11l14 15q5 5 12 0l116 -117q4 -4 9 0l116 117q7 5 12 0l13 -14q6 -6 1 -13l-117 -117q-3 -3 1 -8l119 -119q6 -7 0 -13l-13 -13v0z" />
<glyph unicode="&#xd8;" horiz-adv-x="476" d="M120 28q-6 6 -9 -1l-17 -30q-2 -4 -3.5 -4t-3.5 1l-18 10q-5 3 -2 8l21 37q4 7 0 11q-14 17 -22 43t-8 51v318q1 33 16 61t39 48.5t56 31.5t68 11q41 0 71.5 -12t53.5 -30q4 -3 7 2l21 37q2 4 4.5 4t5.5 -2l16 -8q6 -3 3 -9l-27 -48q-3 -4 1 -9q11 -17 18 -39.5t7 -46.5 v-307q0 -37 -13 -67t-36.5 -51t-57 -32.5t-73.5 -11.5q-37 0 -66.5 8t-51.5 26zM111 107q3 -6 5 -1l227 429q3 6 -2 11q-17 18 -45 27.5t-59 9.5q-28 0 -53 -8.5t-43.5 -24.5t-29 -39t-10.5 -51v-277q0 -17 2 -40t8 -36zM137 77q-3 -6 2 -11q17 -18 42.5 -26t55.5 -8 q61 0 99.5 33.5t38.5 92.5v287q0 14 -2.5 28.5t-6.5 26.5l-2 4l-2 -2z" />
<glyph unicode="&#xd9;" horiz-adv-x="479" d="M420 159q0 -38 -13.5 -68.5t-37.5 -52t-57 -33.5t-72 -12q-42 0 -76 12.5t-57 34.5t-35.5 52.5t-12.5 66.5v451q0 7 8 7h28q7 0 7 -7v-449q0 -27 9 -50.5t26.5 -41.5t43.5 -28t60 -10q33 0 58.5 10t42.5 27.5t26 41t9 50.5v450q0 7 8 7h28q7 0 7 -7v-451zM133 720 q-5 3 -7 6.5t5 10.5l17 20q8 8 19 1l105 -94q2 -2 4.5 -5t-2.5 -8l-9 -9q-4 -5 -7.5 -4t-5.5 3z" />
<glyph unicode="&#xda;" horiz-adv-x="479" d="M420 159q0 -38 -13.5 -68.5t-37.5 -52t-57 -33.5t-72 -12q-42 0 -76 12.5t-57 34.5t-35.5 52.5t-12.5 66.5v451q0 7 8 7h28q7 0 7 -7v-449q0 -27 9 -50.5t26.5 -41.5t43.5 -28t60 -10q33 0 58.5 10t42.5 27.5t26 41t9 50.5v450q0 7 8 7h28q7 0 7 -7v-451zM229 646 q-7 -4 -13 2l-6 8q-5 8 1 12l109 93q8 7 15 -1l19 -23q9 -9 -2 -15z" />
<glyph unicode="&#xdb;" horiz-adv-x="479" d="M420 159q0 -38 -13.5 -68.5t-37.5 -52t-57 -33.5t-72 -12q-42 0 -76 12.5t-57 34.5t-35.5 52.5t-12.5 66.5v451q0 7 8 7h28q7 0 7 -7v-449q0 -27 9 -50.5t26.5 -41.5t43.5 -28t60 -10q33 0 58.5 10t42.5 27.5t26 41t9 50.5v450q0 7 8 7h28q7 0 7 -7v-451zM216 757 q5 5 8 6t8 1h25q9 0 15 -7q48 -46 94 -94q4 -4 4 -5.5t-4 -5.5q-3 -2 -6 -5t-8 -3q-4 0 -7 3q-23 19 -47.5 37t-48.5 37q-7 5 -13 0l-92 -74q-3 -3 -7 -3t-7.5 3t-6.5 5q-3 3 -3 5q0 3 3 6z" />
<glyph unicode="&#xdc;" horiz-adv-x="479" d="M420 159q0 -38 -13.5 -68.5t-37.5 -52t-57 -33.5t-72 -12q-42 0 -76 12.5t-57 34.5t-35.5 52.5t-12.5 66.5v451q0 7 8 7h28q7 0 7 -7v-449q0 -27 9 -50.5t26.5 -41.5t43.5 -28t60 -10q33 0 58.5 10t42.5 27.5t26 41t9 50.5v450q0 7 8 7h28q7 0 7 -7v-451zM186 704 q0 -13 -8.5 -21.5t-20.5 -8.5t-20.5 8.5t-8.5 21.5t8.5 21.5t20.5 8.5t20.5 -8.5t8.5 -21.5zM340 704q0 -13 -8.5 -21.5t-20.5 -8.5t-20.5 8.5t-8.5 21.5t8.5 21.5t20.5 8.5t20.5 -8.5t8.5 -21.5z" />
<glyph unicode="&#xdd;" horiz-adv-x="403" d="M228 252q-4 -8 -4.5 -13.5t-0.5 -10.5v-221q0 -7 -7 -7h-28q-8 0 -8 7v216q0 8 -0.5 13t-3.5 12l-162 359q-5 10 6 10h28q5 0 7.5 -2t4.5 -6l139 -316l3 -3t3 3q3 8 13.5 32t25 56.5t30.5 69.5t30.5 69.5t25 56.5t13.5 32q3 5 5 6.5t8 1.5h28q11 0 5 -11zM184 646 q-7 -4 -13 2l-6 8q-5 8 1 12l109 93q8 7 15 -1l19 -23q9 -9 -2 -15z" />
<glyph unicode="&#xde;" horiz-adv-x="427" d="M107 479q1 -6 8 -6h137q38 0 68 -12.5t51 -34t32.5 -51.5t11.5 -66t-11.5 -66t-33 -52t-51.5 -34t-66 -12h-138q-7 0 -7 -8v-130q0 -7 -8 -7h-27q-8 0 -8 7v603q0 7 8 7h27q7 0 7 -7v-131zM116 435q-7 0 -9 -6v-239q0 -7 8 -7h137q57 0 89 35t32 91q0 25 -8.5 48 t-24 40.5t-38 27.5t-50.5 10h-136z" />
<glyph unicode="&#xdf;" horiz-adv-x="446" d="M388 145q0 -29 -8.5 -57t-26 -50t-44 -35t-62.5 -13h-73q-5 0 -7.5 1.5t-2.5 8.5v14q0 9 10 9h55q31 0 53.5 10t36.5 26.5t21 38.5t7 47v87q0 55 -35 84t-83 29h-54q-11 0 -11 11v14q0 9 11 9h53q46 0 77.5 20.5t31.5 71.5q0 24 -6 46.5t-19 39.5t-34 27.5t-50 10.5 q-26 0 -47.5 -9.5t-37 -26t-24.5 -38.5t-9 -47v-461v-10t-8 -3h-23q-10 0 -10.5 3t-0.5 10v461q0 32 11 60t32 48.5t50.5 32.5t66.5 12q79 0 115 -43t36 -114q0 -31 -14 -60.5t-43 -43.5q-6 -4 0 -6q40 -20 53 -55.5t13 -72.5v-87v0z" />
<glyph unicode="&#xe0;" horiz-adv-x="382" d="M28 138q0 31 10 58t29 47t47.5 32t65.5 12q31 0 59.5 -11t45.5 -31q4 -4 6.5 -2.5t2.5 6.5v46q0 21 -4.5 40.5t-16.5 34.5t-33.5 24.5t-54.5 9.5q-12 0 -26 -1.5t-28.5 -4.5t-28 -7t-23.5 -8q-7 -5 -10 3l-9 21q-1 6 5 9q25 12 59 18.5t64 6.5q80 0 114 -38.5t34 -110.5 v-285q0 -7 -7 -7h-26q-6 0 -6 6v39q0 7 -3 7t-6 -4q-39 -53 -116 -53q-69 0 -106.5 39.5t-37.5 103.5zM67 140q0 -47 26 -79t85 -32q51 0 82.5 33t31.5 80q0 46 -29.5 79t-81.5 33q-27 0 -48.5 -9t-36 -24.5t-22 -36.5t-7.5 -44zM124 608q-4 5 -4 8.5t9 8.5l22 12 q12 6 18 -4l68 -124q2 -3 2.5 -6t-5.5 -7l-11 -6q-5 -3 -8 -1t-5 5z" />
<glyph unicode="&#xe1;" horiz-adv-x="382" d="M28 138q0 31 10 58t29 47t47.5 32t65.5 12q31 0 59.5 -11t45.5 -31q4 -4 6.5 -2.5t2.5 6.5v46q0 21 -4.5 40.5t-16.5 34.5t-33.5 24.5t-54.5 9.5q-12 0 -26 -1.5t-28.5 -4.5t-28 -7t-23.5 -8q-7 -5 -10 3l-9 21q-1 6 5 9q25 12 59 18.5t64 6.5q80 0 114 -38.5t34 -110.5 v-285q0 -7 -7 -7h-26q-6 0 -6 6v39q0 7 -3 7t-6 -4q-39 -53 -116 -53q-69 0 -106.5 39.5t-37.5 103.5zM67 140q0 -47 26 -79t85 -32q51 0 82.5 33t31.5 80q0 46 -29.5 79t-81.5 33q-27 0 -48.5 -9t-36 -24.5t-22 -36.5t-7.5 -44zM201 494q-6 -7 -13 -3l-9 6q-2 2 -3.5 4.5 t1.5 8.5l68 124q3 5 7 7t11 -2l21 -13q7 -4 7 -9q0 -2 -1 -3.5t-2 -3.5z" />
<glyph unicode="&#xe2;" horiz-adv-x="382" d="M28 138q0 31 10 58t29 47t47.5 32t65.5 12q31 0 59.5 -11t45.5 -31q4 -4 6.5 -2.5t2.5 6.5v46q0 21 -4.5 40.5t-16.5 34.5t-33.5 24.5t-54.5 9.5q-12 0 -26 -1.5t-28.5 -4.5t-28 -7t-23.5 -8q-7 -5 -10 3l-9 21q-1 6 5 9q25 12 59 18.5t64 6.5q80 0 114 -38.5t34 -110.5 v-285q0 -7 -7 -7h-26q-6 0 -6 6v39q0 7 -3 7t-6 -4q-39 -53 -116 -53q-69 0 -106.5 39.5t-37.5 103.5zM67 140q0 -47 26 -79t85 -32q51 0 82.5 33t31.5 80q0 46 -29.5 79t-81.5 33q-27 0 -48.5 -9t-36 -24.5t-22 -36.5t-7.5 -44zM324 517q6 -8 0 -13l-8 -7q-4 -4 -7 -2.5 t-6 3.5l-97 96q-5 5 -10 0l-94 -96q-6 -8 -13 -2l-8 7q-6 6 -1 12l94 117q8 8 16 8h25q8 0 15 -8z" />
<glyph unicode="&#xe3;" horiz-adv-x="382" d="M28 138q0 31 10 58t29 47t47.5 32t65.5 12q31 0 59.5 -11t45.5 -31q4 -4 6.5 -2.5t2.5 6.5v46q0 21 -4.5 40.5t-16.5 34.5t-33.5 24.5t-54.5 9.5q-12 0 -26 -1.5t-28.5 -4.5t-28 -7t-23.5 -8q-7 -5 -10 3l-9 21q-1 6 5 9q25 12 59 18.5t64 6.5q80 0 114 -38.5t34 -110.5 v-285q0 -7 -7 -7h-26q-6 0 -6 6v39q0 7 -3 7t-6 -4q-39 -53 -116 -53q-69 0 -106.5 39.5t-37.5 103.5zM67 140q0 -47 26 -79t85 -32q51 0 82.5 33t31.5 80q0 46 -29.5 79t-81.5 33q-27 0 -48.5 -9t-36 -24.5t-22 -36.5t-7.5 -44zM322 571q-14 -26 -35 -36t-39 -10 q-16 0 -30.5 5t-28 10.5t-27 10.5t-26.5 5q-11 0 -22 -7.5t-17 -18.5q-5 -8 -12 -4l-14 7q-4 2 -3.5 5t2.5 6q25 45 70 45q14 0 28 -5t27 -10.5t26 -10.5t25 -5q28 0 47 29q2 3 3.5 4t5.5 -1l17 -8q6 -2 3 -11z" />
<glyph unicode="&#xe4;" horiz-adv-x="382" d="M28 138q0 31 10 58t29 47t47.5 32t65.5 12q31 0 59.5 -11t45.5 -31q4 -4 6.5 -2.5t2.5 6.5v46q0 21 -4.5 40.5t-16.5 34.5t-33.5 24.5t-54.5 9.5q-12 0 -26 -1.5t-28.5 -4.5t-28 -7t-23.5 -8q-7 -5 -10 3l-9 21q-1 6 5 9q25 12 59 18.5t64 6.5q80 0 114 -38.5t34 -110.5 v-285q0 -7 -7 -7h-26q-6 0 -6 6v39q0 7 -3 7t-6 -4q-39 -53 -116 -53q-69 0 -106.5 39.5t-37.5 103.5zM67 140q0 -47 26 -79t85 -32q51 0 82.5 33t31.5 80q0 46 -29.5 79t-81.5 33q-27 0 -48.5 -9t-36 -24.5t-22 -36.5t-7.5 -44zM302 561q0 -12 -8.5 -21t-20.5 -9 q-13 0 -21.5 9t-8.5 21q0 13 8.5 21.5t20.5 8.5t21 -8.5t9 -21.5zM148 561q0 -13 -9 -21.5t-20 -8.5q-12 0 -20.5 9t-8.5 21q0 13 8.5 21.5t20.5 8.5t20.5 -8.5t8.5 -21.5z" />
<glyph unicode="&#xe5;" horiz-adv-x="382" d="M28 138q0 31 10 58t29 47t47.5 32t65.5 12q31 0 59.5 -11t45.5 -31q4 -4 6.5 -2.5t2.5 6.5v46q0 21 -4.5 40.5t-16.5 34.5t-33.5 24.5t-54.5 9.5q-12 0 -26 -1.5t-28.5 -4.5t-28 -7t-23.5 -8q-7 -5 -10 3l-9 21q-1 6 5 9q25 12 59 18.5t64 6.5q80 0 114 -38.5t34 -110.5 v-285q0 -7 -7 -7h-26q-6 0 -6 6v39q0 7 -3 7t-6 -4q-39 -53 -116 -53q-69 0 -106.5 39.5t-37.5 103.5zM67 140q0 -47 26 -79t85 -32q51 0 82.5 33t31.5 80q0 46 -29.5 79t-81.5 33q-27 0 -48.5 -9t-36 -24.5t-22 -36.5t-7.5 -44zM278 563q0 -29 -20.5 -50t-49.5 -21 q-30 0 -49.5 20.5t-19.5 49.5q0 30 19.5 51t49.5 21q29 0 49.5 -20.5t20.5 -50.5zM251 563q0 18 -13 31t-30 13q-18 0 -30 -13t-12 -31q0 -19 12 -32t30 -13q17 0 30 13t13 32z" />
<glyph unicode="&#xe6;" horiz-adv-x="656" d="M458 -5q-47 0 -82 18t-54 51q-8 9 -11 6t-8 -10q-20 -29 -57 -47.5t-74 -18.5q-31 0 -57 10t-45 28.5t-30 45.5t-11 62q0 31 11 58t31 47t47 31t60 11q32 0 61 -13.5t46 -35.5q3 -3 5 -3q4 0 4 7v51q0 45 -29.5 78t-91.5 33q-23 0 -49 -5.5t-46 -16.5q-6 -4 -10 4l-8 20 q-1 3 -1 5.5t5 4.5q25 12 53.5 18t58.5 6q52 0 84.5 -18t53.5 -51l4 -4t7 4q20 32 55 50.5t76 18.5q35 0 65 -10.5t51.5 -31.5t34 -52t12.5 -72v-43q0 -9 -4.5 -13.5t-9.5 -4.5h-256q-13 0 -13 -12v-48q0 -53 33 -88t89 -35q33 0 59 13t42 36q6 9 14 4l18 -12q7 -5 4 -12 q-21 -32 -57 -48t-80 -16zM291 141q0 23 -9 43.5t-24 36t-35.5 24.5t-43.5 9t-43.5 -9t-35.5 -24.5t-24 -36t-9 -43.5q0 -24 8.5 -45t23.5 -36t35 -23.5t44 -8.5t44.5 9t36 25t24 36t8.5 43zM578 282q0 54 -33.5 88t-88.5 34q-28 0 -50 -10.5t-37.5 -28.5t-23.5 -41.5 t-8 -50.5v-13q0 -12 12 -12h219q10 0 10 11v23z" />
<glyph unicode="&#xe7;" horiz-adv-x="371" d="M300 -125q0 -29 -23.5 -49t-63.5 -20q-20 0 -40 5.5t-32 14.5q-4 4 0 9l8 11q3 5 8 2q12 -8 26 -12.5t28 -4.5q29 0 43.5 11.5t14.5 31.5q0 13 -9 28t-41 15h-33q-18 0 -18 14q0 4 1 6l16 59q-66 7 -103 49t-37 108v128q0 36 12.5 65.5t34.5 50t52 32t65 11.5 q86 0 134 -63q5 -8 -2 -12l-18 -15q-6 -4 -13 3q-17 24 -44 37.5t-58 13.5q-54 0 -88 -34.5t-34 -87.5v-129q0 -57 34.5 -89.5t88.5 -32.5q36 0 61 13.5t42 36.5q4 7 11 2l18 -11q5 -4 5.5 -7t-1.5 -6q-23 -32 -57 -47.5t-76 -16.5q-3 -11 -6.5 -25.5t-3.5 -16.5t-0.5 -2.5 t-0.5 -1.5q0 -6 7 -6h13q35 0 57 -18t22 -50z" />
<glyph unicode="&#xe8;" horiz-adv-x="408" d="M372 231q0 -9 -4.5 -13t-9.5 -4h-257q-12 0 -12 -13v-48q0 -52 33 -87t89 -35q33 0 58.5 13t42.5 36q6 8 13 3l19 -12q6 -5 4 -11q-21 -32 -57 -48.5t-81 -16.5q-75 0 -118.5 42.5t-43.5 114.5v126q0 38 12.5 68t34 51t51 32t63.5 11q35 0 65 -10.5t51.5 -31t34 -51.5 t12.5 -73v-43zM330 283q0 53 -33 87t-88 34q-26 0 -47.5 -9t-38 -25.5t-25.5 -38.5t-9 -47v-24q0 -11 12 -11h220q9 0 9 11v23zM124 608q-4 5 -4 8.5t9 8.5l22 12q12 6 18 -4l68 -124q2 -3 2.5 -6t-5.5 -7l-11 -6q-5 -3 -8 -1t-5 5z" />
<glyph unicode="&#xe9;" horiz-adv-x="408" d="M372 231q0 -9 -4.5 -13t-9.5 -4h-257q-12 0 -12 -13v-48q0 -52 33 -87t89 -35q33 0 58.5 13t42.5 36q6 8 13 3l19 -12q6 -5 4 -11q-21 -32 -57 -48.5t-81 -16.5q-75 0 -118.5 42.5t-43.5 114.5v126q0 38 12.5 68t34 51t51 32t63.5 11q35 0 65 -10.5t51.5 -31t34 -51.5 t12.5 -73v-43zM330 283q0 53 -33 87t-88 34q-26 0 -47.5 -9t-38 -25.5t-25.5 -38.5t-9 -47v-24q0 -11 12 -11h220q9 0 9 11v23zM205 494q-6 -7 -13 -3l-9 6q-2 2 -3.5 4.5t1.5 8.5l68 124q3 5 7 7t11 -2l21 -13q7 -4 7 -9q0 -2 -1 -3.5t-2 -3.5z" />
<glyph unicode="&#xea;" horiz-adv-x="408" d="M372 231q0 -9 -4.5 -13t-9.5 -4h-257q-12 0 -12 -13v-48q0 -52 33 -87t89 -35q33 0 58.5 13t42.5 36q6 8 13 3l19 -12q6 -5 4 -11q-21 -32 -57 -48.5t-81 -16.5q-75 0 -118.5 42.5t-43.5 114.5v126q0 38 12.5 68t34 51t51 32t63.5 11q35 0 65 -10.5t51.5 -31t34 -51.5 t12.5 -73v-43zM330 283q0 53 -33 87t-88 34q-26 0 -47.5 -9t-38 -25.5t-25.5 -38.5t-9 -47v-24q0 -11 12 -11h220q9 0 9 11v23zM336 517q6 -8 0 -13l-8 -7q-4 -4 -7 -2.5t-6 3.5l-97 96q-5 5 -10 0l-94 -96q-6 -8 -13 -2l-8 7q-6 6 -1 12l94 117q8 8 16 8h25q8 0 15 -8z" />
<glyph unicode="&#xeb;" horiz-adv-x="408" d="M372 231q0 -9 -4.5 -13t-9.5 -4h-257q-12 0 -12 -13v-48q0 -52 33 -87t89 -35q33 0 58.5 13t42.5 36q6 8 13 3l19 -12q6 -5 4 -11q-21 -32 -57 -48.5t-81 -16.5q-75 0 -118.5 42.5t-43.5 114.5v126q0 38 12.5 68t34 51t51 32t63.5 11q35 0 65 -10.5t51.5 -31t34 -51.5 t12.5 -73v-43zM330 283q0 53 -33 87t-88 34q-26 0 -47.5 -9t-38 -25.5t-25.5 -38.5t-9 -47v-24q0 -11 12 -11h220q9 0 9 11v23zM319 561q0 -12 -8.5 -21t-20.5 -9q-13 0 -21.5 9t-8.5 21q0 13 8.5 21.5t20.5 8.5t21 -8.5t9 -21.5zM165 561q0 -13 -9 -21.5t-20 -8.5 q-12 0 -20.5 9t-8.5 21q0 13 8.5 21.5t20.5 8.5t20.5 -8.5t8.5 -21.5z" />
<glyph unicode="&#xec;" horiz-adv-x="172" d="M62 428q0 7 7 7h28q7 0 7 -7v-422q0 -6 -7 -6h-28q-7 0 -7 6v422zM-11 608q-4 5 -4 8.5t9 8.5l22 12q12 6 18 -4l68 -124q2 -3 2.5 -6t-5.5 -7l-11 -6q-5 -3 -8 -1t-5 5z" />
<glyph unicode="&#xed;" horiz-adv-x="172" d="M62 428q0 7 7 7h28q7 0 7 -7v-422q0 -6 -7 -6h-28q-7 0 -7 6v422zM90 494q-6 -7 -13 -3l-9 6q-2 2 -3.5 4.5t1.5 8.5l68 124q3 5 7 7t11 -2l21 -13q7 -4 7 -9q0 -2 -1 -3.5t-2 -3.5z" />
<glyph unicode="&#xee;" horiz-adv-x="172" d="M62 428q0 7 7 7h28q7 0 7 -7v-422q0 -6 -7 -6h-28q-7 0 -7 6v422zM205 517q6 -8 0 -13l-8 -7q-4 -4 -7 -2.5t-6 3.5l-97 96q-5 5 -10 0l-94 -96q-6 -8 -13 -2l-8 7q-6 6 -1 12l94 117q8 8 16 8h25q8 0 15 -8z" />
<glyph unicode="&#xef;" horiz-adv-x="172" d="M62 428q0 7 7 7h28q7 0 7 -7v-422q0 -6 -7 -6h-28q-7 0 -7 6v422zM190 561q0 -12 -8.5 -21t-20.5 -9q-13 0 -21.5 9t-8.5 21q0 13 8.5 21.5t20.5 8.5t21 -8.5t9 -21.5zM36 561q0 -13 -9 -21.5t-20 -8.5q-12 0 -20.5 9t-8.5 21q0 13 8.5 21.5t20.5 8.5t20.5 -8.5 t8.5 -21.5z" />
<glyph unicode="&#xf0;" horiz-adv-x="421" d="M135 636q0 8 9 8q106 0 162 -57q4 -4 7 0l44 41q5 4 9 0l11 -11q4 -4 0 -9l-45 -42q-2 -2 -3 -3.5t1 -3.5q23 -34 33 -79t10 -115v-210q0 -78 -43 -119t-120 -41q-76 0 -117 40t-44 109v123q0 35 11.5 64t32.5 50t50.5 32.5t64.5 11.5q41 0 72 -14.5t48 -40.5 q2 -3 3.5 -1.5t1.5 3.5q0 59 -7.5 96t-24.5 61q-3 5 -7 1l-47 -46q-2 -2 -4 -3t-5 2l-12 11q-4 6 0 10q15 15 31 30t19 19q3 3 -1 7q-11 14 -25 22q-22 14 -49.5 19t-57.5 5q-8 0 -8 8v22zM332 259q0 26 -7.5 49.5t-22.5 41.5t-37.5 28.5t-52.5 10.5q-56 0 -89.5 -35 t-33.5 -88v-112q0 -57 32.5 -90.5t89.5 -33.5q58 0 89.5 33.5t31.5 91.5v104z" />
<glyph unicode="&#xf1;" horiz-adv-x="427" d="M378 7q0 -7 -6 -7h-29q-7 0 -7 6v271q0 25 -6.5 48.5t-20.5 40.5t-37.5 27.5t-56.5 10.5q-27 0 -49 -10t-37.5 -27t-24.5 -39.5t-9 -48.5v-272q0 -7 -7 -7h-28q-7 0 -7 6v422q0 7 7 7h27q6 0 6 -7v-37q0 -6 2.5 -7t7.5 4q22 25 54.5 38.5t67.5 13.5q42 0 71 -13.5 t47.5 -36.5t26.5 -52.5t8 -61.5v-269zM326 571q-14 -26 -35 -36t-39 -10q-16 0 -30.5 5t-28 10.5t-27 10.5t-26.5 5q-11 0 -22 -7.5t-17 -18.5q-5 -8 -12 -4l-14 7q-4 2 -3.5 5t2.5 6q25 45 70 45q14 0 28 -5t27 -10.5t26 -10.5t25 -5q28 0 47 29q2 3 3.5 4t5.5 -1l17 -8 q6 -2 3 -11z" />
<glyph unicode="&#xf2;" horiz-adv-x="421" d="M373 156q0 -77 -42.5 -119t-118.5 -42q-79 0 -121 43t-42 116v128q0 71 43.5 114.5t119.5 43.5q75 0 118 -42.5t43 -116.5v-125zM332 280q0 54 -30 89t-90 35q-54 0 -88 -34.5t-34 -88.5v-126q0 -57 31 -91t91 -34t90 34t30 92v124zM132 608q-4 5 -4 8.5t9 8.5l22 12 q12 6 18 -4l68 -124q2 -3 2.5 -6t-5.5 -7l-11 -6q-5 -3 -8 -1t-5 5z" />
<glyph unicode="&#xf3;" horiz-adv-x="421" d="M373 156q0 -77 -42.5 -119t-118.5 -42q-79 0 -121 43t-42 116v128q0 71 43.5 114.5t119.5 43.5q75 0 118 -42.5t43 -116.5v-125zM332 280q0 54 -30 89t-90 35q-54 0 -88 -34.5t-34 -88.5v-126q0 -57 31 -91t91 -34t90 34t30 92v124zM200 494q-6 -7 -13 -3l-9 6 q-2 2 -3.5 4.5t1.5 8.5l68 124q3 5 7 7t11 -2l21 -13q7 -4 7 -9q0 -2 -1 -3.5t-2 -3.5z" />
<glyph unicode="&#xf4;" horiz-adv-x="421" d="M373 156q0 -77 -42.5 -119t-118.5 -42q-79 0 -121 43t-42 116v128q0 71 43.5 114.5t119.5 43.5q75 0 118 -42.5t43 -116.5v-125zM332 280q0 54 -30 89t-90 35q-54 0 -88 -34.5t-34 -88.5v-126q0 -57 31 -91t91 -34t90 34t30 92v124zM337 517q6 -8 0 -13l-8 -7 q-4 -4 -7 -2.5t-6 3.5l-97 96q-5 5 -10 0l-94 -96q-6 -8 -13 -2l-8 7q-6 6 -1 12l94 117q8 8 16 8h25q8 0 15 -8z" />
<glyph unicode="&#xf5;" horiz-adv-x="421" d="M373 156q0 -77 -42.5 -119t-118.5 -42q-79 0 -121 43t-42 116v128q0 71 43.5 114.5t119.5 43.5q75 0 118 -42.5t43 -116.5v-125zM332 280q0 54 -30 89t-90 35q-54 0 -88 -34.5t-34 -88.5v-126q0 -57 31 -91t91 -34t90 34t30 92v124zM340 571q-14 -26 -35 -36t-39 -10 q-16 0 -30.5 5t-28 10.5t-27 10.5t-26.5 5q-11 0 -22 -7.5t-17 -18.5q-5 -8 -12 -4l-14 7q-4 2 -3.5 5t2.5 6q25 45 70 45q14 0 28 -5t27 -10.5t26 -10.5t25 -5q28 0 47 29q2 3 3.5 4t5.5 -1l17 -8q6 -2 3 -11z" />
<glyph unicode="&#xf6;" horiz-adv-x="421" d="M373 156q0 -77 -42.5 -119t-118.5 -42q-79 0 -121 43t-42 116v128q0 71 43.5 114.5t119.5 43.5q75 0 118 -42.5t43 -116.5v-125zM332 280q0 54 -30 89t-90 35q-54 0 -88 -34.5t-34 -88.5v-126q0 -57 31 -91t91 -34t90 34t30 92v124zM319 561q0 -12 -8.5 -21t-20.5 -9 q-13 0 -21.5 9t-8.5 21q0 13 8.5 21.5t20.5 8.5t21 -8.5t9 -21.5zM165 561q0 -13 -9 -21.5t-20 -8.5q-12 0 -20.5 9t-8.5 21q0 13 8.5 21.5t20.5 8.5t20.5 -8.5t8.5 -21.5z" />
<glyph unicode="&#xf7;" horiz-adv-x="445" d="M412 227q0 -10 -11 -10h-357q-6 0 -9 1.5t-3 7.5v17q0 11 12 11h357q11 0 11 -11v-16zM252 401q0 -14 -9.5 -23.5t-23.5 -9.5q-13 0 -22 9.5t-9 23.5q0 13 9 22t22 9q14 0 23.5 -8.5t9.5 -22.5zM251 62q0 -14 -9 -23t-23 -9q-13 0 -22.5 9t-9.5 23q0 13 9.5 22.5 t22.5 9.5q14 0 23 -9t9 -23z" />
<glyph unicode="&#xf8;" horiz-adv-x="414" d="M82 2q-2 -5 -4.5 -4.5t-4.5 1.5l-19 12q-5 3 -1 9l21 30q5 5 4 7.5t-2 4.5q-25 39 -25 91v128q0 34 12 63t33.5 50t51 32.5t64.5 11.5q60 0 102 -33q1 -1 3.5 -1t5.5 5l19 28q1 2 4 3t6 -1l17 -11q2 -2 3 -3.5t-2 -6.5l-24 -35q-4 -7 0 -13q25 -39 25 -90v-125 q0 -75 -43.5 -117.5t-115.5 -42.5q-64 0 -106 33q-1 1 -3 1.5t-6 -5.5zM329 280q0 28 -11 53q-2 6 -8 -1l-180 -262q-5 -7 2 -12q34 -28 81 -28q30 0 52 10t36 27t21 39.5t7 48.5v125zM93 151q0 -29 10 -50q1 -2 2.5 -4t4.5 3l181 263q2 3 1.5 5.5t-2.5 3.5q-31 28 -78 28 q-56 0 -87.5 -34t-31.5 -85v-130z" />
<glyph unicode="&#xf9;" horiz-adv-x="426" d="M376 7q0 -7 -8 -7h-27q-6 0 -6 6v37q0 16 -10 4q-21 -26 -54 -39t-68 -13q-44 0 -73 13.5t-46.5 36.5t-25 52.5t-7.5 61.5v269q0 7 6 7h29q6 0 6 -7v-271q0 -25 6 -47.5t20.5 -40t37.5 -27.5t57 -10q27 0 49 9.5t38 26.5t24.5 39.5t8.5 48.5v272q0 7 7 7h28q8 0 8 -7 v-421zM132 608q-4 5 -4 8.5t9 8.5l22 12q12 6 18 -4l68 -124q2 -3 2.5 -6t-5.5 -7l-11 -6q-5 -3 -8 -1t-5 5z" />
<glyph unicode="&#xfa;" horiz-adv-x="426" d="M376 7q0 -7 -8 -7h-27q-6 0 -6 6v37q0 16 -10 4q-21 -26 -54 -39t-68 -13q-44 0 -73 13.5t-46.5 36.5t-25 52.5t-7.5 61.5v269q0 7 6 7h29q6 0 6 -7v-271q0 -25 6 -47.5t20.5 -40t37.5 -27.5t57 -10q27 0 49 9.5t38 26.5t24.5 39.5t8.5 48.5v272q0 7 7 7h28q8 0 8 -7 v-421zM213 494q-6 -7 -13 -3l-9 6q-2 2 -3.5 4.5t1.5 8.5l68 124q3 5 7 7t11 -2l21 -13q7 -4 7 -9q0 -2 -1 -3.5t-2 -3.5z" />
<glyph unicode="&#xfb;" horiz-adv-x="426" d="M376 7q0 -7 -8 -7h-27q-6 0 -6 6v37q0 16 -10 4q-21 -26 -54 -39t-68 -13q-44 0 -73 13.5t-46.5 36.5t-25 52.5t-7.5 61.5v269q0 7 6 7h29q6 0 6 -7v-271q0 -25 6 -47.5t20.5 -40t37.5 -27.5t57 -10q27 0 49 9.5t38 26.5t24.5 39.5t8.5 48.5v272q0 7 7 7h28q8 0 8 -7 v-421zM330 517q6 -8 0 -13l-8 -7q-4 -4 -7 -2.5t-6 3.5l-97 96q-5 5 -10 0l-94 -96q-6 -8 -13 -2l-8 7q-6 6 -1 12l94 117q8 8 16 8h25q8 0 15 -8z" />
<glyph unicode="&#xfc;" horiz-adv-x="426" d="M376 7q0 -7 -8 -7h-27q-6 0 -6 6v37q0 16 -10 4q-21 -26 -54 -39t-68 -13q-44 0 -73 13.5t-46.5 36.5t-25 52.5t-7.5 61.5v269q0 7 6 7h29q6 0 6 -7v-271q0 -25 6 -47.5t20.5 -40t37.5 -27.5t57 -10q27 0 49 9.5t38 26.5t24.5 39.5t8.5 48.5v272q0 7 7 7h28q8 0 8 -7 v-421zM323 561q0 -12 -8.5 -21t-20.5 -9q-13 0 -21.5 9t-8.5 21q0 13 8.5 21.5t20.5 8.5t21 -8.5t9 -21.5zM169 561q0 -13 -9 -21.5t-20 -8.5q-12 0 -20.5 9t-8.5 21q0 13 8.5 21.5t20.5 8.5t20.5 -8.5t8.5 -21.5z" />
<glyph unicode="&#xfd;" horiz-adv-x="361" d="M160 -6q2 6 -3 6h-6q-9 0 -12 9l-131 417q-2 9 7 9h25q8 0 12 -8l117 -382q2 -5 4 -5q4 0 5 5l128 381q1 3 3 6t8 3h24q9 0 8 -9l-201 -598q-2 -11 -15 -11h-20q-10 0 -7 12zM173 494q-6 -7 -13 -3l-9 6q-2 2 -3.5 4.5t1.5 8.5l68 124q3 5 7 7t11 -2l21 -13q7 -4 7 -9 q0 -2 -1 -3.5t-2 -3.5z" />
<glyph unicode="&#xfe;" horiz-adv-x="425" d="M379 159q0 -30 -9 -60t-28 -53t-48.5 -37.5t-69.5 -14.5q-77 0 -117 51q-10 10 -10 -4v-215q0 -6 -7 -6h-28q-7 0 -7 6v805q0 6 7 6h26q7 0 7 -6v-240q0 -11 10 -1q18 23 48.5 36.5t67.5 13.5q75 0 116.5 -43.5t41.5 -112.5v-125zM338 281q0 55 -32 89t-89 34 q-54 0 -87.5 -34t-33.5 -86v-128q0 -26 9 -48.5t25 -39.5t38 -27t49 -10q29 0 51.5 10t38 27t23.5 40t8 49v124z" />
<glyph unicode="&#xff;" horiz-adv-x="361" d="M160 -6q2 6 -3 6h-6q-9 0 -12 9l-131 417q-2 9 7 9h25q8 0 12 -8l117 -382q2 -5 4 -5q4 0 5 5l128 381q1 3 3 6t8 3h24q9 0 8 -9l-201 -598q-2 -11 -15 -11h-20q-10 0 -7 12zM287 561q0 -12 -8.5 -21t-20.5 -9q-13 0 -21.5 9t-8.5 21q0 13 8.5 21.5t20.5 8.5t21 -8.5 t9 -21.5zM133 561q0 -13 -9 -21.5t-20 -8.5q-12 0 -20.5 9t-8.5 21q0 13 8.5 21.5t20.5 8.5t20.5 -8.5t8.5 -21.5z" />
<glyph unicode="&#x100;" horiz-adv-x="445" d="M395 0q-8 0 -10 6l-43 146q-1 4 -6 4h-231q-4 0 -5 -3q-1 -5 -7.5 -27t-13.5 -46.5t-13.5 -46.5t-7.5 -27q-2 -6 -9 -6h-28q-5 0 -7 1.5t0 7.5l175 601q2 7 8 7h47q8 0 9 -7l177 -599q4 -11 -5 -11h-30zM181 437l-68 -237q-2 -7 3 -7h209q6 0 5 6l-70 239l-37 132 q-1 3 -2.5 3t-2.5 -3zM300 688q0 -6 -6 -6h-182q-6 0 -6 6v21q0 7 6 7h181q7 0 7 -7v-21z" />
<glyph unicode="&#x101;" horiz-adv-x="382" d="M28 138q0 31 10 58t29 47t47.5 32t65.5 12q31 0 59.5 -11t45.5 -31q4 -4 6.5 -2.5t2.5 6.5v46q0 21 -4.5 40.5t-16.5 34.5t-33.5 24.5t-54.5 9.5q-12 0 -26 -1.5t-28.5 -4.5t-28 -7t-23.5 -8q-7 -5 -10 3l-9 21q-1 6 5 9q25 12 59 18.5t64 6.5q80 0 114 -38.5t34 -110.5 v-285q0 -7 -7 -7h-26q-6 0 -6 6v39q0 7 -3 7t-6 -4q-39 -53 -116 -53q-69 0 -106.5 39.5t-37.5 103.5zM67 140q0 -47 26 -79t85 -32q51 0 82.5 33t31.5 80q0 46 -29.5 79t-81.5 33q-27 0 -48.5 -9t-36 -24.5t-22 -36.5t-7.5 -44zM294 538q0 -7 -6 -7h-182q-6 0 -6 7v20 q0 7 6 7h181q7 0 7 -7v-20z" />
<glyph unicode="&#x102;" horiz-adv-x="445" d="M395 0q-8 0 -10 6l-43 146q-1 4 -6 4h-231q-4 0 -5 -3q-1 -5 -7.5 -27t-13.5 -46.5t-13.5 -46.5t-7.5 -27q-2 -6 -9 -6h-28q-5 0 -7 1.5t0 7.5l175 601q2 7 8 7h47q8 0 9 -7l177 -599q4 -11 -5 -11h-30zM181 437l-68 -237q-2 -7 3 -7h209q6 0 5 6l-70 239l-37 132 q-1 3 -2.5 3t-2.5 -3zM110 754q0 7 6 7h13q5 0 6 -3t3 -8q6 -33 29.5 -51t52.5 -18q28 0 52.5 18.5t30.5 50.5q2 5 3 8t6 3h12q7 0 7 -7q0 -24 -9.5 -44.5t-25.5 -34.5t-36 -22t-41 -8t-40.5 8t-34.5 22t-24.5 34.5t-9.5 44.5z" />
<glyph unicode="&#x103;" horiz-adv-x="382" d="M28 138q0 31 10 58t29 47t47.5 32t65.5 12q31 0 59.5 -11t45.5 -31q4 -4 6.5 -2.5t2.5 6.5v46q0 21 -4.5 40.5t-16.5 34.5t-33.5 24.5t-54.5 9.5q-12 0 -26 -1.5t-28.5 -4.5t-28 -7t-23.5 -8q-7 -5 -10 3l-9 21q-1 6 5 9q25 12 59 18.5t64 6.5q80 0 114 -38.5t34 -110.5 v-285q0 -7 -7 -7h-26q-6 0 -6 6v39q0 7 -3 7t-6 -4q-39 -53 -116 -53q-69 0 -106.5 39.5t-37.5 103.5zM67 140q0 -47 26 -79t85 -32q51 0 82.5 33t31.5 80q0 46 -29.5 79t-81.5 33q-27 0 -48.5 -9t-36 -24.5t-22 -36.5t-7.5 -44zM88 614q0 6 6 6h12q5 0 6.5 -2.5t3.5 -7.5 q6 -33 29.5 -51t52.5 -18q28 0 52.5 18t30.5 51l3 7.5t6 2.5h12q7 0 7 -6q0 -25 -10 -45t-25.5 -34.5t-35.5 -22t-41 -7.5t-40.5 8t-34.5 22t-24.5 34.5t-9.5 44.5z" />
<glyph unicode="&#x104;" horiz-adv-x="445" d="M410 0q-25 -26 -40 -56t-15 -57q0 -17 10 -27t33 -10q15 0 31.5 7t28.5 16q3 3 8 -1l9 -11q3 -3 -2 -8q-15 -14 -38.5 -23.5t-45.5 -9.5q-35 0 -52.5 18t-17.5 51q0 29 17.5 61.5t40.5 52.5l7 6l-42 143q-1 4 -6 4h-231q-4 0 -5 -3q-1 -5 -7.5 -27t-13.5 -46.5 t-13.5 -46.5t-7.5 -27q-2 -6 -9 -6h-28q-5 0 -7 1.5t0 7.5l175 601q2 7 8 7h47q8 0 9 -7l177 -599q4 -11 -5 -11h-15zM181 437l-68 -237q-2 -7 3 -7h209q6 0 5 6l-70 239l-37 132q-1 3 -2.5 3t-2.5 -3z" />
<glyph unicode="&#x105;" horiz-adv-x="382" d="M28 138q0 31 10 58t29 47t47.5 32t65.5 12q31 0 59.5 -11t45.5 -31q4 -4 6.5 -2.5t2.5 6.5v46q0 21 -4.5 40.5t-16.5 34.5t-33.5 24.5t-54.5 9.5q-12 0 -26 -1.5t-28.5 -4.5t-28 -7t-23.5 -8q-7 -5 -10 3l-9 21q-1 6 5 9q25 12 59 18.5t64 6.5q80 0 114 -38.5t34 -110.5 v-285q0 -7 -7 -7h-11q-25 -26 -40 -56t-15 -57q0 -17 10 -27t33 -10q15 0 31.5 7t28.5 16q3 3 8 -1l9 -11q3 -3 -2 -8q-15 -14 -38.5 -23.5t-45.5 -9.5q-35 0 -52.5 18t-17.5 51q0 29 17.5 61.5t40.5 52.5q7 7 12 9v33q0 7 -3 7t-6 -4q-39 -53 -116 -53q-69 0 -106.5 39.5 t-37.5 103.5zM67 140q0 -47 26 -79t85 -32q51 0 82.5 33t31.5 80q0 46 -29.5 79t-81.5 33q-27 0 -48.5 -9t-36 -24.5t-22 -36.5t-7.5 -44z" />
<glyph unicode="&#x106;" horiz-adv-x="413" d="M385 71q8 -7 2 -13q-28 -31 -66 -47.5t-84 -16.5q-42 0 -75 12t-56 33.5t-35.5 51.5t-12.5 66v306q0 34 12.5 63.5t36 51t56 34t71.5 12.5q45 0 84.5 -15t66.5 -48q6 -6 -1 -13l-18 -15q-6 -6 -14 3q-19 24 -52 37t-66 13q-60 0 -96.5 -35.5t-36.5 -88.5v-303 q0 -27 9 -50t26 -40.5t42.5 -27.5t58.5 -10q32 0 63 12.5t53 35.5q10 11 17 5zM223 646q-7 -4 -13 2l-6 8q-5 8 1 12l109 93q8 7 15 -1l19 -23q9 -9 -2 -15z" />
<glyph unicode="&#x107;" horiz-adv-x="371" d="M343 377q5 -8 -2 -12l-18 -15q-6 -4 -13 3q-17 24 -44 37.5t-58 13.5q-54 0 -88 -34.5t-34 -87.5v-129q0 -57 34.5 -89.5t88.5 -32.5q36 0 61 13.5t42 36.5q4 7 11 2l18 -11q5 -4 5.5 -7t-1.5 -6q-23 -33 -58.5 -48.5t-78.5 -15.5q-77 0 -120 43t-43 115v128 q0 36 12.5 65.5t34.5 50t52 32t65 11.5q86 0 134 -63zM205 494q-6 -7 -13 -3l-9 6q-2 2 -3.5 4.5t1.5 8.5l68 124q3 5 7 7t11 -2l21 -13q7 -4 7 -9q0 -2 -1 -3.5t-2 -3.5z" />
<glyph unicode="&#x108;" horiz-adv-x="413" d="M385 71q8 -7 2 -13q-28 -31 -66 -47.5t-84 -16.5q-42 0 -75 12t-56 33.5t-35.5 51.5t-12.5 66v306q0 34 12.5 63.5t36 51t56 34t71.5 12.5q45 0 84.5 -15t66.5 -48q6 -6 -1 -13l-18 -15q-6 -6 -14 3q-19 24 -52 37t-66 13q-60 0 -96.5 -35.5t-36.5 -88.5v-303 q0 -27 9 -50t26 -40.5t42.5 -27.5t58.5 -10q32 0 63 12.5t53 35.5q10 11 17 5zM208 757q5 5 8 6t8 1h25q9 0 15 -7q48 -46 94 -94q4 -4 4 -5.5t-4 -5.5q-3 -2 -6 -5t-8 -3q-4 0 -7 3q-23 19 -47.5 37t-48.5 37q-7 5 -13 0l-92 -74q-3 -3 -7 -3t-7.5 3t-6.5 5q-3 3 -3 5 q0 3 3 6z" />
<glyph unicode="&#x109;" horiz-adv-x="371" d="M343 377q5 -8 -2 -12l-18 -15q-6 -4 -13 3q-17 24 -44 37.5t-58 13.5q-54 0 -88 -34.5t-34 -87.5v-129q0 -57 34.5 -89.5t88.5 -32.5q36 0 61 13.5t42 36.5q4 7 11 2l18 -11q5 -4 5.5 -7t-1.5 -6q-23 -33 -58.5 -48.5t-78.5 -15.5q-77 0 -120 43t-43 115v128 q0 36 12.5 65.5t34.5 50t52 32t65 11.5q86 0 134 -63zM329 517q6 -8 0 -13l-8 -7q-4 -4 -7 -2.5t-6 3.5l-97 96q-5 5 -10 0l-94 -96q-6 -8 -13 -2l-8 7q-6 6 -1 12l94 117q8 8 16 8h25q8 0 15 -8z" />
<glyph unicode="&#x10a;" horiz-adv-x="413" d="M385 71q8 -7 2 -13q-28 -31 -66 -47.5t-84 -16.5q-42 0 -75 12t-56 33.5t-35.5 51.5t-12.5 66v306q0 34 12.5 63.5t36 51t56 34t71.5 12.5q45 0 84.5 -15t66.5 -48q6 -6 -1 -13l-18 -15q-6 -6 -14 3q-19 24 -52 37t-66 13q-60 0 -96.5 -35.5t-36.5 -88.5v-303 q0 -27 9 -50t26 -40.5t42.5 -27.5t58.5 -10q32 0 63 12.5t53 35.5q10 11 17 5zM262 720q0 -13 -9 -21.5t-20 -8.5q-12 0 -20.5 8.5t-8.5 20.5q0 13 8.5 21.5t20.5 8.5t20.5 -8t8.5 -21z" />
<glyph unicode="&#x10b;" horiz-adv-x="371" d="M343 377q5 -8 -2 -12l-18 -15q-6 -4 -13 3q-17 24 -44 37.5t-58 13.5q-54 0 -88 -34.5t-34 -87.5v-129q0 -57 34.5 -89.5t88.5 -32.5q36 0 61 13.5t42 36.5q4 7 11 2l18 -11q5 -4 5.5 -7t-1.5 -6q-23 -33 -58.5 -48.5t-78.5 -15.5q-77 0 -120 43t-43 115v128 q0 36 12.5 65.5t34.5 50t52 32t65 11.5q86 0 134 -63zM240 564q0 -13 -9 -21.5t-20 -8.5q-12 0 -20.5 8.5t-8.5 20.5q0 13 8.5 21.5t20.5 8.5t20.5 -8t8.5 -21z" />
<glyph unicode="&#x10c;" horiz-adv-x="413" d="M385 71q8 -7 2 -13q-28 -31 -66 -47.5t-84 -16.5q-42 0 -75 12t-56 33.5t-35.5 51.5t-12.5 66v306q0 34 12.5 63.5t36 51t56 34t71.5 12.5q45 0 84.5 -15t66.5 -48q6 -6 -1 -13l-18 -15q-6 -6 -14 3q-19 24 -52 37t-66 13q-60 0 -96.5 -35.5t-36.5 -88.5v-303 q0 -27 9 -50t26 -40.5t42.5 -27.5t58.5 -10q32 0 63 12.5t53 35.5q10 11 17 5zM109 745q-3 3 -3 6q0 2 3 5q3 2 6.5 5t7.5 3t7 -3l92 -74q6 -5 13 0q24 19 48.5 37t47.5 37q3 3 7 3q5 0 8 -3t6 -5q4 -4 4 -5.5t-4 -5.5q-46 -48 -94 -94q-6 -7 -15 -7h-25q-9 0 -16 7z" />
<glyph unicode="&#x10d;" horiz-adv-x="371" d="M343 377q5 -8 -2 -12l-18 -15q-6 -4 -13 3q-17 24 -44 37.5t-58 13.5q-54 0 -88 -34.5t-34 -87.5v-129q0 -57 34.5 -89.5t88.5 -32.5q36 0 61 13.5t42 36.5q4 7 11 2l18 -11q5 -4 5.5 -7t-1.5 -6q-23 -33 -58.5 -48.5t-78.5 -15.5q-77 0 -120 43t-43 115v128 q0 36 12.5 65.5t34.5 50t52 32t65 11.5q86 0 134 -63zM194 491q-8 0 -16 8l-94 117q-3 5 -3 6t4 5l9 8q2 2 4 3t6 -3l96 -99q2 -2 5 -2q2 0 5 3q32 32 54.5 53.5t42.5 41.5q3 3 5 4.5t7 -2.5l10 -8q4 -4 3 -6t-4 -6l-94 -115q-7 -8 -15 -8h-25z" />
<glyph unicode="&#x10e;" horiz-adv-x="473" d="M422 167q0 -81 -44 -124t-123 -43h-186q-7 0 -7 8v601q0 8 7 8h187q166 0 166 -161v-289zM378 454q0 27 -6 50t-20.5 39.5t-38.5 26t-60 9.5h-141q-3 0 -5 -0.5t-2 -5.5v-529q0 -6 7 -6h143q57 0 90 31t33 94v291zM84 745q-3 3 -3 6q0 2 3 5q3 2 6.5 5t7.5 3t7 -3l92 -74 q6 -5 13 0q24 19 48.5 37t47.5 37q3 3 7 3q5 0 8 -3t6 -5q4 -4 4 -5.5t-4 -5.5q-46 -48 -94 -94q-6 -7 -15 -7h-25q-9 0 -16 7z" />
<glyph unicode="&#x10f;" horiz-adv-x="487" d="M466 487q-2 -9 -9 -9h-13q-9 0 -7 11l8 139q0 9 9 9h38q12 0 8 -12zM372 6q0 -6 -7 -6h-26q-6 0 -6 7v34q0 5 -3 6.5t-8 -3.5q-17 -23 -48 -36t-68 -13q-38 0 -67.5 11.5t-49.5 32.5t-30.5 49.5t-10.5 62.5v126q0 30 9 59t28 52.5t49 37.5t72 14q38 0 68 -13.5t46 -36.5 q5 -6 7.5 -4t2.5 8v236q0 7 7 7h28q7 0 7 -6v-625zM331 279q0 25 -9 48t-25 39.5t-38 26.5t-49 10q-32 0 -55 -10.5t-37.5 -27.5t-21.5 -40t-7 -48v-124q0 -54 30.5 -88.5t90.5 -34.5q27 0 49 9t38 25.5t25 38.5t9 48v128z" />
<glyph unicode="&#x110;" horiz-adv-x="473" d="M422 167q0 -81 -44 -124t-123 -43h-186q-7 0 -7 8v287q-2 7 -9 7h-42q-7 0 -7 7v17q0 8 7 8h43q5 0 6.5 1.5t1.5 7.5v266q0 8 7 8h187q166 0 166 -161v-289zM378 454q0 27 -6 50t-20.5 39.5t-38.5 26t-60 9.5h-141q-3 0 -5 -0.5t-2 -5.5v-236q1 -3 7 -3h137q7 0 7 -8v-17 q0 -7 -7 -7h-137q-5 0 -7 -2v-256q0 -6 7 -6h143q57 0 90 31t33 94v291z" />
<glyph unicode="&#x111;" horiz-adv-x="437" d="M322 538q8 0 8 10v76q0 6 7 6h28q7 0 7 -6v-76q0 -7 2 -8.5t7 -1.5h36q6 0 6 -7v-17q0 -7 -6 -7h-35q-10 0 -10 -9v-492q0 -6 -7 -6h-26q-6 0 -6 7v34q0 5 -3 6.5t-8 -3.5q-17 -23 -48 -36t-68 -13t-66.5 11.5t-49.5 32.5t-31 49.5t-11 62.5v126q0 30 9.5 59t29 52.5 t49.5 37.5t70 14q38 0 68 -13.5t46 -36.5q5 -6 7.5 -4t2.5 8v104q0 9 -8 9h-71q-6 0 -6 7v17q0 7 7 7h70zM331 279q0 25 -9 48t-25 39.5t-38 26.5t-49 10q-29 0 -51 -10.5t-38 -27.5t-24 -40t-8 -48v-124q0 -54 32 -88.5t89 -34.5q27 0 49 9t38 25.5t25 38.5t9 48v128z" />
<glyph unicode="&#x112;" horiz-adv-x="429" d="M399 8q0 -8 -8 -8h-322q-8 0 -8 8v601q0 8 8 8h310q7 0 7 -8v-23q0 -7 -7 -7h-267q-4 0 -6 -0.5t-2 -5.5v-229q0 -6 7 -6h233q7 0 7 -8v-23q0 -7 -7 -7h-233q-7 0 -7 -7v-249q0 -6 7 -6h280q8 0 8 -7v-23zM314 688q0 -6 -6 -6h-182q-6 0 -6 6v21q0 7 6 7h181q7 0 7 -7 v-21z" />
<glyph unicode="&#x113;" horiz-adv-x="408" d="M372 231q0 -9 -4.5 -13t-9.5 -4h-257q-12 0 -12 -13v-48q0 -52 33 -87t89 -35q33 0 58.5 13t42.5 36q6 8 13 3l19 -12q6 -5 4 -11q-21 -32 -57 -48.5t-81 -16.5q-75 0 -118.5 42.5t-43.5 114.5v126q0 38 12.5 68t34 51t51 32t63.5 11q35 0 65 -10.5t51.5 -31t34 -51.5 t12.5 -73v-43zM330 283q0 53 -33 87t-88 34q-26 0 -47.5 -9t-38 -25.5t-25.5 -38.5t-9 -47v-24q0 -11 12 -11h220q9 0 9 11v23zM304 538q0 -7 -6 -7h-182q-6 0 -6 7v20q0 7 6 7h181q7 0 7 -7v-20z" />
<glyph unicode="&#x114;" horiz-adv-x="429" d="M399 8q0 -8 -8 -8h-322q-8 0 -8 8v601q0 8 8 8h310q7 0 7 -8v-23q0 -7 -7 -7h-267q-4 0 -6 -0.5t-2 -5.5v-229q0 -6 7 -6h233q7 0 7 -8v-23q0 -7 -7 -7h-233q-7 0 -7 -7v-249q0 -6 7 -6h280q8 0 8 -7v-23zM110 754q0 7 6 7h13q5 0 6 -3t3 -8q6 -33 29.5 -51t52.5 -18 q28 0 52.5 18.5t30.5 50.5q2 5 3 8t6 3h12q7 0 7 -7q0 -24 -9.5 -44.5t-25.5 -34.5t-36 -22t-41 -8t-40.5 8t-34.5 22t-24.5 34.5t-9.5 44.5z" />
<glyph unicode="&#x115;" horiz-adv-x="408" d="M372 231q0 -9 -4.5 -13t-9.5 -4h-257q-12 0 -12 -13v-48q0 -52 33 -87t89 -35q33 0 58.5 13t42.5 36q6 8 13 3l19 -12q6 -5 4 -11q-21 -32 -57 -48.5t-81 -16.5q-75 0 -118.5 42.5t-43.5 114.5v126q0 38 12.5 68t34 51t51 32t63.5 11q35 0 65 -10.5t51.5 -31t34 -51.5 t12.5 -73v-43zM330 283q0 53 -33 87t-88 34q-26 0 -47.5 -9t-38 -25.5t-25.5 -38.5t-9 -47v-24q0 -11 12 -11h220q9 0 9 11v23zM95 614q0 6 6 6h12q5 0 6.5 -2.5t3.5 -7.5q6 -33 29.5 -51t52.5 -18q28 0 52.5 18t30.5 51l3 7.5t6 2.5h12q7 0 7 -6q0 -25 -10 -45t-25.5 -34.5 t-35.5 -22t-41 -7.5t-40.5 8t-34.5 22t-24.5 34.5t-9.5 44.5z" />
<glyph unicode="&#x116;" horiz-adv-x="429" d="M399 8q0 -8 -8 -8h-322q-8 0 -8 8v601q0 8 8 8h310q7 0 7 -8v-23q0 -7 -7 -7h-267q-4 0 -6 -0.5t-2 -5.5v-229q0 -6 7 -6h233q7 0 7 -8v-23q0 -7 -7 -7h-233q-7 0 -7 -7v-249q0 -6 7 -6h280q8 0 8 -7v-23zM254 714q0 -13 -9 -21.5t-20 -8.5q-12 0 -20.5 8.5t-8.5 20.5 q0 13 8.5 21.5t20.5 8.5t20.5 -8t8.5 -21z" />
<glyph unicode="&#x117;" horiz-adv-x="408" d="M372 231q0 -9 -4.5 -13t-9.5 -4h-257q-12 0 -12 -13v-48q0 -52 33 -87t89 -35q33 0 58.5 13t42.5 36q6 8 13 3l19 -12q6 -5 4 -11q-21 -32 -57 -48.5t-81 -16.5q-75 0 -118.5 42.5t-43.5 114.5v126q0 38 12.5 68t34 51t51 32t63.5 11q35 0 65 -10.5t51.5 -31t34 -51.5 t12.5 -73v-43zM330 283q0 53 -33 87t-88 34q-26 0 -47.5 -9t-38 -25.5t-25.5 -38.5t-9 -47v-24q0 -11 12 -11h220q9 0 9 11v23zM242 564q0 -13 -9 -21.5t-20 -8.5q-12 0 -20.5 8.5t-8.5 20.5q0 13 8.5 21.5t20.5 8.5t20.5 -8t8.5 -21z" />
<glyph unicode="&#x118;" horiz-adv-x="429" d="M399 8q0 -8 -8 -8h-41q-25 -26 -40 -56t-15 -57q0 -17 10 -27t33 -10q15 0 31.5 7t28.5 16q3 3 8 -1l9 -11q3 -3 -2 -8q-15 -14 -38.5 -23.5t-45.5 -9.5q-35 0 -52.5 18t-17.5 51q0 28 16 59.5t38 51.5h-244q-8 0 -8 8v601q0 8 8 8h310q7 0 7 -8v-23q0 -7 -7 -7h-267 q-4 0 -6 -0.5t-2 -5.5v-229q0 -6 7 -6h233q7 0 7 -8v-23q0 -7 -7 -7h-233q-7 0 -7 -7v-249q0 -6 7 -6h280q8 0 8 -7v-23v0z" />
<glyph unicode="&#x119;" horiz-adv-x="408" d="M372 231q0 -9 -4.5 -13t-9.5 -4h-257q-12 0 -12 -13v-48q0 -52 33 -87t89 -35q33 0 58.5 13t42.5 36q6 8 13 3l19 -12q6 -5 4 -11q-19 -28 -47 -43q-25 -26 -40 -56t-15 -57q0 -17 10 -27t33 -10q15 0 31.5 7t28.5 16q3 3 8 -1l9 -11q3 -3 -2 -8q-15 -14 -38.5 -23.5 t-45.5 -9.5q-35 0 -52.5 18t-17.5 51q0 22 10.5 47t26.5 45q-18 -3 -37 -3q-75 0 -118.5 42.5t-43.5 114.5v126q0 38 12.5 68t34 51t51 32t63.5 11q35 0 65 -10.5t51.5 -31t34 -51.5t12.5 -73v-43zM330 283q0 53 -33 87t-88 34q-26 0 -47.5 -9t-38 -25.5t-25.5 -38.5t-9 -47 v-24q0 -11 12 -11h220q9 0 9 11v23z" />
<glyph unicode="&#x11a;" horiz-adv-x="429" d="M399 8q0 -8 -8 -8h-322q-8 0 -8 8v601q0 8 8 8h310q7 0 7 -8v-23q0 -7 -7 -7h-267q-4 0 -6 -0.5t-2 -5.5v-229q0 -6 7 -6h233q7 0 7 -8v-23q0 -7 -7 -7h-233q-7 0 -7 -7v-249q0 -6 7 -6h280q8 0 8 -7v-23zM97 745q-3 3 -3 6q0 2 3 5q3 2 6.5 5t7.5 3t7 -3l92 -74 q6 -5 13 0q24 19 48.5 37t47.5 37q3 3 7 3q5 0 8 -3t6 -5q4 -4 4 -5.5t-4 -5.5q-46 -48 -94 -94q-6 -7 -15 -7h-25q-9 0 -16 7z" />
<glyph unicode="&#x11b;" horiz-adv-x="408" d="M372 231q0 -9 -4.5 -13t-9.5 -4h-257q-12 0 -12 -13v-48q0 -52 33 -87t89 -35q33 0 58.5 13t42.5 36q6 8 13 3l19 -12q6 -5 4 -11q-21 -32 -57 -48.5t-81 -16.5q-75 0 -118.5 42.5t-43.5 114.5v126q0 38 12.5 68t34 51t51 32t63.5 11q35 0 65 -10.5t51.5 -31t34 -51.5 t12.5 -73v-43zM330 283q0 53 -33 87t-88 34q-26 0 -47.5 -9t-38 -25.5t-25.5 -38.5t-9 -47v-24q0 -11 12 -11h220q9 0 9 11v23zM194 491q-8 0 -16 8l-94 117q-3 5 -3 6t4 5l9 8q2 2 4 3t6 -3l96 -99q2 -2 5 -2q2 0 5 3q32 32 54.5 53.5t42.5 41.5q3 3 5 4.5t7 -2.5l10 -8 q4 -4 3 -6t-4 -6l-94 -115q-7 -8 -15 -8h-25z" />
<glyph unicode="&#x11c;" horiz-adv-x="461" d="M414 156q0 -35 -12.5 -65t-36 -52t-56 -34t-72.5 -12q-39 0 -71.5 11t-56.5 32t-37.5 51t-13.5 68v310q0 34 13.5 63t37.5 50.5t56.5 33.5t70.5 12q45 0 87.5 -16t65.5 -48q5 -7 -2 -13l-18 -14q-8 -7 -15 3q-19 26 -52 38t-65 12q-30 0 -55 -9.5t-43 -26.5t-28 -40 t-10 -49v-304q0 -29 10.5 -52t29 -39.5t43 -25.5t53.5 -9q58 0 95.5 32.5t37.5 93.5v128q0 7 -6 7h-88q-8 0 -8 7v24q0 8 8 8h129q9 0 9 -8v-167zM197 757q5 5 8 6t8 1h25q9 0 15 -7q48 -46 94 -94q4 -4 4 -5.5t-4 -5.5q-3 -2 -6 -5t-8 -3q-4 0 -7 3q-23 19 -47.5 37 t-48.5 37q-7 5 -13 0l-92 -74q-3 -3 -7 -3t-7.5 3t-6.5 5q-3 3 -3 5q0 3 3 6z" />
<glyph unicode="&#x11d;" horiz-adv-x="415" d="M416 -81q0 -35 -20 -65.5t-52 -49.5q-4 -2 -7.5 -3t-7.5 4l-13 18q-4 7 4 13q19 12 36 33t17 47q0 25 -13 41t-33.5 26t-46 14t-50.5 4q-32 0 -71.5 -4.5t-77.5 -9.5q-9 -2 -14.5 0.5t-10.5 14.5q-7 15 -7 44q0 20 17.5 50t49.5 53q3 1 3 4q0 1 -4 5h-1q-33 20 -52 54 t-19 76q0 30 12 57.5t33 48.5t50 33.5t64 12.5q23 0 51.5 -7.5t51.5 -27.5q4 -4 7 -4t7 4q17 14 39 23t45 11h3q7 0 7 -10v-30q0 -8 -6 -8h-3q-15 0 -34 -4t-27 -8q-5 -2 -5 -5q0 -2 4 -10q10 -15 15 -35t5 -39q0 -36 -13.5 -65t-36 -49t-51.5 -31t-61 -11h-17t-16 2 q-8 0 -11.5 -1.5t-8.5 -4.5q-10 -7 -20.5 -17t-18.5 -21.5t-13.5 -23.5t-5.5 -24q0 -15 3.5 -18t14.5 -1q13 3 29 5.5t32.5 4.5t32 3t27.5 1q36 0 69.5 -6.5t60 -21t42.5 -37t16 -55.5zM320 289q0 23 -8 44t-23.5 36.5t-37 24.5t-48.5 9t-48.5 -9.5t-37 -25.5t-24 -37 t-8.5 -44t8 -44t22.5 -37.5t36 -26.5t48.5 -10q28 0 50.5 10t38 26.5t23.5 38.5t8 45zM330 517q6 -8 0 -13l-8 -7q-4 -4 -7 -2.5t-6 3.5l-97 96q-5 5 -10 0l-94 -96q-6 -8 -13 -2l-8 7q-6 6 -1 12l94 117q8 8 16 8h25q8 0 15 -8z" />
<glyph unicode="&#x11e;" horiz-adv-x="461" d="M414 156q0 -35 -12.5 -65t-36 -52t-56 -34t-72.5 -12q-39 0 -71.5 11t-56.5 32t-37.5 51t-13.5 68v310q0 34 13.5 63t37.5 50.5t56.5 33.5t70.5 12q45 0 87.5 -16t65.5 -48q5 -7 -2 -13l-18 -14q-8 -7 -15 3q-19 26 -52 38t-65 12q-30 0 -55 -9.5t-43 -26.5t-28 -40 t-10 -49v-304q0 -29 10.5 -52t29 -39.5t43 -25.5t53.5 -9q58 0 95.5 32.5t37.5 93.5v128q0 7 -6 7h-88q-8 0 -8 7v24q0 8 8 8h129q9 0 9 -8v-167zM118 754q0 7 6 7h13q5 0 6 -3t3 -8q6 -33 29.5 -51t52.5 -18q28 0 52.5 18.5t30.5 50.5q2 5 3 8t6 3h12q7 0 7 -7 q0 -24 -9.5 -44.5t-25.5 -34.5t-36 -22t-41 -8t-40.5 8t-34.5 22t-24.5 34.5t-9.5 44.5z" />
<glyph unicode="&#x11f;" horiz-adv-x="415" d="M416 -81q0 -35 -20 -65.5t-52 -49.5q-4 -2 -7.5 -3t-7.5 4l-13 18q-4 7 4 13q19 12 36 33t17 47q0 25 -13 41t-33.5 26t-46 14t-50.5 4q-32 0 -71.5 -4.5t-77.5 -9.5q-9 -2 -14.5 0.5t-10.5 14.5q-7 15 -7 44q0 20 17.5 50t49.5 53q3 1 3 4q0 1 -4 5h-1q-33 20 -52 54 t-19 76q0 30 12 57.5t33 48.5t50 33.5t64 12.5q23 0 51.5 -7.5t51.5 -27.5q4 -4 7 -4t7 4q17 14 39 23t45 11h3q7 0 7 -10v-30q0 -8 -6 -8h-3q-15 0 -34 -4t-27 -8q-5 -2 -5 -5q0 -2 4 -10q10 -15 15 -35t5 -39q0 -36 -13.5 -65t-36 -49t-51.5 -31t-61 -11h-17t-16 2 q-8 0 -11.5 -1.5t-8.5 -4.5q-10 -7 -20.5 -17t-18.5 -21.5t-13.5 -23.5t-5.5 -24q0 -15 3.5 -18t14.5 -1q13 3 29 5.5t32.5 4.5t32 3t27.5 1q36 0 69.5 -6.5t60 -21t42.5 -37t16 -55.5zM320 289q0 23 -8 44t-23.5 36.5t-37 24.5t-48.5 9t-48.5 -9.5t-37 -25.5t-24 -37 t-8.5 -44t8 -44t22.5 -37.5t36 -26.5t48.5 -10q28 0 50.5 10t38 26.5t23.5 38.5t8 45zM95 614q0 6 6 6h12q5 0 6.5 -2.5t3.5 -7.5q6 -33 29.5 -51t52.5 -18q28 0 52.5 18t30.5 51l3 7.5t6 2.5h12q7 0 7 -6q0 -25 -10 -45t-25.5 -34.5t-35.5 -22t-41 -7.5t-40.5 8t-34.5 22 t-24.5 34.5t-9.5 44.5z" />
<glyph unicode="&#x120;" horiz-adv-x="461" d="M414 156q0 -35 -12.5 -65t-36 -52t-56 -34t-72.5 -12q-39 0 -71.5 11t-56.5 32t-37.5 51t-13.5 68v310q0 34 13.5 63t37.5 50.5t56.5 33.5t70.5 12q45 0 87.5 -16t65.5 -48q5 -7 -2 -13l-18 -14q-8 -7 -15 3q-19 26 -52 38t-65 12q-30 0 -55 -9.5t-43 -26.5t-28 -40 t-10 -49v-304q0 -29 10.5 -52t29 -39.5t43 -25.5t53.5 -9q58 0 95.5 32.5t37.5 93.5v128q0 7 -6 7h-88q-8 0 -8 7v24q0 8 8 8h129q9 0 9 -8v-167zM254 714q0 -13 -9 -21.5t-20 -8.5q-12 0 -20.5 8.5t-8.5 20.5q0 13 8.5 21.5t20.5 8.5t20.5 -8t8.5 -21z" />
<glyph unicode="&#x121;" horiz-adv-x="415" d="M416 -81q0 -35 -20 -65.5t-52 -49.5q-4 -2 -7.5 -3t-7.5 4l-13 18q-4 7 4 13q19 12 36 33t17 47q0 25 -13 41t-33.5 26t-46 14t-50.5 4q-32 0 -71.5 -4.5t-77.5 -9.5q-9 -2 -14.5 0.5t-10.5 14.5q-7 15 -7 44q0 20 17.5 50t49.5 53q3 1 3 4q0 1 -4 5h-1q-33 20 -52 54 t-19 76q0 30 12 57.5t33 48.5t50 33.5t64 12.5q23 0 51.5 -7.5t51.5 -27.5q4 -4 7 -4t7 4q17 14 39 23t45 11h3q7 0 7 -10v-30q0 -8 -6 -8h-3q-15 0 -34 -4t-27 -8q-5 -2 -5 -5q0 -2 4 -10q10 -15 15 -35t5 -39q0 -36 -13.5 -65t-36 -49t-51.5 -31t-61 -11h-17t-16 2 q-8 0 -11.5 -1.5t-8.5 -4.5q-10 -7 -20.5 -17t-18.5 -21.5t-13.5 -23.5t-5.5 -24q0 -15 3.5 -18t14.5 -1q13 3 29 5.5t32.5 4.5t32 3t27.5 1q36 0 69.5 -6.5t60 -21t42.5 -37t16 -55.5zM320 289q0 23 -8 44t-23.5 36.5t-37 24.5t-48.5 9t-48.5 -9.5t-37 -25.5t-24 -37 t-8.5 -44t8 -44t22.5 -37.5t36 -26.5t48.5 -10q28 0 50.5 10t38 26.5t23.5 38.5t8 45zM246 564q0 -13 -9 -21.5t-20 -8.5q-12 0 -20.5 8.5t-8.5 20.5q0 13 8.5 21.5t20.5 8.5t20.5 -8t8.5 -21z" />
<glyph unicode="&#x122;" horiz-adv-x="461" d="M414 156q0 -35 -12.5 -65t-36 -52t-56 -34t-72.5 -12q-39 0 -71.5 11t-56.5 32t-37.5 51t-13.5 68v310q0 34 13.5 63t37.5 50.5t56.5 33.5t70.5 12q45 0 87.5 -16t65.5 -48q5 -7 -2 -13l-18 -14q-8 -7 -15 3q-19 26 -52 38t-65 12q-30 0 -55 -9.5t-43 -26.5t-28 -40 t-10 -49v-304q0 -29 10.5 -52t29 -39.5t43 -25.5t53.5 -9q58 0 95.5 32.5t37.5 93.5v128q0 7 -6 7h-88q-8 0 -8 7v24q0 8 8 8h129q9 0 9 -8v-167zM214 -196q-2 -9 -9 -9h-13q-9 0 -7 11l8 139q0 9 9 9h38q12 0 8 -12z" />
<glyph unicode="&#x123;" horiz-adv-x="415" d="M416 -81q0 -35 -20 -65.5t-52 -49.5q-4 -2 -7.5 -3t-7.5 4l-13 18q-4 7 4 13q19 12 36 33t17 47q0 25 -13 41t-33.5 26t-46 14t-50.5 4q-32 0 -71.5 -4.5t-77.5 -9.5q-9 -2 -14.5 0.5t-10.5 14.5q-7 15 -7 44q0 20 17.5 50t49.5 53q3 1 3 4q0 1 -4 5h-1q-33 20 -52 54 t-19 76q0 30 12 57.5t33 48.5t50 33.5t64 12.5q23 0 51.5 -7.5t51.5 -27.5q4 -4 7 -4t7 4q17 14 39 23t45 11h3q7 0 7 -10v-30q0 -8 -6 -8h-3q-15 0 -34 -4t-27 -8q-5 -2 -5 -5q0 -2 4 -10q10 -15 15 -35t5 -39q0 -36 -13.5 -65t-36 -49t-51.5 -31t-61 -11h-17t-16 2 q-8 0 -11.5 -1.5t-8.5 -4.5q-10 -7 -20.5 -17t-18.5 -21.5t-13.5 -23.5t-5.5 -24q0 -15 3.5 -18t14.5 -1q13 3 29 5.5t32.5 4.5t32 3t27.5 1q36 0 69.5 -6.5t60 -21t42.5 -37t16 -55.5zM320 289q0 23 -8 44t-23.5 36.5t-37 24.5t-48.5 9t-48.5 -9.5t-37 -25.5t-24 -37 t-8.5 -44t8 -44t22.5 -37.5t36 -26.5t48.5 -10q28 0 50.5 10t38 26.5t23.5 38.5t8 45zM190 494q8 35 16.5 69t17.5 69q1 9 9 9h13q7 0 7 -8v-3q-2 -35 -4 -69.5t-4 -69.5q0 -9 -9 -9h-38q-9 0 -9 6q0 4 1 6z" />
<glyph unicode="&#x124;" horiz-adv-x="499" d="M439 7q0 -7 -7 -7h-29q-8 0 -8 7v285q0 7 -6 7h-278q-7 0 -7 -7v-285q0 -7 -7 -7h-28q-8 0 -8 7v603q0 7 8 7h28q7 0 7 -7v-267q0 -6 7 -6h278q5 0 5.5 1.5t0.5 4.5v267q0 7 8 7h28q8 0 8 -7v-603zM221 757q5 5 8 6t8 1h25q9 0 15 -7q48 -46 94 -94q4 -4 4 -5.5t-4 -5.5 q-3 -2 -6 -5t-8 -3q-4 0 -7 3q-23 19 -47.5 37t-48.5 37q-7 5 -13 0l-92 -74q-3 -3 -7 -3t-7.5 3t-6.5 5q-3 3 -3 5q0 3 3 6z" />
<glyph unicode="&#x125;" horiz-adv-x="428" d="M379 7q0 -7 -7 -7h-28q-7 0 -7 6v271q0 25 -6.5 48.5t-21 40.5t-37.5 27.5t-56 10.5q-27 0 -49 -10t-37.5 -27t-24.5 -39.5t-9 -48.5v-272q0 -7 -7 -7h-28q-7 0 -7 6v624q0 7 7 7h28q6 0 6 -7v-237q0 -6 3 -7.5t7 3.5q23 26 54.5 38.5t66.5 12.5q42 0 71 -14t47.5 -36.5 t26.5 -52.5t8 -61v-269zM47 757q5 5 8 6t8 1h25q9 0 15 -7q48 -46 94 -94q4 -4 4 -5.5t-4 -5.5q-3 -2 -6 -5t-8 -3q-4 0 -7 3q-23 19 -47.5 37t-48.5 37q-7 5 -13 0l-92 -74q-3 -3 -7 -3t-7.5 3t-6.5 5q-3 3 -3 5q0 3 3 6z" />
<glyph unicode="&#x126;" horiz-adv-x="499" d="M435 7q0 -7 -7 -7h-28q-8 0 -8 7v285q0 7 -7 7h-271q-7 0 -7 -7v-285q0 -7 -7 -7h-28q-8 0 -8 7v497q0 9 -10 9h-34q-7 0 -7 7v15q0 8 7 8h35q9 0 9 9v58q0 7 8 7h28q7 0 7 -7v-57q0 -10 8 -10h269q8 0 8 10v57q0 7 8 7h27q8 0 8 -7v-58q0 -9 9 -9h36q7 0 7 -8v-15 q0 -7 -8 -7h-34q-10 0 -10 -9v-497zM392 504q0 9 -7 9h-270q-8 0 -8 -9v-161q0 -6 7 -6h271q7 0 7 6v161z" />
<glyph unicode="&#x127;" horiz-adv-x="438" d="M63 505q0 10 -11 10h-34q-6 0 -6 7v15q0 7 6 7h35q10 0 10 11v69q0 6 7 6h28q7 0 7 -6v-69q0 -11 8 -11h191q7 0 7 -7v-15q0 -7 -6 -7h-192q-8 0 -8 -10v-112q0 -6 2.5 -7.5t6.5 3.5q23 26 55.5 38.5t67.5 12.5q43 0 72 -14t46.5 -36.5t25 -52.5t7.5 -61v-269q0 -7 -6 -7 h-29q-7 0 -7 6v271q0 25 -6.5 48.5t-20.5 40.5t-37 27.5t-57 10.5q-27 0 -49 -10t-37.5 -27t-24.5 -39.5t-9 -48.5v-272q0 -7 -7 -7h-28q-7 0 -7 6v499z" />
<glyph unicode="&#x128;" horiz-adv-x="201" d="M122 7q0 -7 -8 -7h-28q-8 0 -8 7v603q0 7 8 7h28q8 0 8 -7v-603zM228 741q-14 -26 -35 -36t-39 -10q-16 0 -30.5 5t-28 10.5t-27 10.5t-26.5 5q-11 0 -22 -7.5t-17 -18.5q-5 -8 -12 -4l-14 7q-4 2 -3.5 5t2.5 6q25 45 70 45q14 0 28 -5t27 -10.5t26 -10.5t25 -5 q28 0 47 29q2 3 3.5 4t5.5 -1l17 -8q6 -2 3 -11z" />
<glyph unicode="&#x129;" horiz-adv-x="221" d="M93 428q0 7 7 7h28q7 0 7 -7v-422q0 -6 -7 -6h-28q-7 0 -7 6v422zM241 571q-14 -26 -35 -36t-39 -10q-16 0 -30.5 5t-28 10.5t-27 10.5t-26.5 5q-11 0 -22 -7.5t-17 -18.5q-5 -8 -12 -4l-14 7q-4 2 -3.5 5t2.5 6q25 45 70 45q14 0 28 -5t27 -10.5t26 -10.5t25 -5 q28 0 47 29q2 3 3.5 4t5.5 -1l17 -8q6 -2 3 -11z" />
<glyph unicode="&#x12a;" horiz-adv-x="201" d="M122 7q0 -7 -8 -7h-28q-8 0 -8 7v603q0 7 8 7h28q8 0 8 -7v-603zM195 688q0 -6 -6 -6h-182q-6 0 -6 6v21q0 7 6 7h181q7 0 7 -7v-21z" />
<glyph unicode="&#x12b;" horiz-adv-x="172" d="M62 428q0 7 7 7h28q7 0 7 -7v-422q0 -6 -7 -6h-28q-7 0 -7 6v422zM181 538q0 -7 -6 -7h-182q-6 0 -6 7v20q0 7 6 7h181q7 0 7 -7v-20z" />
<glyph unicode="&#x12c;" horiz-adv-x="201" d="M122 7q0 -7 -8 -7h-28q-8 0 -8 7v603q0 7 8 7h28q8 0 8 -7v-603zM-11 755q0 6 6 6h12q5 0 6.5 -2.5t3.5 -7.5q6 -33 29.5 -51t52.5 -18q28 0 52.5 18t30.5 51l3 7.5t6 2.5h12q7 0 7 -6q0 -25 -10 -45t-25.5 -34.5t-35.5 -22t-41 -7.5t-40.5 8t-34.5 22t-24.5 34.5 t-9.5 44.5z" />
<glyph unicode="&#x12d;" horiz-adv-x="202" d="M81 428q0 7 7 7h28q7 0 7 -7v-422q0 -6 -7 -6h-28q-7 0 -7 6v422zM-5 620q0 6 6 6h12q5 0 6.5 -2.5t3.5 -7.5q6 -33 29.5 -51t52.5 -18q28 0 52.5 18t30.5 51l3 7.5t6 2.5h12q7 0 7 -6q0 -25 -10 -45t-25.5 -34.5t-35.5 -22t-41 -7.5t-40.5 8t-34.5 22t-24.5 34.5 t-9.5 44.5z" />
<glyph unicode="&#x12e;" horiz-adv-x="201" d="M122 7q0 -7 -8 -7h-16q-25 -26 -40 -56t-15 -57q0 -17 10 -27t33 -10q15 0 31.5 7t28.5 16q3 3 8 -1l9 -11q3 -3 -2 -8q-15 -14 -38.5 -23.5t-45.5 -9.5q-35 0 -52.5 18t-17.5 51q0 29 17.5 61.5t40.5 52.5q5 5 13 10v597q0 7 8 7h28q8 0 8 -7v-603v0z" />
<glyph unicode="&#x12f;" horiz-adv-x="172" d="M87 0q-25 -26 -40 -56t-15 -57q0 -17 10 -27t33 -10q15 0 31.5 7t28.5 16q3 3 8 -1l9 -11q3 -3 -2 -8q-15 -14 -38.5 -23.5t-45.5 -9.5q-35 0 -52.5 18t-17.5 51q0 29 17.5 61.5t40.5 52.5l8 7v418q0 7 7 7h28q7 0 7 -7v-422q0 -6 -7 -6h-10zM114 562q0 -13 -9 -22 t-21 -9t-21 8.5t-9 22.5q0 13 9 21.5t21 8.5q13 0 21.5 -8.5t8.5 -21.5z" />
<glyph unicode="&#x130;" horiz-adv-x="201" d="M122 7q0 -7 -8 -7h-28q-8 0 -8 7v603q0 7 8 7h28q8 0 8 -7v-603zM128 720q0 -13 -9 -21.5t-20 -8.5q-12 0 -20.5 8.5t-8.5 20.5q0 13 8.5 21.5t20.5 8.5t20.5 -8t8.5 -21z" />
<glyph unicode="&#x131;" horiz-adv-x="172" d="M62 428q0 7 7 7h28q7 0 7 -7v-422q0 -6 -7 -6h-28q-7 0 -7 6v422z" />
<glyph unicode="&#x132;" horiz-adv-x="371" d="M109 7q0 -7 -8 -7h-28q-8 0 -8 7v603q0 7 8 7h28q8 0 8 -7v-603zM306 123q0 -52 -6 -88.5t-23 -63t-47.5 -45.5t-79.5 -36q-3 -1 -7 -0.5t-6 6.5l-6 22q-3 9 7 13q42 15 66.5 31.5t37.5 38.5t17 51t4 67v489q0 8 8 8h26q9 0 9 -8v-485z" />
<glyph unicode="&#x133;" horiz-adv-x="311" d="M114 562q0 -13 -9 -22t-21 -9t-21 8.5t-9 22.5q0 13 9 21.5t21 8.5q13 0 21.5 -8.5t8.5 -21.5zM62 428q0 7 7 7h28q7 0 7 -7v-422q0 -6 -7 -6h-28q-7 0 -7 6v422zM257 562q0 -13 -9 -22t-20 -9q-13 0 -22 8.5t-9 22.5q0 13 9 21.5t21 8.5q13 0 21.5 -8.5t8.5 -21.5z M98 -142q2 6 10 5q8 -2 18 -3t18 -1q38 0 50 20t12 60v489q0 7 7 7h28q7 0 7 -7v-492q0 -57 -24 -86t-77 -29q-14 0 -27 1.5t-21 4.5q-7 1 -6 9z" />
<glyph unicode="&#x134;" horiz-adv-x="227" d="M148 124q0 -52 -6 -88.5t-23 -63t-47.5 -45.5t-79.5 -36q-3 -1 -7 -0.5t-6 6.5l-6 22q-3 9 7 13q42 15 66.5 31.5t37.5 38.5t17 51t4 67v489q0 8 8 8h26q9 0 9 -8v-485zM98 759q5 5 8 6t8 1h25q9 0 15 -7q48 -46 94 -94q4 -4 4 -5.5t-4 -5.5q-3 -2 -6 -5t-8 -3q-4 0 -7 3 q-23 19 -47.5 37t-48.5 37q-7 5 -13 0l-92 -74q-3 -3 -7 -3t-7.5 3t-6.5 5q-3 3 -3 5q0 3 3 6z" />
<glyph unicode="&#x135;" horiz-adv-x="215" d="M-22 -140q2 6 10 5q8 -2 18 -4t18 -2q34 1 48 20.5t14 59.5v489q0 7 7 7h28q7 0 7 -7v-492q0 -57 -24 -86t-77 -29q-14 0 -27 1.5t-21 4.5q-7 1 -6 9zM227 517q6 -8 0 -13l-8 -7q-4 -4 -7 -2.5t-6 3.5l-97 96q-5 5 -10 0l-94 -96q-6 -8 -13 -2l-8 7q-6 6 -1 12l94 117 q8 8 16 8h25q8 0 15 -8z" />
<glyph unicode="&#x136;" horiz-adv-x="470" d="M432 7q0 -7 -7 -7h-26q-7 0 -7 7l-13 183q-2 23 -6.5 47t-18.5 44t-40 33t-69 13q-41 0 -68 -12.5t-43 -32.5t-23 -44.5t-7 -48.5v-182q0 -7 -6 -7h-30q-8 0 -8 6v602q0 9 8 9h30q6 0 6 -9v-285q0 -6 1.5 -8.5t7.5 4.5l260 291q6 6 12 6h30q6 0 6.5 -3t-1.5 -6l-214 -242 q-5 -5 -3 -6.5t7 -1.5q12 3 26.5 4t26.5 1q43 -1 72 -15t47 -36.5t26.5 -51t10.5 -58.5zM234 -176q-2 -9 -9 -9h-13q-9 0 -7 11l8 139q0 9 9 9h38q12 0 8 -12z" />
<glyph unicode="&#x137;" horiz-adv-x="406" d="M376 9q0 -9 -8 -9h-26q-8 0 -8 8l-5 101q-1 24 -7.5 46t-20.5 38.5t-35.5 26t-52.5 9.5q-25 0 -47 -9t-38 -25t-25 -36.5t-9 -42.5v-109q0 -7 -6 -7h-28q-8 0 -8 6v624q0 7 7 7h29q6 0 6 -6v-399q0 -8 3.5 -8.5t7.5 2.5l205 204q6 5 14 5h35q4 0 5.5 -2.5t-0.5 -4.5 l-156 -157q-5 -5 -3 -7t5 -1q4 1 7.5 1h6.5q71 0 107 -41.5t40 -113.5zM203 -196q-2 -9 -9 -9h-13q-9 0 -7 11l8 139q0 9 9 9h38q12 0 8 -12z" />
<glyph unicode="&#x138;" horiz-adv-x="406" d="M376 9q0 -9 -8 -9h-26q-8 0 -8 8l-5 101q-1 24 -7.5 46t-20.5 38.5t-35.5 26t-52.5 9.5q-25 0 -47 -9t-38 -25t-25 -36.5t-9 -42.5v-109q0 -7 -6 -7h-28q-8 0 -8 6v422q0 7 7 7h29q6 0 6 -6v-197q0 -8 3.5 -8.5t7.5 2.5l205 204q6 5 14 5h35q4 0 5.5 -2.5t-0.5 -4.5 l-156 -157q-5 -5 -3 -7t5 -1q4 1 7.5 1h6.5q71 0 107 -41.5t40 -113.5l5 -100v0z" />
<glyph unicode="&#x139;" horiz-adv-x="395" d="M385 8q0 -8 -7 -8h-312q-9 0 -9 8v602q0 7 8 7h28q7 0 7 -7v-565q0 -6 7 -6h271q7 0 7 -7v-24zM84 646q-7 -4 -13 2l-6 8q-5 8 1 12l109 93q8 7 15 -1l19 -23q9 -9 -2 -15z" />
<glyph unicode="&#x13a;" horiz-adv-x="195" d="M177 2q0 -7 -8 -7h-19q-26 0 -41.5 7t-24 18.5t-11.5 27t-3 33.5v549q0 7 6 7h28q7 0 7 -7v-535q0 -30 9 -45.5t39 -15.5h10q6 0 7 -2.5t1 -6.5v-23zM89 675q-7 -4 -13 2l-6 8q-5 8 1 12l109 93q8 7 15 -1l19 -23q9 -9 -2 -15z" />
<glyph unicode="&#x13b;" horiz-adv-x="395" d="M385 8q0 -8 -7 -8h-312q-9 0 -9 8v602q0 7 8 7h28q7 0 7 -7v-565q0 -6 7 -6h271q7 0 7 -7v-24zM189 -196q-2 -9 -9 -9h-13q-9 0 -7 11l8 139q0 9 9 9h38q12 0 8 -12z" />
<glyph unicode="&#x13c;" horiz-adv-x="195" d="M177 2q0 -7 -8 -7h-19q-26 0 -41.5 7t-24 18.5t-11.5 27t-3 33.5v549q0 7 6 7h28q7 0 7 -7v-535q0 -30 9 -45.5t39 -15.5h10q6 0 7 -2.5t1 -6.5v-23zM96 -196q-2 -9 -9 -9h-13q-9 0 -7 11l8 139q0 9 9 9h38q12 0 8 -12z" />
<glyph unicode="&#x13d;" horiz-adv-x="395" d="M385 8q0 -8 -7 -8h-312q-9 0 -9 8v602q0 7 8 7h28q7 0 7 -7v-565q0 -6 7 -6h271q7 0 7 -7v-24zM267 468q-2 -9 -9 -9h-13q-9 0 -7 11l8 139q0 9 9 9h38q12 0 8 -12z" />
<glyph unicode="&#x13e;" horiz-adv-x="259" d="M177 2q0 -7 -8 -7h-19q-26 0 -41.5 7t-24 18.5t-11.5 27t-3 33.5v549q0 7 6 7h28q7 0 7 -7v-535q0 -30 9 -45.5t39 -15.5h10q6 0 7 -2.5t1 -6.5v-23zM214 484q-2 -9 -9 -9h-13q-9 0 -7 11l8 139q0 9 9 9h38q12 0 8 -12z" />
<glyph unicode="&#x13f;" horiz-adv-x="395" d="M385 8q0 -8 -7 -8h-312q-9 0 -9 8v602q0 7 8 7h28q7 0 7 -7v-565q0 -6 7 -6h271q7 0 7 -7v-24zM282 314q0 -13 -9 -21.5t-20 -8.5q-12 0 -20.5 8.5t-8.5 20.5q0 13 8.5 21.5t20.5 8.5t20.5 -8t8.5 -21z" />
<glyph unicode="&#x140;" horiz-adv-x="246" d="M177 2q0 -7 -8 -7h-19q-26 0 -41.5 7t-24 18.5t-11.5 27t-3 33.5v549q0 7 6 7h28q7 0 7 -7v-535q0 -30 9 -45.5t39 -15.5h10q6 0 7 -2.5t1 -6.5v-23zM230 354q0 -13 -9 -21.5t-20 -8.5q-12 0 -20.5 8.5t-8.5 20.5q0 13 8.5 21.5t20.5 8.5t20.5 -8t8.5 -21z" />
<glyph unicode="&#x141;" horiz-adv-x="412" d="M246 328q2 -4 1 -5.5t-3 -3.5q-5 -3 -20.5 -12t-33.5 -19.5t-34 -19.5t-20 -12q-6 -3 -6 -13v-198q0 -6 8 -6h263q7 0 7 -7v-24q0 -8 -7 -8h-305q-9 0 -9 8v210q0 9 -8 4l-57 -32q-6 -3 -9 2l-10 16q-4 7 2 10l73 42q9 5 9 15v335q0 7 8 7h28q7 0 7 -7v-311q0 -9 5 -6 l93 54q5 5 9 -2l9 -17v0z" />
<glyph unicode="&#x142;" horiz-adv-x="246" d="M95 265q0 9 -3 9q-2 0 -4 -1l-69 -40h-3q-4 0 -5 3l-9 16q-1 2 -1 5q0 2 2 4q21 12 42.5 24t42.5 25q5 3 6 5t1 8v307q0 7 6 7h28q7 0 7 -7v-284q0 -6 4 -6q2 0 3 1l83 49q1 1 3 1q4 0 5 -4q2 -4 5 -7.5t5 -8.5q1 -1 1 -3q0 -4 -3 -5l-98 -58q-8 -5 -8 -16v-13 q0 -46 0.5 -91t0.5 -90q0 -30 9 -45.5t39 -15.5h10q6 0 7 -2.5t1 -6.5v-23q0 -5 -8 -7h-20q-30 0 -46.5 10.5t-24 27.5t-8.5 39t-1 45v148v0z" />
<glyph unicode="&#x143;" horiz-adv-x="497" d="M92 617q7 0 9.5 -2.5t5.5 -6.5l287 -522q4 -6 4 0v523q0 8 7 8h28q7 0 7 -7v-598q0 -7 -3.5 -9.5t-8.5 -2.5h-22q-7 0 -10 2t-5 6q-6 11 -28 51t-52 94t-63.5 115.5t-63.5 115.5t-52 93.5t-28 50.5q-4 6 -4 0v-520q0 -8 -8 -8h-27q-7 0 -7 8v596q0 13 11 13h23zM235 646 q-7 -4 -13 2l-6 8q-5 8 1 12l109 93q8 7 15 -1l19 -23q9 -9 -2 -15z" />
<glyph unicode="&#x144;" horiz-adv-x="427" d="M378 7q0 -7 -6 -7h-29q-7 0 -7 6v271q0 25 -6.5 48.5t-20.5 40.5t-37.5 27.5t-56.5 10.5q-27 0 -49 -10t-37.5 -27t-24.5 -39.5t-9 -48.5v-272q0 -7 -7 -7h-28q-7 0 -7 6v422q0 7 7 7h27q6 0 6 -7v-37q0 -6 2.5 -7t7.5 4q22 25 54.5 38.5t67.5 13.5q42 0 71 -13.5 t47.5 -36.5t26.5 -52.5t8 -61.5v-269zM202 494q-6 -7 -13 -3l-9 6q-2 2 -3.5 4.5t1.5 8.5l68 124q3 5 7 7t11 -2l21 -13q7 -4 7 -9q0 -2 -1 -3.5t-2 -3.5z" />
<glyph unicode="&#x145;" horiz-adv-x="497" d="M92 617q7 0 9.5 -2.5t5.5 -6.5l287 -522q4 -6 4 0v523q0 8 7 8h28q7 0 7 -7v-598q0 -7 -3.5 -9.5t-8.5 -2.5h-22q-7 0 -10 2t-5 6q-6 11 -28 51t-52 94t-63.5 115.5t-63.5 115.5t-52 93.5t-28 50.5q-4 6 -4 0v-520q0 -8 -8 -8h-27q-7 0 -7 8v596q0 13 11 13h23zM230 -176 q-2 -9 -9 -9h-13q-9 0 -7 11l8 139q0 9 9 9h38q12 0 8 -12z" />
<glyph unicode="&#x146;" horiz-adv-x="427" d="M378 7q0 -7 -6 -7h-29q-7 0 -7 6v271q0 25 -6.5 48.5t-20.5 40.5t-37.5 27.5t-56.5 10.5q-27 0 -49 -10t-37.5 -27t-24.5 -39.5t-9 -48.5v-272q0 -7 -7 -7h-28q-7 0 -7 6v422q0 7 7 7h27q6 0 6 -7v-37q0 -6 2.5 -7t7.5 4q22 25 54.5 38.5t67.5 13.5q42 0 71 -13.5 t47.5 -36.5t26.5 -52.5t8 -61.5v-269zM206 -196q-2 -9 -9 -9h-13q-9 0 -7 11l8 139q0 9 9 9h38q12 0 8 -12z" />
<glyph unicode="&#x147;" horiz-adv-x="497" d="M92 617q7 0 9.5 -2.5t5.5 -6.5l287 -522q4 -6 4 0v523q0 8 7 8h28q7 0 7 -7v-598q0 -7 -3.5 -9.5t-8.5 -2.5h-22q-7 0 -10 2t-5 6q-6 11 -28 51t-52 94t-63.5 115.5t-63.5 115.5t-52 93.5t-28 50.5q-4 6 -4 0v-520q0 -8 -8 -8h-27q-7 0 -7 8v596q0 13 11 13h23zM123 745 q-3 3 -3 6q0 2 3 5q3 2 6.5 5t7.5 3t7 -3l92 -74q6 -5 13 0q24 19 48.5 37t47.5 37q3 3 7 3q5 0 8 -3t6 -5q4 -4 4 -5.5t-4 -5.5q-46 -48 -94 -94q-6 -7 -15 -7h-25q-9 0 -16 7z" />
<glyph unicode="&#x148;" horiz-adv-x="427" d="M378 7q0 -7 -6 -7h-29q-7 0 -7 6v271q0 25 -6.5 48.5t-20.5 40.5t-37.5 27.5t-56.5 10.5q-27 0 -49 -10t-37.5 -27t-24.5 -39.5t-9 -48.5v-272q0 -7 -7 -7h-28q-7 0 -7 6v422q0 7 7 7h27q6 0 6 -7v-37q0 -6 2.5 -7t7.5 4q22 25 54.5 38.5t67.5 13.5q42 0 71 -13.5 t47.5 -36.5t26.5 -52.5t8 -61.5v-269zM193 491q-8 0 -16 8l-94 117q-3 5 -3 6t4 5l9 8q2 2 4 3t6 -3l96 -99q2 -2 5 -2q2 0 5 3q32 32 54.5 53.5t42.5 41.5q3 3 5 4.5t7 -2.5l10 -8q4 -4 3 -6t-4 -6l-94 -115q-7 -8 -15 -8h-25z" />
<glyph unicode="&#x149;" horiz-adv-x="461" d="M36 463q-2 -9 -9 -9h-13q-9 0 -7 11l8 139q0 9 9 9h38q12 0 9 -12zM412 7q0 -7 -6 -7h-29q-7 0 -7 6v271q0 25 -6.5 48.5t-20.5 40.5t-37.5 27.5t-56.5 10.5q-27 0 -49 -10t-37.5 -27t-24.5 -39.5t-9 -48.5v-272q0 -7 -7 -7h-28q-7 0 -7 6v422q0 7 7 7h27q6 0 6 -7v-37 q0 -6 2.5 -7t7.5 4q22 25 54.5 38.5t67.5 13.5q42 0 71 -13.5t47.5 -36.5t26.5 -52.5t8 -61.5v-269z" />
<glyph unicode="&#x14a;" horiz-adv-x="487" d="M433 -96q0 -36 -23 -58t-63 -22q-26 0 -52 10q-3 2 -5.5 3t-0.5 7l6 18q2 6 4.5 7t7.5 -1q11 -3 21 -5t19 -2q21 0 33 11.5t12 37.5v76q0 12 -6 23l-16 29l-267 487q0 2 -2 2h-1v-2v-518q0 -7 -8 -7h-28q-7 0 -7 7v603q0 7 7 7h27q7 0 10 -2.5t5 -6.5l281 -518 q1 -2 2.5 -1.5t1.5 4.5v516q0 8 7 8h27q8 0 8 -8v-705v0z" />
<glyph unicode="&#x14b;" horiz-adv-x="427" d="M377 -67q0 -17 -3 -33t-12.5 -29t-26 -20.5t-43.5 -7.5q-11 0 -25 2t-27 8q-8 4 -6 10l5 15q3 10 12 8q13 -5 22 -6t16 -1q17 0 26.5 5.5t14 15.5t5.5 24t1 30v323q0 25 -6 48.5t-20.5 40.5t-37.5 27.5t-57 10.5q-27 0 -49 -10t-37.5 -27t-24.5 -39.5t-9 -48.5v-272 q0 -7 -7 -7h-28q-7 0 -7 6v422q0 7 7 7h27q6 0 6 -7v-37q0 -6 2.5 -7t7.5 4q24 26 55.5 39t66.5 13q43 0 72.5 -13.5t47.5 -36.5t25.5 -52.5t7.5 -61.5z" />
<glyph unicode="&#x14c;" horiz-adv-x="476" d="M418 160q0 -37 -12 -67.5t-35.5 -52.5t-57 -34.5t-75.5 -12.5q-44 0 -78 13t-56.5 36.5t-34 55t-11.5 67.5v293q0 36 13 66t36 52.5t56 35t74 12.5t74.5 -12t57 -34t36.5 -52.5t13 -67.5v-298zM375 456q0 26 -8.5 49.5t-25.5 41t-42.5 28t-60.5 10.5q-33 0 -59 -10.5 t-43 -28t-26 -41t-9 -49.5v-289q0 -27 8 -51.5t24.5 -43t42.5 -30t62 -11.5q66 0 101.5 36t35.5 95v294zM325 688q0 -6 -6 -6h-182q-6 0 -6 6v21q0 7 6 7h181q7 0 7 -7v-21z" />
<glyph unicode="&#x14d;" horiz-adv-x="421" d="M373 156q0 -77 -42.5 -119t-118.5 -42q-79 0 -121 43t-42 116v128q0 71 43.5 114.5t119.5 43.5q75 0 118 -42.5t43 -116.5v-125zM332 280q0 54 -30 89t-90 35q-54 0 -88 -34.5t-34 -88.5v-126q0 -57 31 -91t91 -34t90 34t30 92v124zM314 523q0 -7 -6 -7h-182q-6 0 -6 7 v20q0 7 6 7h181q7 0 7 -7v-20z" />
<glyph unicode="&#x14e;" horiz-adv-x="476" d="M418 160q0 -37 -12 -67.5t-35.5 -52.5t-57 -34.5t-75.5 -12.5q-44 0 -78 13t-56.5 36.5t-34 55t-11.5 67.5v293q0 36 13 66t36 52.5t56 35t74 12.5t74.5 -12t57 -34t36.5 -52.5t13 -67.5v-298zM375 456q0 26 -8.5 49.5t-25.5 41t-42.5 28t-60.5 10.5q-33 0 -59 -10.5 t-43 -28t-26 -41t-9 -49.5v-289q0 -27 8 -51.5t24.5 -43t42.5 -30t62 -11.5q66 0 101.5 36t35.5 95v294zM120 754q0 7 6 7h13q5 0 6 -3t3 -8q6 -33 29.5 -51t52.5 -18q28 0 52.5 18.5t30.5 50.5q2 5 3 8t6 3h12q7 0 7 -7q0 -24 -9.5 -44.5t-25.5 -34.5t-36 -22t-41 -8 t-40.5 8t-34.5 22t-24.5 34.5t-9.5 44.5z" />
<glyph unicode="&#x14f;" horiz-adv-x="421" d="M373 156q0 -77 -42.5 -119t-118.5 -42q-79 0 -121 43t-42 116v128q0 71 43.5 114.5t119.5 43.5q75 0 118 -42.5t43 -116.5v-125zM332 280q0 54 -30 89t-90 35q-54 0 -88 -34.5t-34 -88.5v-126q0 -57 31 -91t91 -34t90 34t30 92v124zM99 614q0 6 6 6h12q5 0 6.5 -2.5 t3.5 -7.5q6 -33 29.5 -51t52.5 -18q28 0 52.5 18t30.5 51l3 7.5t6 2.5h12q7 0 7 -6q0 -25 -10 -45t-25.5 -34.5t-35.5 -22t-41 -7.5t-40.5 8t-34.5 22t-24.5 34.5t-9.5 44.5z" />
<glyph unicode="&#x150;" horiz-adv-x="476" d="M418 160q0 -37 -12 -67.5t-35.5 -52.5t-57 -34.5t-75.5 -12.5q-44 0 -78 13t-56.5 36.5t-34 55t-11.5 67.5v293q0 36 13 66t36 52.5t56 35t74 12.5t74.5 -12t57 -34t36.5 -52.5t13 -67.5v-298zM375 456q0 26 -8.5 49.5t-25.5 41t-42.5 28t-60.5 10.5q-33 0 -59 -10.5 t-43 -28t-26 -41t-9 -49.5v-289q0 -27 8 -51.5t24.5 -43t42.5 -30t62 -11.5q66 0 101.5 36t35.5 95v294zM151 641q-2 -2 -5.5 -3t-7.5 4l-9 9q-5 5 -2.5 8t4.5 5l105 94q10 7 19 -1l17 -20q7 -7 5 -10.5t-7 -6.5zM280 641q-2 -2 -5.5 -3t-7.5 4l-9 9q-5 5 -2.5 8t4.5 5 l105 94q10 7 19 -1l17 -20q7 -7 5 -10.5t-7 -6.5z" />
<glyph unicode="&#x151;" horiz-adv-x="421" d="M373 156q0 -77 -42.5 -119t-118.5 -42q-79 0 -121 43t-42 116v128q0 71 43.5 114.5t119.5 43.5q75 0 118 -42.5t43 -116.5v-125zM332 280q0 54 -30 89t-90 35q-54 0 -88 -34.5t-34 -88.5v-126q0 -57 31 -91t91 -34t90 34t30 92v124zM174 494q-2 -3 -5 -5t-8 1l-11 6 q-6 4 -5.5 7t2.5 6l68 124q6 10 18 4l22 -12q9 -5 9 -8.5t-3 -8.5zM271 494q-2 -3 -5 -5t-8 1l-11 6q-6 4 -5.5 7t2.5 6l68 124q6 10 18 4l22 -12q9 -5 9 -8.5t-3 -8.5z" />
<glyph unicode="&#x152;" horiz-adv-x="631" d="M601 8q0 -8 -7 -8h-308q-12 -3 -26.5 -5t-28.5 -2q-39 0 -71 11t-55 31t-35.5 49.5t-12.5 65.5v318q0 36 13 64.5t36 49t54.5 31.5t69.5 11q15 0 29 -2t28 -5h306q7 0 7 -8v-23q0 -7 -7 -7h-265q-3 0 -5 -0.5t-2 -5.5v-231q0 -3 0.5 -4.5t5.5 -1.5h220q7 0 7 -8v-23 q0 -7 -7 -7h-219q-7 0 -7 -7v-247q0 -6 7 -6h266q7 0 7 -7v-23zM230 31q26 0 48 7v541q-11 4 -23.5 5.5t-24.5 1.5q-57 0 -93.5 -33.5t-36.5 -86.5v-314q0 -27 9.5 -49t27 -38t41 -25t52.5 -9z" />
<glyph unicode="&#x153;" horiz-adv-x="698" d="M346 369q4 -5 7 -5q2 0 7 5q20 35 55 53t77 18q34 0 64 -10.5t52 -31.5t34.5 -52t12.5 -72v-43q0 -9 -4.5 -13.5t-9.5 -4.5h-256q-13 0 -13 -11v-52q0 -26 9 -47.5t25 -38t38.5 -25.5t50.5 -9q32 0 56 12.5t44 34.5q3 4 6.5 7t8.5 0l17 -12q9 -6 4 -13q-23 -32 -58.5 -48 t-78.5 -16q-47 0 -81 17t-54 49q-4 5 -7 5t-8 -5q-18 -34 -53 -50t-81 -16q-78 0 -120 42.5t-42 115.5v128q0 36 11.5 65.5t32.5 50t51 32t67 11.5q48 0 82.5 -19t53.5 -52zM613 282q0 54 -33 88t-88 34q-25 0 -46 -8.5t-36.5 -24t-25 -36.5t-10.5 -45q-1 -7 -1 -13.5v-14.5 q0 -14 12 -14h219q9 0 9 11v23zM330 280q0 54 -32.5 88.5t-87.5 34.5q-54 0 -87.5 -34.5t-33.5 -87.5v-127q0 -57 33.5 -90.5t87.5 -33.5q56 0 88 33.5t32 91.5v125z" />
<glyph unicode="&#x154;" horiz-adv-x="465" d="M423 451q0 -30 -8 -56t-21.5 -47.5t-31.5 -38t-37 -28.5q-5 -3 -1 -9l121 -261q3 -6 0.5 -8.5t-6.5 -2.5h-26q-8 0 -11 2.5t-5 8.5l-115 248q-2 6 -5.5 9t-11.5 3h-153q-8 0 -8 -8v-256q0 -7 -7 -7h-28q-8 0 -8 7v600q0 9 11 9h180q85 0 128 -45t43 -120zM114 579 q-10 0 -10 -8v-255q0 -8 7 -8h172q8 0 12.5 1.5t6.5 3.5q35 19 56 54.5t21 77.5q0 23 -5.5 46.5t-21 43t-42.5 32t-69 12.5h-127zM196 646q-7 -4 -13 2l-6 8q-5 8 1 12l109 93q8 7 15 -1l19 -23q9 -9 -2 -15z" />
<glyph unicode="&#x155;" horiz-adv-x="254" d="M89 435q6 0 6 -7v-48q0 -13 8 -2q18 26 47 45t64 19q7 0 15 -0.5t14 -2.5q8 -3 7 -10l-7 -29q-1 -8 -11 -6q-5 1 -12 1.5t-13 0.5q-53 0 -81 -36t-28 -91v-262q0 -7 -6 -7h-28q-8 0 -8 6v422q0 7 7 7h26zM134 494q-6 -7 -13 -3l-9 6q-2 2 -3.5 4.5t1.5 8.5l68 124 q3 5 7 7t11 -2l21 -13q7 -4 7 -9q0 -2 -1 -3.5t-2 -3.5z" />
<glyph unicode="&#x156;" horiz-adv-x="465" d="M423 451q0 -30 -8 -56t-21.5 -47.5t-31.5 -38t-37 -28.5q-5 -3 -1 -9l121 -261q3 -6 0.5 -8.5t-6.5 -2.5h-26q-8 0 -11 2.5t-5 8.5l-115 248q-2 6 -5.5 9t-11.5 3h-153q-8 0 -8 -8v-256q0 -7 -7 -7h-28q-8 0 -8 7v600q0 9 11 9h180q85 0 128 -45t43 -120zM114 579 q-10 0 -10 -8v-255q0 -8 7 -8h172q8 0 12.5 1.5t6.5 3.5q35 19 56 54.5t21 77.5q0 23 -5.5 46.5t-21 43t-42.5 32t-69 12.5h-127zM212 -196q-2 -9 -9 -9h-13q-9 0 -7 11l8 139q0 9 9 9h38q12 0 8 -12z" />
<glyph unicode="&#x157;" horiz-adv-x="254" d="M89 435q6 0 6 -7v-48q0 -13 8 -2q18 26 47 45t64 19q7 0 15 -0.5t14 -2.5q8 -3 7 -10l-7 -29q-1 -8 -11 -6q-5 1 -12 1.5t-13 0.5q-53 0 -81 -36t-28 -91v-262q0 -7 -6 -7h-28q-8 0 -8 6v422q0 7 7 7h26zM77 -196q-2 -9 -9 -9h-13q-9 0 -7 11l8 139q0 9 9 9h38 q12 0 8 -12z" />
<glyph unicode="&#x158;" horiz-adv-x="465" d="M423 451q0 -30 -8 -56t-21.5 -47.5t-31.5 -38t-37 -28.5q-5 -3 -1 -9l121 -261q3 -6 0.5 -8.5t-6.5 -2.5h-26q-8 0 -11 2.5t-5 8.5l-115 248q-2 6 -5.5 9t-11.5 3h-153q-8 0 -8 -8v-256q0 -7 -7 -7h-28q-8 0 -8 7v600q0 9 11 9h180q85 0 128 -45t43 -120zM114 579 q-10 0 -10 -8v-255q0 -8 7 -8h172q8 0 12.5 1.5t6.5 3.5q35 19 56 54.5t21 77.5q0 23 -5.5 46.5t-21 43t-42.5 32t-69 12.5h-127zM84 745q-3 3 -3 6q0 2 3 5q3 2 6.5 5t7.5 3t7 -3l92 -74q6 -5 13 0q24 19 48.5 37t47.5 37q3 3 7 3q5 0 8 -3t6 -5q4 -4 4 -5.5t-4 -5.5 q-46 -48 -94 -94q-6 -7 -15 -7h-25q-9 0 -16 7z" />
<glyph unicode="&#x159;" horiz-adv-x="254" d="M89 435q6 0 6 -7v-48q0 -13 8 -2q18 26 47 45t64 19q7 0 15 -0.5t14 -2.5q8 -3 7 -10l-7 -29q-1 -8 -11 -6q-5 1 -12 1.5t-13 0.5q-53 0 -81 -36t-28 -91v-262q0 -7 -6 -7h-28q-8 0 -8 6v422q0 7 7 7h26zM119 491q-8 0 -16 8l-94 117q-3 5 -3 6t4 5l9 8q2 2 4 3t6 -3 l96 -99q2 -2 5 -2q2 0 5 3q32 32 54.5 53.5t42.5 41.5q3 3 5 4.5t7 -2.5l10 -8q4 -4 3 -6t-4 -6l-94 -115q-7 -8 -15 -8h-25z" />
<glyph unicode="&#x15a;" horiz-adv-x="427" d="M194 31q66 0 110 31.5t44 94.5q0 31 -10 53t-27.5 38t-41.5 28t-51 23q-29 11 -60.5 24.5t-57.5 32t-43.5 45t-17.5 64.5q0 39 14.5 68.5t38 50t54 30.5t63.5 10q40 0 80.5 -10.5t73.5 -35.5q5 -3 4 -6t-3 -7l-12 -18q-3 -5 -7 -4t-7 3q-26 19 -60 29t-65 10 q-23 0 -46.5 -6.5t-42.5 -20.5t-30.5 -37t-11.5 -56q0 -26 13.5 -45t34 -33.5t45.5 -25.5t48 -20q32 -13 62.5 -27.5t54 -35.5t37.5 -49t14 -68q0 -41 -15 -72t-41.5 -52t-62.5 -31.5t-77 -10.5q-48 0 -92.5 16.5t-71.5 45.5q-4 4 -3 6.5t5 6.5l13 13q6 6 14 0 q24 -20 61.5 -36t72.5 -16zM174 646q-7 -4 -13 2l-6 8q-5 8 1 12l109 93q8 7 15 -1l19 -23q9 -9 -2 -15z" />
<glyph unicode="&#x15b;" horiz-adv-x="340" d="M314 109q0 -21 -8.5 -42t-26.5 -37t-45.5 -26t-64.5 -10q-45 0 -85 19.5t-60 60.5q-4 6 3 9l22 11q4 2 6 0l4 -4q15 -27 45.5 -44t65.5 -17q46 0 74.5 21.5t28.5 57.5q0 20 -8.5 34.5t-21.5 25t-29.5 18.5t-32.5 14q-22 8 -47.5 17.5t-47.5 24t-36.5 35t-14.5 50.5 q0 28 12 49t31 35t43.5 21.5t49.5 7.5q40 0 74 -13t57 -37q5 -6 -1 -12l-14 -16q-6 -6 -13 1q-20 19 -47.5 30t-55.5 11q-14 0 -30.5 -4t-31 -13t-24 -23t-9.5 -34t10 -34t26 -24t34 -17.5t35 -13.5q25 -9 48.5 -19.5t42.5 -25.5t30.5 -36t11.5 -51zM160 494q-6 -7 -13 -3 l-9 6q-2 2 -3.5 4.5t1.5 8.5l68 124q3 5 7 7t11 -2l21 -13q7 -4 7 -9q0 -2 -1 -3.5t-2 -3.5z" />
<glyph unicode="&#x15c;" horiz-adv-x="427" d="M194 31q66 0 110 31.5t44 94.5q0 31 -10 53t-27.5 38t-41.5 28t-51 23q-29 11 -60.5 24.5t-57.5 32t-43.5 45t-17.5 64.5q0 39 14.5 68.5t38 50t54 30.5t63.5 10q40 0 80.5 -10.5t73.5 -35.5q5 -3 4 -6t-3 -7l-12 -18q-3 -5 -7 -4t-7 3q-26 19 -60 29t-65 10 q-23 0 -46.5 -6.5t-42.5 -20.5t-30.5 -37t-11.5 -56q0 -26 13.5 -45t34 -33.5t45.5 -25.5t48 -20q32 -13 62.5 -27.5t54 -35.5t37.5 -49t14 -68q0 -41 -15 -72t-41.5 -52t-62.5 -31.5t-77 -10.5q-48 0 -92.5 16.5t-71.5 45.5q-4 4 -3 6.5t5 6.5l13 13q6 6 14 0 q24 -20 61.5 -36t72.5 -16zM183 757q5 5 8 6t8 1h25q9 0 15 -7q48 -46 94 -94q4 -4 4 -5.5t-4 -5.5q-3 -2 -6 -5t-8 -3q-4 0 -7 3q-23 19 -47.5 37t-48.5 37q-7 5 -13 0l-92 -74q-3 -3 -7 -3t-7.5 3t-6.5 5q-3 3 -3 5q0 3 3 6z" />
<glyph unicode="&#x15d;" horiz-adv-x="340" d="M314 109q0 -21 -8.5 -42t-26.5 -37t-45.5 -26t-64.5 -10q-45 0 -85 19.5t-60 60.5q-4 6 3 9l22 11q4 2 6 0l4 -4q15 -27 45.5 -44t65.5 -17q46 0 74.5 21.5t28.5 57.5q0 20 -8.5 34.5t-21.5 25t-29.5 18.5t-32.5 14q-22 8 -47.5 17.5t-47.5 24t-36.5 35t-14.5 50.5 q0 28 12 49t31 35t43.5 21.5t49.5 7.5q40 0 74 -13t57 -37q5 -6 -1 -12l-14 -16q-6 -6 -13 1q-20 19 -47.5 30t-55.5 11q-14 0 -30.5 -4t-31 -13t-24 -23t-9.5 -34t10 -34t26 -24t34 -17.5t35 -13.5q25 -9 48.5 -19.5t42.5 -25.5t30.5 -36t11.5 -51zM300 517q6 -8 0 -13 l-8 -7q-4 -4 -7 -2.5t-6 3.5l-97 96q-5 5 -10 0l-94 -96q-6 -8 -13 -2l-8 7q-6 6 -1 12l94 117q8 8 16 8h25q8 0 15 -8z" />
<glyph unicode="&#x15e;" horiz-adv-x="427" d="M314 -125q0 -29 -23.5 -49t-63.5 -20q-20 0 -40 5.5t-32 14.5q-4 4 0 9l8 11q3 5 8 2q12 -8 26 -12.5t28 -4.5q29 0 43.5 11.5t14.5 31.5q0 13 -9 28t-41 15h-33q-18 0 -18 14q0 4 1 6l16 58h-4q-48 0 -92.5 16.5t-71.5 45.5q-4 4 -3 6.5t5 6.5l13 13q6 6 14 0 q24 -20 61.5 -36t72.5 -16q66 0 110 31.5t44 94.5q0 31 -10 53t-27.5 38t-41.5 28t-51 23q-29 11 -60.5 24.5t-57.5 32t-43.5 45t-17.5 64.5q0 39 14.5 68.5t38 50t54 30.5t63.5 10q40 0 80.5 -10.5t73.5 -35.5q5 -3 4 -6t-3 -7l-12 -18q-3 -5 -7 -4t-7 3q-26 19 -60 29 t-65 10q-23 0 -46.5 -6.5t-42.5 -20.5t-30.5 -37t-11.5 -56q0 -26 13.5 -45t34 -33.5t45.5 -25.5t48 -20q32 -13 62.5 -27.5t54 -35.5t37.5 -49t14 -68q0 -37 -12.5 -66t-34.5 -49.5t-52 -33t-65 -15.5q-3 -11 -7 -26.5t-4 -17.5t-0.5 -2.5t-0.5 -1.5q0 -6 7 -6h13 q35 0 57 -18t22 -50z" />
<glyph unicode="&#x15f;" horiz-adv-x="340" d="M274 -125q0 -29 -23.5 -49t-63.5 -20q-20 0 -40 5.5t-32 14.5q-4 4 0 9l8 11q3 5 8 2q12 -8 26 -12.5t28 -4.5q29 0 43.5 11.5t14.5 31.5q0 13 -9 28t-41 15h-33q-18 0 -18 14q0 4 1 6l15 57q-42 2 -79 22t-55 58q-4 6 3 9l22 11q4 2 6 0l4 -4q15 -27 45.5 -44t65.5 -17 q46 0 74.5 21.5t28.5 57.5q0 20 -8.5 34.5t-21.5 25t-29.5 18.5t-32.5 14q-22 8 -47.5 17.5t-47.5 24t-36.5 35t-14.5 50.5q0 28 12 49t31 35t43.5 21.5t49.5 7.5q40 0 74 -13t57 -37q5 -6 -1 -12l-14 -16q-6 -6 -13 1q-20 19 -47.5 30t-55.5 11q-14 0 -30.5 -4t-31 -13 t-24 -23t-9.5 -34t10 -34t26 -24t34 -17.5t35 -13.5q25 -9 48.5 -19.5t42.5 -25.5t30.5 -36t11.5 -51q0 -41 -31 -75t-97 -39q-3 -11 -6.5 -25.5t-3.5 -16.5t-0.5 -2.5t-0.5 -1.5q0 -6 7 -6h13q35 0 57 -18t22 -50z" />
<glyph unicode="&#x160;" horiz-adv-x="427" d="M194 31q66 0 110 31.5t44 94.5q0 31 -10 53t-27.5 38t-41.5 28t-51 23q-29 11 -60.5 24.5t-57.5 32t-43.5 45t-17.5 64.5q0 39 14.5 68.5t38 50t54 30.5t63.5 10q40 0 80.5 -10.5t73.5 -35.5q5 -3 4 -6t-3 -7l-12 -18q-3 -5 -7 -4t-7 3q-26 19 -60 29t-65 10 q-23 0 -46.5 -6.5t-42.5 -20.5t-30.5 -37t-11.5 -56q0 -26 13.5 -45t34 -33.5t45.5 -25.5t48 -20q32 -13 62.5 -27.5t54 -35.5t37.5 -49t14 -68q0 -41 -15 -72t-41.5 -52t-62.5 -31.5t-77 -10.5q-48 0 -92.5 16.5t-71.5 45.5q-4 4 -3 6.5t5 6.5l13 13q6 6 14 0 q24 -20 61.5 -36t72.5 -16zM85 745q-3 3 -3 6q0 2 3 5q3 2 6.5 5t7.5 3t7 -3l92 -74q6 -5 13 0q24 19 48.5 37t47.5 37q3 3 7 3q5 0 8 -3t6 -5q4 -4 4 -5.5t-4 -5.5q-46 -48 -94 -94q-6 -7 -15 -7h-25q-9 0 -16 7z" />
<glyph unicode="&#x161;" horiz-adv-x="340" d="M314 109q0 -21 -8.5 -42t-26.5 -37t-45.5 -26t-64.5 -10q-45 0 -85 19.5t-60 60.5q-4 6 3 9l22 11q4 2 6 0l4 -4q15 -27 45.5 -44t65.5 -17q46 0 74.5 21.5t28.5 57.5q0 20 -8.5 34.5t-21.5 25t-29.5 18.5t-32.5 14q-22 8 -47.5 17.5t-47.5 24t-36.5 35t-14.5 50.5 q0 28 12 49t31 35t43.5 21.5t49.5 7.5q40 0 74 -13t57 -37q5 -6 -1 -12l-14 -16q-6 -6 -13 1q-20 19 -47.5 30t-55.5 11q-14 0 -30.5 -4t-31 -13t-24 -23t-9.5 -34t10 -34t26 -24t34 -17.5t35 -13.5q25 -9 48.5 -19.5t42.5 -25.5t30.5 -36t11.5 -51zM158 491q-8 0 -16 8 l-94 117q-3 5 -3 6t4 5l9 8q2 2 4 3t6 -3l96 -99q2 -2 5 -2q2 0 5 3q32 32 54.5 53.5t42.5 41.5q3 3 5 4.5t7 -2.5l10 -8q4 -4 3 -6t-4 -6l-94 -115q-7 -8 -15 -8h-25z" />
<glyph unicode="&#x162;" horiz-adv-x="400" d="M388 586q0 -7 -7 -7h-153q-4 0 -6 -0.5t-2 -5.5v-566q0 -7 -7 -7h-27q-9 0 -9 7v566q0 6 -7 6h-151q-7 0 -7 7v23q0 8 7 8h362q7 0 7 -7v-24zM190 -196q-2 -9 -9 -9h-13q-9 0 -7 11l8 139q0 9 9 9h38q12 0 8 -12z" />
<glyph unicode="&#x163;" horiz-adv-x="278" d="M190 -5q-31 0 -51 9t-31.5 25t-16 38t-4.5 47v276q0 9 -8 9h-55q-6 0 -6 7v22q0 7 6 7h56q7 0 7 8v102q0 7 7 8l27 7q8 1 8 -7v-110q0 -8 6 -8h111q7 0 7 -7v-22q0 -7 -7 -7h-110q-7 0 -7 -9v-269q0 -47 15.5 -68.5t51.5 -21.5q14 0 33 3t30 6q6 2 8 -0.5t3 -5.5l4 -20 q1 -7 -5 -9q-15 -6 -39 -8t-40 -2zM127 -196q-2 -9 -9 -9h-13q-9 0 -7 11l8 139q0 9 9 9h38q12 0 8 -12z" />
<glyph unicode="&#x164;" horiz-adv-x="400" d="M388 586q0 -7 -7 -7h-153q-4 0 -6 -0.5t-2 -5.5v-566q0 -7 -7 -7h-27q-9 0 -9 7v566q0 6 -7 6h-151q-7 0 -7 7v23q0 8 7 8h362q7 0 7 -7v-24zM78 745q-3 3 -3 6q0 2 3 5q3 2 6.5 5t7.5 3t7 -3l92 -74q6 -5 13 0q24 19 48.5 37t47.5 37q3 3 7 3q5 0 8 -3t6 -5q4 -4 4 -5.5 t-4 -5.5q-46 -48 -94 -94q-6 -7 -15 -7h-25q-9 0 -16 7z" />
<glyph unicode="&#x165;" horiz-adv-x="315" d="M273 506q-2 -9 -9 -9h-13q-9 0 -7 11l8 139q0 9 9 9h38q12 0 8 -12zM196 -5q-31 0 -51 9t-31.5 25t-16 38t-4.5 47v276q0 9 -8 9h-55q-6 0 -6 7v22q0 7 6 7h56q7 0 7 8v102q0 7 7 8l27 7q8 1 8 -7v-110q0 -8 6 -8h111q7 0 7 -7v-22q0 -7 -7 -7h-110q-7 0 -7 -9v-269 q0 -47 15.5 -68.5t51.5 -21.5q14 0 33 3t30 6q6 2 8 -0.5t3 -5.5l4 -20q1 -7 -5 -9q-15 -6 -39 -8t-40 -2z" />
<glyph unicode="&#x166;" horiz-adv-x="400" d="M168 378q9 0 9 10v185q0 6 -7 6h-148q-7 0 -7 7v23q0 8 7 8h357q8 0 8 -7v-24q0 -7 -8 -7h-152q-3 0 -5 -0.5t-2 -5.5v-185q0 -10 8 -10h115q8 0 8 -8v-14q0 -7 -7 -7h-117q-7 0 -7 -10v-332q0 -7 -7 -7h-28q-8 0 -8 7v332q0 10 -9 10h-114q-7 0 -7 7v14q0 8 8 8h113z " />
<glyph unicode="&#x167;" horiz-adv-x="281" d="M94 286q0 8 -10 8h-56q-7 0 -7 7v15q0 8 6 8h57q10 0 10 10v56q0 9 -9 9h-57q-7 0 -7 7v22q0 7 6 7h59q8 0 8 8v105q0 6 7 7l27 5q7 0 7 -7v-110q0 -8 6 -8h112q6 0 6 -7v-22q0 -7 -6 -7h-110q-8 0 -8 -9v-57q0 -9 8 -9h110q6 0 6 -7v-16q0 -7 -6 -7h-110q-8 0 -8 -8 v-167q0 -47 16 -67.5t52 -20.5q14 0 33 3t30 6q5 2 7.5 -0.5t3.5 -5.5l4 -20q1 -7 -6 -9q-14 -6 -37.5 -8t-40.5 -2q-31 0 -51 9t-31.5 24.5t-16 37t-4.5 46.5v174v0z" />
<glyph unicode="&#x168;" horiz-adv-x="479" d="M420 159q0 -38 -13.5 -68.5t-37.5 -52t-57 -33.5t-72 -12q-42 0 -76 12.5t-57 34.5t-35.5 52.5t-12.5 66.5v451q0 7 8 7h28q7 0 7 -7v-449q0 -27 9 -50.5t26.5 -41.5t43.5 -28t60 -10q33 0 58.5 10t42.5 27.5t26 41t9 50.5v450q0 7 8 7h28q7 0 7 -7v-451zM372 721 q-14 -26 -35 -36t-39 -10q-16 0 -30.5 5t-28 10.5t-27 10.5t-26.5 5q-11 0 -22 -7.5t-17 -18.5q-5 -8 -12 -4l-14 7q-4 2 -3.5 5t2.5 6q25 45 70 45q14 0 28 -5t27 -10.5t26 -10.5t25 -5q28 0 47 29q2 3 3.5 4t5.5 -1l17 -8q6 -2 3 -11z" />
<glyph unicode="&#x169;" horiz-adv-x="426" d="M376 7q0 -7 -8 -7h-27q-6 0 -6 6v37q0 16 -10 4q-21 -26 -54 -39t-68 -13q-44 0 -73 13.5t-46.5 36.5t-25 52.5t-7.5 61.5v269q0 7 6 7h29q6 0 6 -7v-271q0 -25 6 -47.5t20.5 -40t37.5 -27.5t57 -10q27 0 49 9.5t38 26.5t24.5 39.5t8.5 48.5v272q0 7 7 7h28q8 0 8 -7 v-421zM345 571q-14 -26 -35 -36t-39 -10q-16 0 -30.5 5t-28 10.5t-27 10.5t-26.5 5q-11 0 -22 -7.5t-17 -18.5q-5 -8 -12 -4l-14 7q-4 2 -3.5 5t2.5 6q25 45 70 45q14 0 28 -5t27 -10.5t26 -10.5t25 -5q28 0 47 29q2 3 3.5 4t5.5 -1l17 -8q6 -2 3 -11z" />
<glyph unicode="&#x16a;" horiz-adv-x="479" d="M420 159q0 -38 -13.5 -68.5t-37.5 -52t-57 -33.5t-72 -12q-42 0 -76 12.5t-57 34.5t-35.5 52.5t-12.5 66.5v451q0 7 8 7h28q7 0 7 -7v-449q0 -27 9 -50.5t26.5 -41.5t43.5 -28t60 -10q33 0 58.5 10t42.5 27.5t26 41t9 50.5v450q0 7 8 7h28q7 0 7 -7v-451zM337 688 q0 -6 -6 -6h-182q-6 0 -6 6v21q0 7 6 7h181q7 0 7 -7v-21z" />
<glyph unicode="&#x16b;" horiz-adv-x="426" d="M376 7q0 -7 -8 -7h-27q-6 0 -6 6v37q0 16 -10 4q-21 -26 -54 -39t-68 -13q-44 0 -73 13.5t-46.5 36.5t-25 52.5t-7.5 61.5v269q0 7 6 7h29q6 0 6 -7v-271q0 -25 6 -47.5t20.5 -40t37.5 -27.5t57 -10q27 0 49 9.5t38 26.5t24.5 39.5t8.5 48.5v272q0 7 7 7h28q8 0 8 -7 v-421zM315 538q0 -7 -6 -7h-182q-6 0 -6 7v20q0 7 6 7h181q7 0 7 -7v-20z" />
<glyph unicode="&#x16c;" horiz-adv-x="479" d="M420 159q0 -38 -13.5 -68.5t-37.5 -52t-57 -33.5t-72 -12q-42 0 -76 12.5t-57 34.5t-35.5 52.5t-12.5 66.5v451q0 7 8 7h28q7 0 7 -7v-449q0 -27 9 -50.5t26.5 -41.5t43.5 -28t60 -10q33 0 58.5 10t42.5 27.5t26 41t9 50.5v450q0 7 8 7h28q7 0 7 -7v-451zM120 764 q0 6 6 6h12q5 0 6.5 -2.5t3.5 -7.5q6 -33 29.5 -51t52.5 -18q28 0 52.5 18t30.5 51l3 7.5t6 2.5h12q7 0 7 -6q0 -25 -10 -45t-25.5 -34.5t-35.5 -22t-41 -7.5t-40.5 8t-34.5 22t-24.5 34.5t-9.5 44.5z" />
<glyph unicode="&#x16d;" horiz-adv-x="426" d="M376 7q0 -7 -8 -7h-27q-6 0 -6 6v37q0 16 -10 4q-21 -26 -54 -39t-68 -13q-44 0 -73 13.5t-46.5 36.5t-25 52.5t-7.5 61.5v269q0 7 6 7h29q6 0 6 -7v-271q0 -25 6 -47.5t20.5 -40t37.5 -27.5t57 -10q27 0 49 9.5t38 26.5t24.5 39.5t8.5 48.5v272q0 7 7 7h28q8 0 8 -7 v-421zM93 614q0 6 6 6h12q5 0 6.5 -2.5t3.5 -7.5q6 -33 29.5 -51t52.5 -18q28 0 52.5 18t30.5 51l3 7.5t6 2.5h12q7 0 7 -6q0 -25 -10 -45t-25.5 -34.5t-35.5 -22t-41 -7.5t-40.5 8t-34.5 22t-24.5 34.5t-9.5 44.5z" />
<glyph unicode="&#x16e;" horiz-adv-x="479" d="M420 159q0 -38 -13.5 -68.5t-37.5 -52t-57 -33.5t-72 -12q-42 0 -76 12.5t-57 34.5t-35.5 52.5t-12.5 66.5v451q0 7 8 7h28q7 0 7 -7v-449q0 -27 9 -50.5t26.5 -41.5t43.5 -28t60 -10q33 0 58.5 10t42.5 27.5t26 41t9 50.5v450q0 7 8 7h28q7 0 7 -7v-451zM305 725 q0 -29 -20.5 -50t-49.5 -21q-30 0 -49.5 20.5t-19.5 49.5q0 30 19.5 51t49.5 21q29 0 49.5 -20.5t20.5 -50.5zM278 725q0 18 -13 31t-30 13q-18 0 -30 -13t-12 -31q0 -19 12 -32t30 -13q17 0 30 13t13 32z" />
<glyph unicode="&#x16f;" horiz-adv-x="426" d="M376 7q0 -7 -8 -7h-27q-6 0 -6 6v37q0 16 -10 4q-21 -26 -54 -39t-68 -13q-44 0 -73 13.5t-46.5 36.5t-25 52.5t-7.5 61.5v269q0 7 6 7h29q6 0 6 -7v-271q0 -25 6 -47.5t20.5 -40t37.5 -27.5t57 -10q27 0 49 9.5t38 26.5t24.5 39.5t8.5 48.5v272q0 7 7 7h28q8 0 8 -7 v-421zM281 563q0 -29 -20.5 -50t-49.5 -21q-30 0 -49.5 20.5t-19.5 49.5q0 30 19.5 51t49.5 21q29 0 49.5 -20.5t20.5 -50.5zM254 563q0 18 -13 31t-30 13q-18 0 -30 -13t-12 -31q0 -19 12 -32t30 -13q17 0 30 13t13 32z" />
<glyph unicode="&#x170;" horiz-adv-x="479" d="M420 159q0 -38 -13.5 -68.5t-37.5 -52t-57 -33.5t-72 -12q-42 0 -76 12.5t-57 34.5t-35.5 52.5t-12.5 66.5v451q0 7 8 7h28q7 0 7 -7v-449q0 -27 9 -50.5t26.5 -41.5t43.5 -28t60 -10q33 0 58.5 10t42.5 27.5t26 41t9 50.5v450q0 7 8 7h28q7 0 7 -7v-451zM284 641 q-2 -2 -5.5 -3t-7.5 4l-9 9q-5 5 -2.5 8t4.5 5l105 94q10 7 19 -1l17 -20q7 -7 5 -10.5t-7 -6.5zM155 641q-2 -2 -5.5 -3t-7.5 4l-9 9q-5 5 -2.5 8t4.5 5l105 94q10 7 19 -1l17 -20q7 -7 5 -10.5t-7 -6.5z" />
<glyph unicode="&#x171;" horiz-adv-x="426" d="M376 7q0 -7 -8 -7h-27q-6 0 -6 6v37q0 16 -10 4q-21 -26 -54 -39t-68 -13q-44 0 -73 13.5t-46.5 36.5t-25 52.5t-7.5 61.5v269q0 7 6 7h29q6 0 6 -7v-271q0 -25 6 -47.5t20.5 -40t37.5 -27.5t57 -10q27 0 49 9.5t38 26.5t24.5 39.5t8.5 48.5v272q0 7 7 7h28q8 0 8 -7 v-421zM175 494q-2 -3 -5 -5t-8 1l-11 6q-6 4 -5.5 7t2.5 6l68 124q6 10 18 4l22 -12q9 -5 9 -8.5t-3 -8.5zM272 494q-2 -3 -5 -5t-8 1l-11 6q-6 4 -5.5 7t2.5 6l68 124q6 10 18 4l22 -12q9 -5 9 -8.5t-3 -8.5z" />
<glyph unicode="&#x172;" horiz-adv-x="479" d="M420 159q0 -36 -12.5 -66t-35 -51.5t-53.5 -34t-68 -14.5q-24 -26 -38.5 -55t-14.5 -55q0 -17 10 -27t33 -10q15 0 31.5 7t28.5 16q3 3 8 -1l9 -11q3 -3 -2 -8q-15 -14 -38.5 -23.5t-45.5 -9.5q-35 0 -52.5 18t-17.5 51q0 27 15.5 58t36.5 51q-73 8 -114 53t-41 112v451 q0 7 8 7h28q7 0 7 -7v-449q0 -27 9 -50.5t26.5 -41.5t43.5 -28t60 -10q33 0 58.5 10t42.5 27.5t26 41t9 50.5v450q0 7 8 7h28q7 0 7 -7v-451v0z" />
<glyph unicode="&#x173;" horiz-adv-x="426" d="M376 7q0 -7 -8 -7h-11q-25 -26 -40 -56t-15 -57q0 -17 10 -27t33 -10q15 0 31.5 7t28.5 16q3 3 8 -1l9 -11q3 -3 -2 -8q-15 -14 -38.5 -23.5t-45.5 -9.5q-35 0 -52.5 18t-17.5 51q0 29 17.5 61.5t40.5 52.5l11 9v31q0 16 -10 4q-21 -26 -54 -39t-68 -13q-44 0 -73 13.5 t-46.5 36.5t-25 52.5t-7.5 61.5v269q0 7 6 7h29q6 0 6 -7v-271q0 -25 6 -47.5t20.5 -40t37.5 -27.5t57 -10q27 0 49 9.5t38 26.5t24.5 39.5t8.5 48.5v272q0 7 7 7h28q8 0 8 -7v-421v0z" />
<glyph unicode="&#x174;" horiz-adv-x="637" d="M622 617q7 0 7.5 -3t-0.5 -8l-132 -600q-2 -6 -8 -6h-43q-5 0 -7 5q-19 83 -37.5 164.5t-38.5 164.5l-47 206q0 2 -1 2t-2 -2l-45 -208l-72 -327q-3 -5 -9 -5h-42q-5 0 -7 5l-136 603v3q0 6 7 6h30q7 0 9 -9q21 -98 43 -195.5t42 -196.5q9 -39 16.5 -77.5t15.5 -77.5 q1 -2 2.5 -2t2.5 2l30 141q2 8 4 17t5.5 25.5t9 43.5t15 69.5t23 104t32.5 148.5q1 3 2.5 5t7.5 2h32q7 0 9 -9q19 -82 38.5 -165t38.5 -166l49 -216q1 -3 3 -3.5t2 3.5l44 220l34 164l34 164q3 8 10 8h29zM285 757q5 5 8 6t8 1h25q9 0 15 -7q48 -46 94 -94q4 -4 4 -5.5 t-4 -5.5q-3 -2 -6 -5t-8 -3q-4 0 -7 3q-23 19 -47.5 37t-48.5 37q-7 5 -13 0l-92 -74q-3 -3 -7 -3t-7.5 3t-6.5 5q-3 3 -3 5q0 3 3 6z" />
<glyph unicode="&#x175;" horiz-adv-x="564" d="M292 434q5 0 7.5 -1.5t4.5 -8.5l75 -244l35 -121q2 -4 4 -4t2 4l28 121l59 244q2 10 13 10h25q6 0 7 -2t0 -6l-112 -417q-2 -6 -4 -7.5t-7 -1.5h-23q-7 0 -9 1t-4 6l-76 239l-35 117q0 4 -2 4.5t-3 -4.5l-34 -119l-73 -236q-2 -6 -4 -7t-7 -1h-24q-6 0 -8.5 1t-4.5 7 l-112 418q-2 8 5 8h26q6 0 8 -2t4 -7l61 -242l29 -124q2 -4 4 -4t2 4l35 123l72 242q2 6 3.5 8t7.5 2h25zM401 517q6 -8 0 -13l-8 -7q-4 -4 -7 -2.5t-6 3.5l-97 96q-5 5 -10 0l-94 -96q-6 -8 -13 -2l-8 7q-6 6 -1 12l94 117q8 8 16 8h25q8 0 15 -8z" />
<glyph unicode="&#x176;" horiz-adv-x="403" d="M228 252q-4 -8 -4.5 -13.5t-0.5 -10.5v-221q0 -7 -7 -7h-28q-8 0 -8 7v216q0 8 -0.5 13t-3.5 12l-162 359q-5 10 6 10h28q5 0 7.5 -2t4.5 -6l139 -316l3 -3t3 3q3 8 13.5 32t25 56.5t30.5 69.5t30.5 69.5t25 56.5t13.5 32q3 5 5 6.5t8 1.5h28q11 0 5 -11zM174 757 q5 5 8 6t8 1h25q9 0 15 -7q48 -46 94 -94q4 -4 4 -5.5t-4 -5.5q-3 -2 -6 -5t-8 -3q-4 0 -7 3q-23 19 -47.5 37t-48.5 37q-7 5 -13 0l-92 -74q-3 -3 -7 -3t-7.5 3t-6.5 5q-3 3 -3 5q0 3 3 6z" />
<glyph unicode="&#x177;" horiz-adv-x="361" d="M160 -6q2 6 -3 6h-6q-9 0 -12 9l-131 417q-2 9 7 9h25q8 0 12 -8l117 -382q2 -5 4 -5q4 0 5 5l128 381q1 3 3 6t8 3h24q9 0 8 -9l-201 -598q-2 -11 -15 -11h-20q-10 0 -7 12zM299 517q6 -8 0 -13l-8 -7q-4 -4 -7 -2.5t-6 3.5l-97 96q-5 5 -10 0l-94 -96q-6 -8 -13 -2 l-8 7q-6 6 -1 12l94 117q8 8 16 8h25q8 0 15 -8z" />
<glyph unicode="&#x178;" horiz-adv-x="403" d="M228 252q-4 -8 -4.5 -13.5t-0.5 -10.5v-221q0 -7 -7 -7h-28q-8 0 -8 7v216q0 8 -0.5 13t-3.5 12l-162 359q-5 10 6 10h28q5 0 7.5 -2t4.5 -6l139 -316l3 -3t3 3q3 8 13.5 32t25 56.5t30.5 69.5t30.5 69.5t25 56.5t13.5 32q3 5 5 6.5t8 1.5h28q11 0 5 -11zM146 704 q0 -13 -8.5 -21.5t-20.5 -8.5t-20.5 8.5t-8.5 21.5t8.5 21.5t20.5 8.5t20.5 -8.5t8.5 -21.5zM300 704q0 -13 -8.5 -21.5t-20.5 -8.5t-20.5 8.5t-8.5 21.5t8.5 21.5t20.5 8.5t20.5 -8.5t8.5 -21.5z" />
<glyph unicode="&#x179;" horiz-adv-x="393" d="M376 8q0 -8 -7 -8h-341q-10 0 -10 9v16q0 9 4 19l296 528q5 7 -5 7h-272q-9 0 -9 8v22q0 8 8 8h321q11 0 11 -10v-15q0 -6 -2 -11.5t-4 -9.5l-292 -524q-5 -8 4 -8h290q8 0 8 -8v-23zM159 646q-7 -4 -13 2l-6 8q-5 8 1 12l109 93q8 7 15 -1l19 -23q9 -9 -2 -15z" />
<glyph unicode="&#x17a;" horiz-adv-x="338" d="M321 7q0 -7 -7 -7h-281q-9 0 -9 9v14q0 11 4 16l224 351q6 9 -5 9h-207q-8 0 -8 7v21q0 8 7 8h259q10 0 10 -10v-15q0 -12 -3 -16l-224 -349q-5 -9 6 -9h226q8 0 8 -7v-22zM170 494q-6 -7 -13 -3l-9 6q-2 2 -3.5 4.5t1.5 8.5l68 124q3 5 7 7t11 -2l21 -13q7 -4 7 -9 q0 -2 -1 -3.5t-2 -3.5z" />
<glyph unicode="&#x17b;" horiz-adv-x="393" d="M376 8q0 -8 -7 -8h-341q-10 0 -10 9v16q0 9 4 19l296 528q5 7 -5 7h-272q-9 0 -9 8v22q0 8 8 8h321q11 0 11 -10v-15q0 -6 -2 -11.5t-4 -9.5l-292 -524q-5 -8 4 -8h290q8 0 8 -8v-23zM229 715q0 -13 -9 -21.5t-20 -8.5q-12 0 -20.5 8.5t-8.5 20.5q0 13 8.5 21.5t20.5 8.5 t20.5 -8t8.5 -21z" />
<glyph unicode="&#x17c;" horiz-adv-x="338" d="M321 7q0 -7 -7 -7h-281q-9 0 -9 9v14q0 11 4 16l224 351q6 9 -5 9h-207q-8 0 -8 7v21q0 8 7 8h259q10 0 10 -10v-15q0 -12 -3 -16l-224 -349q-5 -9 6 -9h226q8 0 8 -7v-22zM208 564q0 -13 -9 -21.5t-20 -8.5q-12 0 -20.5 8.5t-8.5 20.5q0 13 8.5 21.5t20.5 8.5t20.5 -8 t8.5 -21z" />
<glyph unicode="&#x17d;" horiz-adv-x="393" d="M376 8q0 -8 -7 -8h-341q-10 0 -10 9v16q0 9 4 19l296 528q5 7 -5 7h-272q-9 0 -9 8v22q0 8 8 8h321q11 0 11 -10v-15q0 -6 -2 -11.5t-4 -9.5l-292 -524q-5 -8 4 -8h290q8 0 8 -8v-23zM77 745q-3 3 -3 6q0 2 3 5q3 2 6.5 5t7.5 3t7 -3l92 -74q6 -5 13 0q24 19 48.5 37 t47.5 37q3 3 7 3q5 0 8 -3t6 -5q4 -4 4 -5.5t-4 -5.5q-46 -48 -94 -94q-6 -7 -15 -7h-25q-9 0 -16 7z" />
<glyph unicode="&#x17e;" horiz-adv-x="338" d="M321 7q0 -7 -7 -7h-281q-9 0 -9 9v14q0 11 4 16l224 351q6 9 -5 9h-207q-8 0 -8 7v21q0 8 7 8h259q10 0 10 -10v-15q0 -12 -3 -16l-224 -349q-5 -9 6 -9h226q8 0 8 -7v-22zM158 491q-8 0 -16 8l-94 117q-3 5 -3 6t4 5l9 8q2 2 4 3t6 -3l96 -99q2 -2 5 -2q2 0 5 3 q32 32 54.5 53.5t42.5 41.5q3 3 5 4.5t7 -2.5l10 -8q4 -4 3 -6t-4 -6l-94 -115q-7 -8 -15 -8h-25z" />
<glyph unicode="&#x192;" horiz-adv-x="445" d="M166 53q11 66 21.5 131.5t21.5 131.5q0 2 0.5 3t0.5 2q0 4 -5 4h-80q-9 0 -9 7v21q2 8 9 8h83q9 0 9 8l16 102q24 152 137 152q15 0 32.5 -2t32.5 -7q11 -3 7 -10l-9 -25q-3 -7 -11 -4q-10 5 -23 7t-25 2q-25 0 -42 -10.5t-29 -27.5t-18.5 -39.5t-10.5 -46.5l-14 -91 q0 -8 6 -8h90q9 0 9 -8v-21q0 -7 -8 -7h-97q-7 0 -9 -9l-39 -258q-11 -75 -42 -118t-90 -43q-19 0 -34 3t-27 8q-10 3 -7 10l9 25q3 8 12 4q8 -3 19.5 -5.5t22.5 -2.5q45 0 64 30t27 84z" />
<glyph unicode="&#x1fc;" horiz-adv-x="654" d="M626 7q0 -7 -6 -7h-310q-7 0 -7 7v141q0 5 -1 8.5t-9 3.5h-175q-6 0 -8 -5l-51 -148q-3 -7 -10 -7h-27q-9 0 -4 9l212 600q1 2 4 5t8 3h376q7 0 7 -7v-23q0 -7 -6 -7h-266q-8 0 -8 -6v-232q0 -6 7 -6h220q7 0 7 -8v-23q0 -6 -6 -6h-220q-8 0 -8 -8v-247q0 -7 8 -7h267 q6 0 6 -6v-24zM267 580q-9 0 -12 -7l-128 -369q-3 -7 6 -7h159q11 0 11 11v366q0 6 -8 6h-28zM409 646q-7 -4 -13 2l-6 8q-5 8 1 12l109 93q8 7 15 -1l19 -23q9 -9 -2 -15z" />
<glyph unicode="&#x1fd;" horiz-adv-x="656" d="M458 -5q-47 0 -82 18t-54 51q-8 9 -11 6t-8 -10q-20 -29 -57 -47.5t-74 -18.5q-31 0 -57 10t-45 28.5t-30 45.5t-11 62q0 31 11 58t31 47t47 31t60 11q32 0 61 -13.5t46 -35.5q3 -3 5 -3q4 0 4 7v51q0 45 -29.5 78t-91.5 33q-23 0 -49 -5.5t-46 -16.5q-6 -4 -10 4l-8 20 q-1 3 -1 5.5t5 4.5q25 12 53.5 18t58.5 6q52 0 84.5 -18t53.5 -51l4 -4t7 4q20 32 55 50.5t76 18.5q35 0 65 -10.5t51.5 -31.5t34 -52t12.5 -72v-43q0 -9 -4.5 -13.5t-9.5 -4.5h-256q-13 0 -13 -12v-48q0 -53 33 -88t89 -35q33 0 59 13t42 36q6 9 14 4l18 -12q7 -5 4 -12 q-21 -32 -57 -48t-80 -16zM291 141q0 23 -9 43.5t-24 36t-35.5 24.5t-43.5 9t-43.5 -9t-35.5 -24.5t-24 -36t-9 -43.5q0 -24 8.5 -45t23.5 -36t35 -23.5t44 -8.5t44.5 9t36 25t24 36t8.5 43zM578 282q0 54 -33.5 88t-88.5 34q-28 0 -50 -10.5t-37.5 -28.5t-23.5 -41.5 t-8 -50.5v-13q0 -12 12 -12h219q10 0 10 11v23zM345 494q-6 -7 -13 -3l-9 6q-2 2 -3.5 4.5t1.5 8.5l68 124q3 5 7 7t11 -2l21 -13q7 -4 7 -9q0 -2 -1 -3.5t-2 -3.5z" />
<glyph unicode="&#x1fe;" horiz-adv-x="476" d="M120 28q-6 6 -9 -1l-17 -30q-2 -4 -3.5 -4t-3.5 1l-18 10q-5 3 -2 8l21 37q4 7 0 11q-14 17 -22 43t-8 51v318q1 33 16 61t39 48.5t56 31.5t68 11q41 0 71.5 -12t53.5 -30q4 -3 7 2l21 37q2 4 4.5 4t5.5 -2l16 -8q6 -3 3 -9l-27 -48q-3 -4 1 -9q11 -17 18 -39.5t7 -46.5 v-307q0 -37 -13 -67t-36.5 -51t-57 -32.5t-73.5 -11.5q-37 0 -66.5 8t-51.5 26zM111 107q3 -6 5 -1l227 429q3 6 -2 11q-17 18 -45 27.5t-59 9.5q-28 0 -53 -8.5t-43.5 -24.5t-29 -39t-10.5 -51v-277q0 -17 2 -40t8 -36zM137 77q-3 -6 2 -11q17 -18 42.5 -26t55.5 -8 q61 0 99.5 33.5t38.5 92.5v287q0 14 -2.5 28.5t-6.5 26.5l-2 4l-2 -2zM222 646q-7 -4 -13 2l-6 8q-5 8 1 12l109 93q8 7 15 -1l19 -23q9 -9 -2 -15z" />
<glyph unicode="&#x1ff;" horiz-adv-x="414" d="M82 2q-2 -5 -4.5 -4.5t-4.5 1.5l-19 12q-5 3 -1 9l21 30q5 5 4 7.5t-2 4.5q-25 39 -25 91v128q0 34 12 63t33.5 50t51 32.5t64.5 11.5q60 0 102 -33q1 -1 3.5 -1t5.5 5l19 28q1 2 4 3t6 -1l17 -11q2 -2 3 -3.5t-2 -6.5l-24 -35q-4 -7 0 -13q25 -39 25 -90v-125 q0 -75 -43.5 -117.5t-115.5 -42.5q-64 0 -106 33q-1 1 -3 1.5t-6 -5.5zM329 280q0 28 -11 53q-2 6 -8 -1l-180 -262q-5 -7 2 -12q34 -28 81 -28q30 0 52 10t36 27t21 39.5t7 48.5v125zM93 151q0 -29 10 -50q1 -2 2.5 -4t4.5 3l181 263q2 3 1.5 5.5t-2.5 3.5q-31 28 -78 28 q-56 0 -87.5 -34t-31.5 -85v-130zM221 494q-6 -7 -13 -3l-9 6q-2 2 -3.5 4.5t1.5 8.5l68 124q3 5 7 7t11 -2l21 -13q7 -4 7 -9q0 -2 -1 -3.5t-2 -3.5z" />
<glyph unicode="&#x218;" horiz-adv-x="427" d="M194 31q66 0 110 31.5t44 94.5q0 31 -10 53t-27.5 38t-41.5 28t-51 23q-29 11 -60.5 24.5t-57.5 32t-43.5 45t-17.5 64.5q0 39 14.5 68.5t38 50t54 30.5t63.5 10q40 0 80.5 -10.5t73.5 -35.5q5 -3 4 -6t-3 -7l-12 -18q-3 -5 -7 -4t-7 3q-26 19 -60 29t-65 10 q-23 0 -46.5 -6.5t-42.5 -20.5t-30.5 -37t-11.5 -56q0 -26 13.5 -45t34 -33.5t45.5 -25.5t48 -20q32 -13 62.5 -27.5t54 -35.5t37.5 -49t14 -68q0 -41 -15 -72t-41.5 -52t-62.5 -31.5t-77 -10.5q-48 0 -92.5 16.5t-71.5 45.5q-4 4 -3 6.5t5 6.5l13 13q6 6 14 0 q24 -20 61.5 -36t72.5 -16zM209 -196q-2 -9 -9 -9h-13q-9 0 -7 11l8 139q0 9 9 9h38q12 0 8 -12z" />
<glyph unicode="&#x219;" horiz-adv-x="340" d="M314 109q0 -21 -8.5 -42t-26.5 -37t-45.5 -26t-64.5 -10q-45 0 -85 19.5t-60 60.5q-4 6 3 9l22 11q4 2 6 0l4 -4q15 -27 45.5 -44t65.5 -17q46 0 74.5 21.5t28.5 57.5q0 20 -8.5 34.5t-21.5 25t-29.5 18.5t-32.5 14q-22 8 -47.5 17.5t-47.5 24t-36.5 35t-14.5 50.5 q0 28 12 49t31 35t43.5 21.5t49.5 7.5q40 0 74 -13t57 -37q5 -6 -1 -12l-14 -16q-6 -6 -13 1q-20 19 -47.5 30t-55.5 11q-14 0 -30.5 -4t-31 -13t-24 -23t-9.5 -34t10 -34t26 -24t34 -17.5t35 -13.5q25 -9 48.5 -19.5t42.5 -25.5t30.5 -36t11.5 -51zM171 -196q-2 -9 -9 -9 h-13q-9 0 -7 11l8 139q0 9 9 9h38q12 0 8 -12z" />
<glyph unicode="&#x259;" horiz-adv-x="408" d="M43 205q0 9 4.5 13t9.5 4h256q13 0 13 13v48q0 52 -33 87t-89 35q-33 0 -59 -13t-42 -36q-6 -9 -14 -4l-18 13q-7 5 -4 11q21 32 57 48.5t80 16.5q75 0 119 -42.5t44 -114.5v-126q0 -38 -12.5 -68t-34.5 -51t-51 -32t-63 -11q-35 0 -65 10.5t-51.5 31t-34 51.5t-12.5 73 v43zM84 153q0 -53 33.5 -87t88.5 -34q25 0 47 9t38 25.5t25 38t9 47.5v24q0 11 -12 11h-219q-10 0 -10 -11v-23z" />
<glyph unicode="&#x2b9;" horiz-adv-x="189" d="M147 634q7 -3 13.5 -6.5t13.5 -7.5q8 -4 8.5 -9.5t-2.5 -10.5l-120 -200q-2 -3 -5.5 -5t-8.5 0l-14 7q-5 3 -4.5 7t2.5 9l99 208q2 5 7.5 8.5t10.5 -0.5z" />
<glyph unicode="&#x2c6;" horiz-adv-x="420" d="M337 517q6 -8 0 -13l-8 -7q-4 -4 -7 -2.5t-6 3.5l-97 96q-5 5 -10 0l-94 -96q-6 -8 -13 -2l-8 7q-6 6 -1 12l94 117q8 8 16 8h25q8 0 15 -8l94 -115v0z" />
<glyph unicode="&#x2c7;" horiz-adv-x="382" d="M193 491q-8 0 -16 8l-94 117q-3 5 -3 6t4 5l9 8q2 2 4 3t6 -3l96 -99q2 -2 5 -2q2 0 5 3q32 32 54.5 53.5t42.5 41.5q3 3 5 4.5t7 -2.5l10 -8q4 -4 3 -6t-4 -6l-94 -115q-7 -8 -15 -8h-25z" />
<glyph unicode="&#x2d8;" horiz-adv-x="382" d="M88 614q0 6 6 6h12q5 0 6.5 -2.5t3.5 -7.5q6 -33 29.5 -51t52.5 -18q28 0 52.5 18t30.5 51l3 7.5t6 2.5h12q7 0 7 -6q0 -25 -10 -45t-25.5 -34.5t-35.5 -22t-41 -7.5t-40.5 8t-34.5 22t-24.5 34.5t-9.5 44.5z" />
<glyph unicode="&#x2d9;" horiz-adv-x="382" d="M233 564q0 -13 -9 -21.5t-20 -8.5q-12 0 -20.5 8.5t-8.5 20.5q0 13 8.5 21.5t20.5 8.5t20.5 -8t8.5 -21z" />
<glyph unicode="&#x2da;" horiz-adv-x="382" d="M272 563q0 -29 -20.5 -50t-49.5 -21q-30 0 -49.5 20.5t-19.5 49.5q0 30 19.5 51t49.5 21q29 0 49.5 -20.5t20.5 -50.5zM245 563q0 18 -13 31t-30 13q-18 0 -30 -13t-12 -31q0 -19 12 -32t30 -13q17 0 30 13t13 32z" />
<glyph unicode="&#x2db;" horiz-adv-x="426" d="M239 11q-30 -28 -48.5 -61t-18.5 -63q0 -17 10 -27t33 -10q15 0 31.5 7t28.5 16q3 3 8 -1l9 -11q3 -3 -2 -8q-15 -14 -38.5 -23.5t-45.5 -9.5q-35 0 -52.5 18t-17.5 51q0 29 17.5 61.5t40.5 52.5q5 5 11 9t13 4h17q5 0 5 -3z" />
<glyph unicode="&#x2dc;" horiz-adv-x="384" d="M326 571q-14 -26 -35 -36t-39 -10q-16 0 -30.5 5t-28 10.5t-27 10.5t-26.5 5q-11 0 -22 -7.5t-17 -18.5q-5 -8 -12 -4l-14 7q-4 2 -3.5 5t2.5 6q25 45 70 45q14 0 28 -5t27 -10.5t26 -10.5t25 -5q28 0 47 29q2 3 3.5 4t5.5 -1l17 -8q6 -2 3 -11z" />
<glyph unicode="&#x2dd;" horiz-adv-x="421" d="M174 494q-2 -3 -5 -5t-8 1l-11 6q-6 4 -5.5 7t2.5 6l68 124q6 10 18 4l22 -12q9 -5 9 -8.5t-3 -8.5zM271 494q-2 -3 -5 -5t-8 1l-11 6q-6 4 -5.5 7t2.5 6l68 124q6 10 18 4l22 -12q9 -5 9 -8.5t-3 -8.5z" />
<glyph unicode="&#x384;" horiz-adv-x="402" d="M226 495q-2 -3 -5 -5t-8 1l-11 6q-6 4 -5.5 7t2.5 6l68 124q6 10 18 4l22 -12q9 -5 9 -8.5t-3 -8.5z" />
<glyph unicode="&#x385;" horiz-adv-x="424" d="M341 560q0 -12 -8.5 -21t-20.5 -9t-20.5 9t-8.5 21q0 13 8.5 21.5t20.5 8.5t20.5 -8.5t8.5 -21.5zM172 560q0 -12 -8.5 -21t-20.5 -9t-20.5 9t-8.5 21q0 13 8.5 21.5t20.5 8.5t20.5 -8.5t8.5 -21.5zM199 494q-2 -3 -5 -5t-8 1l-11 6q-6 4 -5.5 7t2.5 6l68 124q6 10 18 4 l22 -12q9 -5 9 -8.5t-3 -8.5z" />
<glyph unicode="&#x386;" horiz-adv-x="445" d="M395 0q-8 0 -10 6l-43 146q-1 4 -6 4h-231q-4 0 -5 -3q-1 -5 -7.5 -27t-13.5 -46.5t-13.5 -46.5t-7.5 -27q-2 -6 -9 -6h-28q-5 0 -7 1.5t0 7.5l175 601q2 7 8 7h47q8 0 9 -7l177 -599q4 -11 -5 -11h-30zM181 437l-68 -237q-2 -7 3 -7h209q6 0 5 6l-70 239l-37 132 q-1 3 -2.5 3t-2.5 -3zM-4 471q-2 -3 -5 -5t-8 1l-11 6q-6 4 -5.5 7t2.5 6l68 124q6 10 18 4l22 -12q9 -5 9 -8.5t-3 -8.5z" />
<glyph unicode="&#x387;" horiz-adv-x="165" d="M117 343q0 -14 -10 -24.5t-26 -10.5q-14 0 -23.5 10.5t-9.5 24.5t9.5 23.5t23.5 9.5q16 0 26 -9.5t10 -23.5z" />
<glyph unicode="&#x388;" horiz-adv-x="429" d="M399 8q0 -8 -8 -8h-322q-8 0 -8 8v601q0 8 8 8h310q7 0 7 -8v-23q0 -7 -7 -7h-267q-4 0 -6 -0.5t-2 -5.5v-229q0 -6 7 -6h233q7 0 7 -8v-23q0 -7 -7 -7h-233q-7 0 -7 -7v-249q0 -6 7 -6h280q8 0 8 -7v-23zM-79 472q-2 -3 -5 -5t-8 1l-11 6q-6 4 -5.5 7t2.5 6l68 124 q6 10 18 4l22 -12q9 -5 9 -8.5t-3 -8.5z" />
<glyph unicode="&#x389;" horiz-adv-x="499" d="M439 7q0 -7 -7 -7h-29q-8 0 -8 7v285q0 7 -6 7h-278q-7 0 -7 -7v-285q0 -7 -7 -7h-28q-8 0 -8 7v603q0 7 8 7h28q7 0 7 -7v-267q0 -6 7 -6h278q5 0 5.5 1.5t0.5 4.5v267q0 7 8 7h28q8 0 8 -7v-603zM-63 471q-2 -3 -5 -5t-8 1l-11 6q-6 4 -5.5 7t2.5 6l68 124q6 10 18 4 l22 -12q9 -5 9 -8.5t-3 -8.5z" />
<glyph unicode="&#x38a;" horiz-adv-x="201" d="M122 7q0 -7 -8 -7h-28q-8 0 -8 7v603q0 7 8 7h28q8 0 8 -7v-603zM-67 471q-2 -3 -5 -5t-8 1l-11 6q-6 4 -5.5 7t2.5 6l68 124q6 10 18 4l22 -12q9 -5 9 -8.5t-3 -8.5z" />
<glyph unicode="&#x38c;" horiz-adv-x="476" d="M418 160q0 -37 -12 -67.5t-35.5 -52.5t-57 -34.5t-75.5 -12.5q-44 0 -78 13t-56.5 36.5t-34 55t-11.5 67.5v293q0 36 13 66t36 52.5t56 35t74 12.5t74.5 -12t57 -34t36.5 -52.5t13 -67.5v-298zM375 456q0 26 -8.5 49.5t-25.5 41t-42.5 28t-60.5 10.5q-33 0 -59 -10.5 t-43 -28t-26 -41t-9 -49.5v-289q0 -27 8 -51.5t24.5 -43t42.5 -30t62 -11.5q66 0 101.5 36t35.5 95v294zM-65 471q-2 -3 -5 -5t-8 1l-11 6q-6 4 -5.5 7t2.5 6l68 124q6 10 18 4l22 -12q9 -5 9 -8.5t-3 -8.5z" />
<glyph unicode="&#x38e;" horiz-adv-x="403" d="M228 252q-4 -8 -4.5 -13.5t-0.5 -10.5v-221q0 -7 -7 -7h-28q-8 0 -8 7v216q0 8 -0.5 13t-3.5 12l-162 359q-5 10 6 10h28q5 0 7.5 -2t4.5 -6l139 -316l3 -3t3 3q3 8 13.5 32t25 56.5t30.5 69.5t30.5 69.5t25 56.5t13.5 32q3 5 5 6.5t8 1.5h28q11 0 5 -11zM-116 471 q-2 -3 -5 -5t-8 1l-11 6q-6 4 -5.5 7t2.5 6l68 124q6 10 18 4l22 -12q9 -5 9 -8.5t-3 -8.5z" />
<glyph unicode="&#x38f;" horiz-adv-x="499" d="M448 7q0 -7 -7 -7h-131q-8 0 -8 7v31q0 5 1.5 7.5t8.5 4.5q41 14 60 43t19 71v293q0 25 -9 48.5t-26.5 41.5t-44 28.5t-62.5 10.5q-70 0 -106 -37.5t-36 -91.5v-293q0 -42 18 -71t60 -43q7 -2 8.5 -4.5t1.5 -7.5v-31q0 -7 -8 -7h-131q-7 0 -7 7v23q0 8 8 8h66q3 0 3 2 q0 1 -2 2q-32 16 -45.5 46t-14.5 68v301q0 8 1 12q2 34 16 62.5t38 49t57 32t73 11.5q43 0 77.5 -12.5t58.5 -34.5t36.5 -52.5t12.5 -66.5v-264v-19.5t-1 -18.5q-3 -75 -59 -114l-2 -2q0 -2 3 -2h65q8 0 8 -7v-24zM-55 471q-2 -3 -5 -5t-8 1l-11 6q-6 4 -5.5 7t2.5 6l68 124 q6 10 18 4l22 -12q9 -5 9 -8.5t-3 -8.5z" />
<glyph unicode="&#x390;" horiz-adv-x="181" d="M112 7q0 -7 -7 -7h-28q-8 0 -8 6v422q0 7 7 7h29q7 0 7 -7v-421zM210 560q0 -12 -8.5 -21t-20.5 -9t-20.5 9t-8.5 21q0 13 8.5 21.5t20.5 8.5t20.5 -8.5t8.5 -21.5zM41 560q0 -12 -8.5 -21t-20.5 -9t-20.5 9t-8.5 21q0 13 8.5 21.5t20.5 8.5t20.5 -8.5t8.5 -21.5zM68 494 q-2 -3 -5 -5t-8 1l-11 6q-6 4 -5.5 7t2.5 6l68 124q6 10 18 4l22 -12q9 -5 9 -8.5t-3 -8.5z" />
<glyph unicode="&#x391;" horiz-adv-x="445" d="M395 0q-8 0 -10 6l-43 146q-1 4 -6 4h-231q-4 0 -5 -3q-1 -5 -7.5 -27t-13.5 -46.5t-13.5 -46.5t-7.5 -27q-2 -6 -9 -6h-28q-5 0 -7 1.5t0 7.5l175 601q2 7 8 7h47q8 0 9 -7l177 -599q4 -11 -5 -11h-30zM181 437l-68 -237q-2 -7 3 -7h209q6 0 5 6l-70 239l-37 132 q-1 3 -2.5 3t-2.5 -3z" />
<glyph unicode="&#x392;" horiz-adv-x="472" d="M429 174q0 -38 -11.5 -70t-33 -55t-52 -36t-69.5 -13h-195q-7 0 -7 8v601q0 8 7 8h184q72 0 116 -38.5t44 -113.5q0 -37 -19.5 -74.5t-62.5 -55.5q-2 -1 -2 -2.5t2 -2.5q25 -9 44 -25t31 -37t18 -45.5t6 -48.5zM386 172q0 29 -9 54.5t-26.5 44.5t-42 30t-55.5 11h-143 q-6 0 -6 -7v-261q0 -5 7 -5h151q29 0 52 10.5t39 28.5t24.5 42t8.5 52zM369 465q0 51 -30 82.5t-87 31.5h-142q-3 0 -4.5 -0.5t-1.5 -5.5v-216q0 -4 0.5 -5.5t5.5 -1.5h143q53 0 84.5 31.5t31.5 83.5z" />
<glyph unicode="&#x393;" horiz-adv-x="403" d="M397 586q0 -7 -8 -7h-269q-4 0 -6 -0.5t-2 -5.5v-566q0 -7 -7 -7h-28q-8 0 -8 7v602q0 8 8 8h312q8 0 8 -7v-24v0z" />
<glyph unicode="&#x394;" horiz-adv-x="448" d="M435 11q1 -2 1 -5q0 -6 -6 -6h-411q-7 0 -7 4q0 1 0.5 2t0.5 2l180 602q3 7 8 7h44q5 0 6.5 -2t2.5 -5q46 -150 91 -299t90 -300zM378 44q-26 91 -53 181t-54 181l-46 157q0 4 -3 4q-1 0 -2 -3q-11 -39 -22.5 -79.5t-22.5 -78.5l-105 -361q0 -1 -0.5 -2t-0.5 -2 q0 -4 7 -4h296q7 0 7 4q0 3 -1 4v-1z" />
<glyph unicode="&#x395;" horiz-adv-x="429" d="M399 8q0 -8 -8 -8h-322q-8 0 -8 8v601q0 8 8 8h310q7 0 7 -8v-23q0 -7 -7 -7h-267q-4 0 -6 -0.5t-2 -5.5v-229q0 -6 7 -6h233q7 0 7 -8v-23q0 -7 -7 -7h-233q-7 0 -7 -7v-249q0 -6 7 -6h280q8 0 8 -7v-23v0z" />
<glyph unicode="&#x396;" horiz-adv-x="393" d="M376 8q0 -8 -7 -8h-341q-10 0 -10 9v16q0 9 4 19l296 528q5 7 -5 7h-272q-9 0 -9 8v22q0 8 8 8h321q11 0 11 -10v-15q0 -6 -2 -11.5t-4 -9.5l-292 -524q-5 -8 4 -8h290q8 0 8 -8v-23v0z" />
<glyph unicode="&#x397;" horiz-adv-x="499" d="M439 7q0 -7 -7 -7h-29q-8 0 -8 7v285q0 7 -6 7h-278q-7 0 -7 -7v-285q0 -7 -7 -7h-28q-8 0 -8 7v603q0 7 8 7h28q7 0 7 -7v-267q0 -6 7 -6h278q5 0 5.5 1.5t0.5 4.5v267q0 7 8 7h28q8 0 8 -7v-603v0z" />
<glyph unicode="&#x398;" horiz-adv-x="480" d="M427 155q0 -74 -50 -117.5t-137 -43.5q-86 0 -136.5 44t-50.5 117v306q0 36 13 65.5t37.5 51.5t59 34t76.5 12q88 0 138 -44.5t50 -118.5v-306zM384 459q0 26 -9.5 49t-27.5 40.5t-45 27.5t-62 10q-63 0 -103 -33.5t-40 -93.5v-302q0 -27 9.5 -50t28 -40t45 -27t60.5 -10 q65 0 104.5 33.5t39.5 93.5v302zM138 296q-5 0 -5 6v24q0 7 5 7h206q6 0 6 -7v-24q0 -6 -5 -6h-207z" />
<glyph unicode="&#x399;" horiz-adv-x="201" d="M122 7q0 -7 -8 -7h-28q-8 0 -8 7v603q0 7 8 7h28q8 0 8 -7v-603v0z" />
<glyph unicode="&#x39a;" horiz-adv-x="470" d="M432 7q0 -7 -7 -7h-26q-7 0 -7 7l-13 183q-2 23 -6.5 47t-18.5 44t-40 33t-69 13q-41 0 -68 -12.5t-43 -32.5t-23 -44.5t-7 -48.5v-182q0 -7 -6 -7h-30q-8 0 -8 6v602q0 9 8 9h30q6 0 6 -9v-285q0 -6 1.5 -8.5t7.5 4.5l260 291q6 6 12 6h30q6 0 6.5 -3t-1.5 -6l-214 -242 q-5 -5 -3 -6.5t7 -1.5q12 3 26.5 4t26.5 1q43 -1 72 -15t47 -36.5t26.5 -51t10.5 -58.5z" />
<glyph unicode="&#x39b;" horiz-adv-x="446" d="M59 7q-1 -7 -9 -7h-31q-10 0 -7 10q45 151 90 300t91 300q2 7 8 7h40q7 0 10 -6l181 -600q4 -11 -7 -11h-29q-5 0 -6.5 1t-3.5 6q-31 105 -61 208.5t-62 208.5l-20 68t-21 68q0 2 -1 2q-2 0 -3 -2l-42 -151z" />
<glyph unicode="&#x39c;" horiz-adv-x="603" d="M549 7q0 -7 -7 -7h-27q-8 0 -8 7v495q0 5 -4 1l-88 -233q-23 -60 -45.5 -118.5t-45.5 -118.5q-5 -9 -13 -9h-22q-5 0 -8 1.5t-5 6.5q-24 64 -48 127.5t-49 127.5l-81 215q-3 3 -4 0v-495q0 -7 -7 -7h-27q-8 0 -8 7v597q0 5 2.5 9t9.5 4h23q11 0 14 -9l142 -377 q14 -37 27 -73.5t27 -73.5q3 -7 7 0l54 148q36 95 71.5 188.5t70.5 188.5q2 4 5 6t9 2h23q8 0 10 -4t2 -9v-597v0z" />
<glyph unicode="&#x39d;" horiz-adv-x="497" d="M92 617q7 0 9.5 -2.5t5.5 -6.5l287 -522q4 -6 4 0v523q0 8 7 8h28q7 0 7 -7v-598q0 -7 -3.5 -9.5t-8.5 -2.5h-22q-7 0 -10 2t-5 6q-6 11 -28 51t-52 94t-63.5 115.5t-63.5 115.5t-52 93.5t-28 50.5q-4 6 -4 0v-520q0 -8 -8 -8h-27q-7 0 -7 8v596q0 13 11 13h23z" />
<glyph unicode="&#x39e;" horiz-adv-x="442" d="M410 8q0 -8 -8 -8h-362q-8 0 -8 8v23q0 7 8 7h152q7 0 7 6v247q0 7 -7 7h-110q-7 0 -7 7v23q0 8 7 8h111q5 0 5.5 1.5t0.5 4.5v231q0 5 -2 5.5t-5 0.5h-148q-8 0 -8 7v23q0 8 8 8h354q8 0 8 -8v-23q0 -7 -8 -7h-150q-4 0 -6 -0.5t-2 -5.5v-231q0 -6 7 -6h113q7 0 7 -8 v-23q0 -7 -7 -7h-113q-7 0 -7 -7v-247q0 -6 8 -6h154q8 0 8 -7v-23v0z" />
<glyph unicode="&#x39f;" horiz-adv-x="476" d="M418 160q0 -37 -12 -67.5t-35.5 -52.5t-57 -34.5t-75.5 -12.5q-44 0 -78 13t-56.5 36.5t-34 55t-11.5 67.5v293q0 36 13 66t36 52.5t56 35t74 12.5t74.5 -12t57 -34t36.5 -52.5t13 -67.5v-298zM375 456q0 26 -8.5 49.5t-25.5 41t-42.5 28t-60.5 10.5q-33 0 -59 -10.5 t-43 -28t-26 -41t-9 -49.5v-289q0 -27 8 -51.5t24.5 -43t42.5 -30t62 -11.5q66 0 101.5 36t35.5 95v294z" />
<glyph unicode="&#x3a0;" horiz-adv-x="510" d="M445 7q0 -7 -7 -7h-28q-8 0 -8 7v566q0 6 -6 6h-281q-7 0 -7 -6v-566q0 -7 -7 -7h-28q-8 0 -8 7v603q0 7 8 7h365q7 0 7 -7v-603v0z" />
<glyph unicode="&#x3a1;" horiz-adv-x="445" d="M425 453q0 -36 -11.5 -65.5t-33 -51.5t-51.5 -34t-66 -12h-148q-7 0 -7 -8v-275q0 -7 -8 -7h-27q-8 0 -8 7v602q0 8 9 8h188q38 0 68 -12.5t51 -34t32.5 -51.5t11.5 -66zM116 579q-9 0 -9 -6v-238q0 -8 8 -8h147q59 0 90 35t31 92q0 25 -8 48t-23.5 40t-38 27t-51.5 10 h-146z" />
<glyph unicode="&#x3a3;" horiz-adv-x="390" d="M375 8q0 -8 -8 -8h-335q-11 0 -11 9v17q0 11 5 19l137 263q2 5 3.5 10t-2.5 11l-138 245q-4 6 -4 16v17q0 10 11 10h318q8 0 8 -7v-23q0 -8 -8 -8h-271q-10 0 -6 -7l137 -238q8 -13 1 -27l-137 -260q-4 -8 5 -8h287q8 0 8 -8v-23v0z" />
<glyph unicode="&#x3a4;" horiz-adv-x="400" d="M388 586q0 -7 -7 -7h-153q-4 0 -6 -0.5t-2 -5.5v-566q0 -7 -7 -7h-27q-9 0 -9 7v566q0 6 -7 6h-151q-7 0 -7 7v23q0 8 7 8h362q7 0 7 -7v-24v0z" />
<glyph unicode="&#x3a5;" horiz-adv-x="403" d="M228 252q-4 -8 -4.5 -13.5t-0.5 -10.5v-221q0 -7 -7 -7h-28q-8 0 -8 7v216q0 8 -0.5 13t-3.5 12l-162 359q-5 10 6 10h28q5 0 7.5 -2t4.5 -6l139 -316l3 -3t3 3q3 8 13.5 32t25 56.5t30.5 69.5t30.5 69.5t25 56.5t13.5 32q3 5 5 6.5t8 1.5h28q11 0 5 -11z" />
<glyph unicode="&#x3a6;" horiz-adv-x="551" d="M495 224q0 -35 -15.5 -65t-42 -52t-61 -35.5t-71.5 -14.5q-9 -1 -9 -9v-41q0 -7 -6 -7h-29q-7 0 -7 7v41q0 3 -1.5 6t-6.5 3q-40 2 -75 15.5t-60.5 35.5t-40 51.5t-14.5 63.5v190q0 36 14 66.5t39 53t59.5 36t76.5 15.5q9 0 9 7v19q0 7 7 7h28q7 0 7 -7v-18q0 -8 9 -8 q43 -2 78 -15t60 -35.5t38.5 -52.5t13.5 -66v-191zM454 418q0 53 -38 90t-111 39q-9 0 -9 -8v-437q0 -7 8 -7q30 1 57.5 11t48 27t32.5 40t12 50v195zM254 539q0 8 -8 8q-71 -3 -110 -41t-39 -90v-194q0 -24 11 -46.5t30.5 -39.5t47.5 -28.5t61 -12.5q7 -1 7 6v438z" />
<glyph unicode="&#x3a7;" horiz-adv-x="413" d="M211 274q-3 7 -7 1l-147 -270q-3 -5 -5.5 -5h-6.5h-29q-5 0 -6 3t1 7l167 303q5 8 3.5 11.5t-3.5 5.5l-152 278q-5 9 5 9h31q10 0 12 -5l130 -243q2 -2 4 -2t3 2q3 5 13 24t23.5 44t29.5 53.5t29.5 53.5t23.5 43.5t13 24.5q2 5 11 5h29q10 0 6 -9q-4 -8 -16 -29 t-27.5 -49.5t-33.5 -60.5t-33.5 -60.5t-27 -50t-15.5 -28.5q-4 -6 -3 -10t3 -6q4 -8 16.5 -31t30 -54.5t37.5 -66.5t37.5 -66.5t30.5 -55t17 -30.5q4 -10 -5 -10h-30h-7t-5 5z" />
<glyph unicode="&#x3a8;" horiz-adv-x="548" d="M494 312q0 -35 -14.5 -66.5t-40 -55.5t-60 -38.5t-75.5 -15.5q-9 0 -9 -7v-122q0 -7 -7 -7h-28q-8 0 -8 7v121q0 8 -7 8q-44 2 -79.5 17t-60 38.5t-37.5 54.5t-13 65v304q0 7 8 7h27q7 0 7 -6v-308q0 -24 10 -47t28.5 -42t46 -31t63.5 -13q7 -1 7 7v436q0 8 8 8h28 q7 0 7 -8v-436q0 -7 9 -7q34 1 61.5 13t46.5 31t29 43t10 51v302q0 7 8 7h28q7 0 7 -6v-304v0z" />
<glyph unicode="&#x3a9;" horiz-adv-x="499" d="M448 7q0 -7 -7 -7h-131q-8 0 -8 7v31q0 5 1.5 7.5t8.5 4.5q41 14 60 43t19 71v293q0 25 -9 48.5t-26.5 41.5t-44 28.5t-62.5 10.5q-70 0 -106 -37.5t-36 -91.5v-293q0 -42 18 -71t60 -43q7 -2 8.5 -4.5t1.5 -7.5v-31q0 -7 -8 -7h-131q-7 0 -7 7v23q0 8 8 8h66q3 0 3 2 q0 1 -2 2q-32 16 -45.5 46t-14.5 68v301q0 8 1 12q2 34 16 62.5t38 49t57 32t73 11.5q43 0 77.5 -12.5t58.5 -34.5t36.5 -52.5t12.5 -66.5v-264v-19.5t-1 -18.5q-3 -75 -59 -114l-2 -2q0 -2 3 -2h65q8 0 8 -7v-24v0z" />
<glyph unicode="&#x3aa;" horiz-adv-x="201" d="M122 7q0 -7 -8 -7h-28q-8 0 -8 7v603q0 7 8 7h28q8 0 8 -7v-603zM201 704q0 -13 -8.5 -21.5t-20.5 -8.5t-20.5 8.5t-8.5 21.5t8.5 21.5t20.5 8.5t20.5 -8.5t8.5 -21.5zM47 704q0 -13 -8.5 -21.5t-20.5 -8.5t-20.5 8.5t-8.5 21.5t8.5 21.5t20.5 8.5t20.5 -8.5t8.5 -21.5z " />
<glyph unicode="&#x3ab;" horiz-adv-x="403" d="M228 252q-4 -8 -4.5 -13.5t-0.5 -10.5v-221q0 -7 -7 -7h-28q-8 0 -8 7v216q0 8 -0.5 13t-3.5 12l-162 359q-5 10 6 10h28q5 0 7.5 -2t4.5 -6l139 -316l3 -3t3 3q3 8 13.5 32t25 56.5t30.5 69.5t30.5 69.5t25 56.5t13.5 32q3 5 5 6.5t8 1.5h28q11 0 5 -11zM149 704 q0 -13 -8.5 -21.5t-20.5 -8.5t-20.5 8.5t-8.5 21.5t8.5 21.5t20.5 8.5t20.5 -8.5t8.5 -21.5zM303 704q0 -13 -8.5 -21.5t-20.5 -8.5t-20.5 8.5t-8.5 21.5t8.5 21.5t20.5 8.5t20.5 -8.5t8.5 -21.5z" />
<glyph unicode="&#x3ac;" horiz-adv-x="429" d="M373 7q0 -7 -7 -7h-29q-6 0 -6 6v34q0 14 -10 4q-20 -24 -49 -36t-64 -12q-42 0 -72 13.5t-49.5 36t-28.5 51.5t-9 60v127q0 33 11 61.5t31.5 49.5t49.5 33t66 12t67.5 -13t48.5 -35q4 -5 7 -4t3 6v34q0 7 6 7h27q7 0 7 -7v-421zM332 284q0 52 -33.5 86t-87.5 34 q-57 0 -89 -34t-32 -88v-127q0 -25 8 -47.5t23.5 -40t38 -27.5t51.5 -10q26 0 48 10t38 26.5t25 39t9 48.5zM222 495q-2 -3 -5 -5t-8 1l-11 6q-6 4 -5.5 7t2.5 6l68 124q6 10 18 4l22 -12q9 -5 9 -8.5t-3 -8.5z" />
<glyph unicode="&#x3ad;" horiz-adv-x="360" d="M199 440q42 0 77 -14.5t58 -46.5q4 -9 0 -12l-21 -15q-8 -5 -13 3q-18 24 -45.5 36.5t-55.5 12.5q-18 0 -36.5 -5t-33 -15.5t-23.5 -27t-9 -39.5q0 -21 9 -34.5t22 -21.5t27.5 -11t25.5 -3h58q7 0 7 -7v-21q0 -7 -7 -7h-65q-15 0 -29.5 -5.5t-26 -16t-19 -26t-7.5 -35.5 q0 -29 10.5 -48.5t27 -30.5t35 -15.5t35.5 -4.5q32 0 59 14.5t41 33.5q7 10 15 6l18 -15q5 -4 5.5 -6.5t-1.5 -6.5q-46 -63 -140 -63q-70 0 -109.5 36t-39.5 99q0 9 2.5 22t9.5 27t19 26.5t31 21.5q10 5 0 8q-17 4 -28 14.5t-18 22t-9.5 23t-2.5 18.5q0 59 41 94t106 35z M204 495q-2 -3 -5 -5t-8 1l-11 6q-6 4 -5.5 7t2.5 6l68 124q6 10 18 4l22 -12q9 -5 9 -8.5t-3 -8.5z" />
<glyph unicode="&#x3ae;" horiz-adv-x="427" d="M378 7q0 -7 -6 -7h-29q-7 0 -7 6v271q0 25 -8 48.5t-23.5 40.5t-38 27.5t-51.5 10.5q-27 0 -49 -10t-37.5 -27t-24.5 -39.5t-9 -48.5v-272q0 -7 -7 -7h-28q-7 0 -7 6v422q0 7 7 7h27q6 0 6 -7v-37q0 -6 2.5 -7t7.5 4q45 52 116 52q42 0 72 -13.5t49.5 -36.5t28.5 -52.5 t9 -61.5v-269zM206 495q-2 -3 -5 -5t-8 1l-11 6q-6 4 -5.5 7t2.5 6l68 124q6 10 18 4l22 -12q9 -5 9 -8.5t-3 -8.5z" />
<glyph unicode="&#x3af;" horiz-adv-x="181" d="M112 7q0 -7 -7 -7h-28q-8 0 -8 6v422q0 7 7 7h29q7 0 7 -7v-421zM101 490q-2 -3 -5 -5t-8 1l-11 6q-6 4 -5.5 7t2.5 6l68 124q6 10 18 4l22 -12q9 -5 9 -8.5t-3 -8.5z" />
<glyph unicode="&#x3b0;" horiz-adv-x="424" d="M375 153q0 -75 -42.5 -117.5t-118.5 -42.5q-78 0 -120.5 43.5t-42.5 115.5v276q0 7 7 7h28q7 0 7 -7v-276q0 -56 33.5 -89.5t87.5 -33.5q57 0 88 34t31 91v60t-0.5 76.5t-0.5 77v60.5q0 7 8 7h28q7 0 7 -7v-275zM191 494q-2 -3 -5 -5t-8 1l-11 6q-6 4 -5.5 7t2.5 6 l68 124q6 10 18 4l22 -12q9 -5 9 -8.5t-3 -8.5zM164 560q0 -12 -8.5 -21t-20.5 -9t-20.5 9t-8.5 21q0 13 8.5 21.5t20.5 8.5t20.5 -8.5t8.5 -21.5zM333 560q0 -12 -8.5 -21t-20.5 -9t-20.5 9t-8.5 21q0 13 8.5 21.5t20.5 8.5t20.5 -8.5t8.5 -21.5z" />
<glyph unicode="&#x3b1;" horiz-adv-x="429" d="M373 7q0 -7 -7 -7h-29q-6 0 -6 6v34q0 14 -10 4q-20 -24 -49 -36t-64 -12q-42 0 -72 13.5t-49.5 36t-28.5 51.5t-9 60v127q0 33 11 61.5t31.5 49.5t49.5 33t66 12t67.5 -13t48.5 -35q4 -5 7 -4t3 6v34q0 7 6 7h27q7 0 7 -7v-421zM332 284q0 52 -33.5 86t-87.5 34 q-57 0 -89 -34t-32 -88v-127q0 -25 8 -47.5t23.5 -40t38 -27.5t51.5 -10q26 0 48 10t38 26.5t25 39t9 48.5z" />
<glyph unicode="&#x3b2;" horiz-adv-x="429" d="M380 154q0 -33 -10.5 -61.5t-30.5 -50.5t-48.5 -34.5t-63.5 -12.5q-75 0 -121 50q-8 10 -8 -3v-179q0 -6 -6 -6h-29q-7 0 -7 6v613q0 33 10.5 62.5t30.5 51t50 34.5t68 13q72 0 114.5 -42t42.5 -109q0 -17 -4.5 -34t-13 -33t-22 -28t-31.5 -18q-4 -2 -4.5 -4.5t5.5 -4.5 q40 -17 59 -52t19 -70v-88zM338 228q0 57 -33.5 90.5t-92.5 33.5h-38q-6 0 -6 7v22q0 7 6 7h45q21 0 41 6t35.5 18.5t25 31t9.5 42.5t-7.5 44.5t-22 36.5t-35.5 25t-48 9q-26 0 -48 -9t-37.5 -25.5t-24.5 -38.5t-9 -47v-326q0 -25 9 -47.5t25 -39.5t38.5 -27t48.5 -10 q52 0 85.5 33.5t33.5 90.5v73z" />
<glyph unicode="&#x3b3;" horiz-adv-x="374" d="M47 367q-6 17 -10 24t-18 7h-6q-6 0 -7 5l-3 20q0 4 0.5 5.5t5.5 3.5q8 2 15.5 3.5t13.5 1.5q23 0 33 -17.5t21 -56.5l84 -266l7 -22q1 -4 4 -4q1 0 3 3l9 23q10 29 25.5 73t32 91t32 91.5t26.5 75.5q2 6 10 6h27q6 0 7 -2t-1 -7l-147 -402q-4 -10 -5 -20t-1 -18v-158 q0 -7 -7 -7h-28q-7 0 -7 6v171q0 8 -1 15t-5 16z" />
<glyph unicode="&#x3b4;" horiz-adv-x="423" d="M333 280q0 44 -24 77.5t-86 53.5q-5 2 -13 2q-6 0 -16 -3q-51 -14 -77 -48.5t-26 -83.5v-126q0 -56 34 -90t88 -34t87 34t33 91v127zM154 438q-34 15 -54 37.5t-20 51.5t12 50t31.5 34.5t44 20t49.5 6.5q31 0 59.5 -5t56.5 -16q7 -3 5 -9l-9 -23q-2 -6 -6 -5t-9 3 q-23 10 -45.5 15t-48.5 5q-15 0 -32.5 -4t-31.5 -13t-23.5 -23t-9.5 -34t16.5 -35t39.5 -26t49 -19t46 -16q44 -18 72 -55t28 -97v-129q0 -74 -43 -116t-119 -42q-78 0 -120 43t-42 114v131q0 54 29.5 93.5t74.5 53.5q5 2 5 4q0 3 -5 5z" />
<glyph unicode="&#x3b5;" horiz-adv-x="360" d="M199 440q42 0 77 -14.5t58 -46.5q4 -9 0 -12l-21 -15q-8 -5 -13 3q-18 24 -45.5 36.5t-55.5 12.5q-18 0 -36.5 -5t-33 -15.5t-23.5 -27t-9 -39.5q0 -21 9 -34.5t22 -21.5t27.5 -11t25.5 -3h58q7 0 7 -7v-21q0 -7 -7 -7h-65q-15 0 -29.5 -5.5t-26 -16t-19 -26t-7.5 -35.5 q0 -29 10.5 -48.5t27 -30.5t35 -15.5t35.5 -4.5q32 0 59 14.5t41 33.5q7 10 15 6l18 -15q5 -4 5.5 -6.5t-1.5 -6.5q-46 -63 -140 -63q-70 0 -109.5 36t-39.5 99q0 9 2.5 22t9.5 27t19 26.5t31 21.5q10 5 0 8q-17 4 -28 14.5t-18 22t-9.5 23t-2.5 18.5q0 59 41 94t106 35z " />
<glyph unicode="&#x3b6;" horiz-adv-x="359" d="M44 169q0 33 14 71t36.5 76.5t52.5 76t62 71.5t64 63t60 49q3 3 2 3.5t-6 0.5h-237q-10 0 -10 11v18q0 8 10 8h299q12 0 12 -9v-16q0 -10 -8 -15q-21 -13 -52 -38t-65.5 -57.5t-68.5 -71.5t-61 -79.5t-44 -82t-17 -78.5q0 -39 18 -63.5t48 -41t68 -28t78 -25.5t55 -27.5 t15 -32.5q0 -12 -10 -38t-43 -79q-2 -4 -6 -5t-7 2l-17 8q-7 2 -5.5 7.5t5.5 12.5q20 35 28.5 53t8.5 29q0 22 -44 36q-45 16 -87 29t-75 32.5t-53 49.5t-20 80z" />
<glyph unicode="&#x3b7;" horiz-adv-x="427" d="M378 7q0 -7 -6 -7h-29q-7 0 -7 6v271q0 25 -8 48.5t-23.5 40.5t-38 27.5t-51.5 10.5q-27 0 -49 -10t-37.5 -27t-24.5 -39.5t-9 -48.5v-272q0 -7 -7 -7h-28q-7 0 -7 6v422q0 7 7 7h27q6 0 6 -7v-37q0 -6 2.5 -7t7.5 4q45 52 116 52q42 0 72 -13.5t49.5 -36.5t28.5 -52.5 t9 -61.5v-269v0z" />
<glyph unicode="&#x3b8;" horiz-adv-x="426" d="M376 154q0 -75 -42.5 -117t-118.5 -42q-78 0 -120.5 43t-42.5 114v328q0 34 11.5 63t33 50t51.5 32.5t67 11.5q75 0 118 -43t43 -115v-325zM102 316q-9 0 -9 -8v-38v-42t0.5 -40.5t0.5 -34.5q0 -25 5 -42t15 -31q16 -24 42.5 -37t58.5 -13q55 0 87.5 33.5t32.5 90.5v154 q0 8 -8 8h-225zM328 352q7 0 7 8v118q0 26 -9 48.5t-24.5 39t-37.5 26t-49 9.5t-49 -9.5t-38.5 -26t-25.5 -38.5t-9 -48v-117q0 -10 10 -10h225z" />
<glyph unicode="&#x3b9;" horiz-adv-x="181" d="M112 7q0 -7 -7 -7h-28q-8 0 -8 6v422q0 7 7 7h29q7 0 7 -7v-421v0z" />
<glyph unicode="&#x3ba;" horiz-adv-x="406" d="M376 9q0 -9 -8 -9h-26q-8 0 -8 8l-5 101q-1 24 -7.5 46t-20.5 38.5t-35.5 26t-52.5 9.5q-25 0 -47 -9t-38 -25t-25 -36.5t-9 -42.5v-109q0 -7 -6 -7h-28q-8 0 -8 6v422q0 7 7 7h29q6 0 6 -6v-197q0 -8 3.5 -8.5t7.5 2.5l205 204q6 5 14 5h35q4 0 5.5 -2.5t-0.5 -4.5 l-156 -157q-5 -5 -3 -7t5 -1q4 1 7.5 1h6.5q71 0 107 -41.5t40 -113.5l5 -100v0z" />
<glyph unicode="&#x3bb;" horiz-adv-x="438" d="M378 7q0 -7 -7 -7h-28q-7 0 -7 6v273q0 25 -9 47.5t-25 39.5t-38 27t-48 10q-29 0 -51.5 -10.5t-38 -27.5t-23.5 -39.5t-8 -47.5v-271q0 -7 -7 -7h-28q-7 0 -7 6v269q0 31 9.5 61t29 52.5t49.5 36.5t71 14q34 0 63.5 -11.5t50.5 -37.5q6 -7 8 -4.5t2 7.5v87 q0 55 -35.5 87.5t-87.5 32.5q-22 0 -43.5 -6.5t-44.5 -17.5q-8 -4 -12 3l-9 19q-3 8 6 12q21 13 49 20t54 7q73 0 119 -41t46 -114v-475v0z" />
<glyph unicode="&#x3bc;" horiz-adv-x="431" d="M95 -173q0 -7 -7 -7h-28q-7 0 -8 6q1 91 1 165v143.5t-0.5 140t-0.5 153.5q0 6 7 6h28q7 0 7 -6v-273q0 -24 8.5 -46.5t24 -40t38 -27.5t50.5 -10q27 0 49 10t37.5 26.5t24.5 39t9 47.5v274q0 6 7 6h28q7 0 7 -6v-422q0 -6 -7 -6h-26q-7 0 -7 6v41q0 9 -8 1 q-26 -26 -53 -39.5t-65 -13.5t-64 13t-43 34q-2 2 -5 2q-4 0 -4 -6v-211v0z" />
<glyph unicode="&#x3bd;" horiz-adv-x="371" d="M209 9q-2 -5 -3.5 -7t-7.5 -2h-24q-11 0 -13 8l-149 418q-3 9 6 9h25q6 0 8.5 -2.5t4.5 -7.5l83 -239l43 -131q3 -9 7 0l42 128l82 241q2 5 4 8t9 3h26q9 0 6 -9z" />
<glyph unicode="&#x3be;" horiz-adv-x="340" d="M90 425q0 -26 14.5 -43.5t35.5 -28t44 -15t41 -4.5h85q11 0 11 -9v-16q0 -11 -10 -11h-91q-18 0 -44 -10t-50 -28.5t-41 -44.5t-17 -57q0 -32 14 -53t38 -35t57.5 -24.5t72.5 -21.5q26 -8 42 -15.5t24.5 -15.5t11 -16.5t2.5 -18.5q0 -7 -1.5 -16t-7 -22.5t-15.5 -33 t-27 -46.5q-3 -5 -7 -5q-2 0 -6 2l-18 9q-5 3 -5 6q0 2 2 6q23 38 31 58t8 29q0 11 -4 18t-14 12.5t-27 11t-42 12.5q-92 25 -132 61t-40 96q0 43 30.5 86.5t93.5 66.5q5 2 5 3q0 3 -6 3q-29 7 -48.5 20t-31 29t-16 32t-4.5 29q0 34 20 60t49 45.5t61 33t57 22.5q4 1 4 3 l-2 1h-195q-11 0 -11 10v18q0 9 10 9h301q12 0 12 -9v-18q0 -10 -8 -13q-41 -9 -86 -24t-82.5 -35t-62.5 -46t-25 -57z" />
<glyph unicode="&#x3bf;" horiz-adv-x="421" d="M373 156q0 -77 -42.5 -119t-118.5 -42q-79 0 -121 43t-42 116v128q0 71 43.5 114.5t119.5 43.5q75 0 118 -42.5t43 -116.5v-125zM332 280q0 54 -30 89t-90 35q-54 0 -88 -34.5t-34 -88.5v-126q0 -57 31 -91t91 -34t90 34t30 92v124z" />
<glyph unicode="&#x3c0;" horiz-adv-x="427" d="M376 7q0 -7 -7 -7h-28q-7 0 -7 6v383q0 9 -8 9h-226q-7 0 -7 -8v-383q0 -7 -7 -7h-28q-7 0 -7 6v422q0 7 7 7h311q7 0 7 -7v-421v0z" />
<glyph unicode="&#x3c1;" horiz-adv-x="422" d="M376 161q1 -36 -9.5 -66t-30.5 -52.5t-49.5 -35t-66.5 -12.5q-35 0 -64.5 11.5t-52.5 37.5q-3 4 -5 4q-4 0 -4 -8v-213q0 -7 -6 -7h-28q-7 0 -8 6v454q0 36 12.5 65.5t34.5 50.5t52.5 32.5t66.5 11.5q71 0 114.5 -42.5t43.5 -114.5v-122zM335 280q0 54 -29.5 88.5 t-90.5 34.5q-27 0 -49.5 -9t-38.5 -25.5t-25 -39t-9 -49.5v-125q0 -26 9 -48.5t25 -39.5t38 -27t49 -10q33 0 56 10t37.5 27t21 40t6.5 49v124z" />
<glyph unicode="&#x3c2;" horiz-adv-x="342" d="M177 440q31 0 60 -6.5t51 -15.5q9 -4 7 -10l-8 -23q-2 -5 -6 -5t-7 2q-26 11 -50 16.5t-49 5.5q-11 0 -27.5 -3.5t-31.5 -12.5t-25.5 -23t-10.5 -35t11.5 -36t29 -26t38 -19t38.5 -14q24 -9 45 -19t36.5 -25t25 -35t9.5 -48q0 -22 -9.5 -42.5t-27.5 -36t-44.5 -25 t-60.5 -9.5q-48 0 -79 18.5t-56 58.5q-4 6 2 9l23 12q4 2 5.5 0.5t3.5 -4.5q15 -27 40.5 -44t60.5 -17q40 0 70.5 21t30.5 59q0 32 -21.5 52t-50.5 32q-25 10 -53 20t-51.5 24.5t-39 36t-15.5 54.5q0 29 12 50.5t31.5 35.5t43.5 20.5t49 6.5z" />
<glyph unicode="&#x3c3;" horiz-adv-x="422" d="M330 275q0 26 -8.5 48.5t-24.5 39t-38 26t-49 9.5t-49 -9.5t-38 -26t-25 -38.5t-9 -48v-122q0 -57 34 -90.5t88 -33.5t86.5 34t32.5 91v120zM395 434q7 0 7 -6v-22q0 -7 -7 -7h-70q-7 0 -7 -4q0 -2 3 -5q9 -6 18 -15q33 -39 33 -99v-122q0 -75 -43 -117t-119 -42 q-78 0 -120 43t-42 115v123q0 34 11 63t32 50t50 33t65 12h189z" />
<glyph unicode="&#x3c4;" horiz-adv-x="299" d="M214 -5q-29 0 -50 9t-34.5 24.5t-19.5 37t-6 46.5v278q0 9 -9 9h-76q-7 0 -7 7v22q0 7 6 7h247q7 0 7 -7v-22q0 -7 -7 -7h-112q-8 0 -8 -9v-272q0 -45 20 -66t56 -21q13 0 26.5 2.5t24.5 6.5q5 2 6.5 0t3.5 -5l5 -22q1 -8 -6 -9q-14 -5 -32 -7t-35 -2z" />
<glyph unicode="&#x3c5;" horiz-adv-x="424" d="M375 153q0 -75 -42.5 -117.5t-118.5 -42.5q-78 0 -120.5 43.5t-42.5 115.5v276q0 7 7 7h28q7 0 7 -7v-276q0 -56 33.5 -89.5t87.5 -33.5q57 0 88 34t31 91v60t-0.5 76.5t-0.5 77v60.5q0 7 8 7h28q7 0 7 -7v-275v0z" />
<glyph unicode="&#x3c6;" horiz-adv-x="510" d="M463 166q0 -41 -13.5 -72t-37.5 -52.5t-56.5 -33.5t-71.5 -14q-8 0 -8 -8v-159q0 -7 -6 -7h-28q-7 0 -7 6v160q0 8 -8 8q-81 3 -130.5 45.5t-49.5 123.5v124q0 45 22 81.5t60 56.5q9 5 14 -2l13 -19q5 -6 -5 -11q-34 -20 -48 -47t-14 -61v-117q0 -61 34 -97.5t103 -40.5 q8 0 8 6v393q0 5 2.5 9t10.5 4h31q6 0 11.5 -0.5t11.5 -0.5q34 -2 64 -14t51.5 -32.5t34 -49t12.5 -61.5v-118zM422 281q0 29 -11.5 52t-30.5 38.5t-43.5 24t-51.5 8.5q-8 0 -9 -2.5t-1 -6.5v-358q0 -7 8 -7q30 2 55 11.5t44 26.5t29.5 41.5t10.5 56.5v115z" />
<glyph unicode="&#x3c7;" horiz-adv-x="343" d="M336 9q6 -9 -5 -9h-27q-6 0 -9.5 1.5t-7.5 7.5l-110 179q-2 5 -4.5 4t-4.5 -4l-110 -179q-4 -6 -7.5 -7.5t-8.5 -1.5h-27q-11 0 -5 9l131 208q5 8 5 11.5t-5 10.5l-116 187q-2 3 -1 6t6 3h26q7 0 10 -1t7 -8l96 -157q4 -8 8 1l95 156q4 7 7 8t10 1h26q5 0 6 -3t-1 -6 l-117 -188q-5 -8 -3.5 -11.5t3.5 -6.5z" />
<glyph unicode="&#x3c8;" horiz-adv-x="512" d="M464 164q0 -41 -13.5 -71.5t-37 -52t-56 -33.5t-71.5 -14q-8 0 -8 -8v-159q0 -6 -7 -6h-28q-7 0 -7 6v160q0 7 -8 7q-81 4 -130 47t-49 124v264q0 7 7 7h28q6 0 6 -7v-263q0 -63 38.5 -97t99.5 -37q7 0 7 7v415q0 7 8 7h28q6 0 6 -7v-414q0 -8 10 -8q59 5 97 38t38 97 v262q0 7 7 7h28q7 0 7 -7v-264v0z" />
<glyph unicode="&#x3c9;" horiz-adv-x="598" d="M550 154q0 -75 -36 -117t-97 -42q-38 0 -68 16.5t-44 48.5q-4 11 -7 8.5t-7 -8.5q-20 -35 -46 -50t-64 -15q-61 0 -97.5 42t-36.5 117v128q0 35 11 63.5t30 49t44 32t53 13.5q10 0 10 -7v-23q0 -7 -8 -7q-20 -2 -38 -11.5t-31.5 -25.5t-21.5 -38t-8 -47v-125 q0 -54 25.5 -90.5t69.5 -36.5q25 0 43 11.5t29 29t16.5 37t5.5 36.5v149q0 7 7 7h28q7 0 7 -6v-150q0 -17 5.5 -36.5t17.5 -36.5t30 -28.5t44 -11.5q45 0 69 35.5t24 90.5v125q0 25 -8 47t-21.5 38t-31.5 25.5t-38 11.5q-5 0 -6.5 1t-1.5 6v23q0 5 2 6t7 1q28 0 53.5 -12 t44.5 -33t30 -50t11 -63v-128v0z" />
<glyph unicode="&#x3ca;" horiz-adv-x="181" d="M112 7q0 -7 -7 -7h-28q-8 0 -8 6v422q0 7 7 7h29q7 0 7 -7v-421zM198 561q0 -12 -8.5 -21t-20.5 -9q-13 0 -21.5 9t-8.5 21q0 13 8.5 21.5t20.5 8.5t21 -8.5t9 -21.5zM44 561q0 -13 -9 -21.5t-20 -8.5q-12 0 -20.5 9t-8.5 21q0 13 8.5 21.5t20.5 8.5t20.5 -8.5t8.5 -21.5 z" />
<glyph unicode="&#x3cb;" horiz-adv-x="424" d="M375 153q0 -75 -42.5 -117.5t-118.5 -42.5q-78 0 -120.5 43.5t-42.5 115.5v276q0 7 7 7h28q7 0 7 -7v-276q0 -56 33.5 -89.5t87.5 -33.5q57 0 88 34t31 91v60t-0.5 76.5t-0.5 77v60.5q0 7 8 7h28q7 0 7 -7v-275zM318 561q0 -12 -8.5 -21t-20.5 -9q-13 0 -21.5 9t-8.5 21 q0 13 8.5 21.5t20.5 8.5t21 -8.5t9 -21.5zM164 561q0 -13 -9 -21.5t-20 -8.5q-12 0 -20.5 9t-8.5 21q0 13 8.5 21.5t20.5 8.5t20.5 -8.5t8.5 -21.5z" />
<glyph unicode="&#x3cc;" horiz-adv-x="421" d="M373 156q0 -77 -42.5 -119t-118.5 -42q-79 0 -121 43t-42 116v128q0 71 43.5 114.5t119.5 43.5q75 0 118 -42.5t43 -116.5v-125zM332 280q0 54 -30 89t-90 35q-54 0 -88 -34.5t-34 -88.5v-126q0 -57 31 -91t91 -34t90 34t30 92v124zM219 495q-2 -3 -5 -5t-8 1l-11 6 q-6 4 -5.5 7t2.5 6l68 124q6 10 18 4l22 -12q9 -5 9 -8.5t-3 -8.5z" />
<glyph unicode="&#x3cd;" horiz-adv-x="424" d="M375 153q0 -75 -42.5 -117.5t-118.5 -42.5q-78 0 -120.5 43.5t-42.5 115.5v276q0 7 7 7h28q7 0 7 -7v-276q0 -56 33.5 -89.5t87.5 -33.5q57 0 88 34t31 91v60t-0.5 76.5t-0.5 77v60.5q0 7 8 7h28q7 0 7 -7v-275zM209 495q-2 -3 -5 -5t-8 1l-11 6q-6 4 -5.5 7t2.5 6 l68 124q6 10 18 4l22 -12q9 -5 9 -8.5t-3 -8.5z" />
<glyph unicode="&#x3ce;" horiz-adv-x="598" d="M550 154q0 -75 -36 -117t-97 -42q-38 0 -68 16.5t-44 48.5q-4 11 -7 8.5t-7 -8.5q-20 -35 -46 -50t-64 -15q-61 0 -97.5 42t-36.5 117v128q0 35 11 63.5t30 49t44 32t53 13.5q10 0 10 -7v-23q0 -7 -8 -7q-20 -2 -38 -11.5t-31.5 -25.5t-21.5 -38t-8 -47v-125 q0 -54 25.5 -90.5t69.5 -36.5q25 0 43 11.5t29 29t16.5 37t5.5 36.5v149q0 7 7 7h28q7 0 7 -6v-150q0 -17 5.5 -36.5t17.5 -36.5t30 -28.5t44 -11.5q45 0 69 35.5t24 90.5v125q0 25 -8 47t-21.5 38t-31.5 25.5t-38 11.5q-5 0 -6.5 1t-1.5 6v23q0 5 2 6t7 1q28 0 53.5 -12 t44.5 -33t30 -50t11 -63v-128zM299 495q-2 -3 -5 -5t-8 1l-11 6q-6 4 -5.5 7t2.5 6l68 124q6 10 18 4l22 -12q9 -5 9 -8.5t-3 -8.5z" />
<glyph unicode="&#x401;" horiz-adv-x="429" d="M399 8q0 -8 -8 -8h-322q-8 0 -8 8v601q0 8 8 8h310q7 0 7 -8v-23q0 -7 -7 -7h-267q-4 0 -6 -0.5t-2 -5.5v-229q0 -6 7 -6h233q7 0 7 -8v-23q0 -7 -7 -7h-233q-7 0 -7 -7v-249q0 -6 7 -6h280q8 0 8 -7v-23zM326 704q0 -13 -8.5 -21.5t-20.5 -8.5t-20.5 8.5t-8.5 21.5 t8.5 21.5t20.5 8.5t20.5 -8.5t8.5 -21.5zM172 704q0 -13 -8.5 -21.5t-20.5 -8.5t-20.5 8.5t-8.5 21.5t8.5 21.5t20.5 8.5t20.5 -8.5t8.5 -21.5z" />
<glyph unicode="&#x402;" horiz-adv-x="600" d="M540 149q0 -26 -7 -56t-25 -55t-49 -41.5t-78 -16.5h-15q-11 0 -11 7v22q0 8 8 8h14q34 0 57.5 12t37 31.5t19.5 43t6 46.5v81q0 30 -6.5 56t-22.5 45t-42.5 30t-66.5 11q-44 0 -80 -18.5t-59 -45.5q-7 -10 -7 -20v-282q0 -7 -7 -7h-29q-8 0 -8 7l1 565q0 7 -7 7h-135 q-8 0 -8 7v23q0 8 8 8h432q7 0 7 -8v-23q0 -7 -7 -7h-239q-8 0 -8 -6v-214q0 -12 9 -3q12 12 29 22.5t36.5 18t39.5 11.5t39 4q45 0 77.5 -13.5t54 -37t32 -55t10.5 -67.5v-90v0z" />
<glyph unicode="&#x403;" horiz-adv-x="396" d="M397 586q0 -7 -8 -7h-269q-4 0 -6 -0.5t-2 -5.5v-566q0 -7 -7 -7h-28q-8 0 -8 7v602q0 8 8 8h312q8 0 8 -7v-24zM185 646q-7 -4 -13 2l-6 8q-5 8 1 12l109 93q8 7 15 -1l19 -23q9 -9 -2 -15z" />
<glyph unicode="&#x404;" horiz-adv-x="419" d="M385 71q8 -7 2 -13q-28 -31 -66 -47.5t-84 -16.5q-42 0 -75 12t-56 33.5t-35.5 51.5t-12.5 66v306q0 34 12.5 63.5t36 51t56 34t71.5 12.5q45 0 84.5 -15t66.5 -48q6 -6 -1 -13l-18 -15q-6 -6 -14 3q-19 24 -52 37t-66 13q-60 0 -96.5 -35.5t-36.5 -88.5v-121q0 -4 5 -4 h203q8 0 8 -8v-23q0 -7 -7 -7h-204q-5 0 -5 -4v-136q0 -27 9 -50t26 -40.5t42.5 -27.5t58.5 -10q32 0 63 12.5t53 35.5q10 11 17 5z" />
<glyph unicode="&#x405;" horiz-adv-x="427" d="M194 31q66 0 110 31.5t44 94.5q0 31 -10 53t-27.5 38t-41.5 28t-51 23q-29 11 -60.5 24.5t-57.5 32t-43.5 45t-17.5 64.5q0 39 14.5 68.5t38 50t54 30.5t63.5 10q40 0 80.5 -10.5t73.5 -35.5q5 -3 4 -6t-3 -7l-12 -18q-3 -5 -7 -4t-7 3q-26 19 -60 29t-65 10 q-23 0 -46.5 -6.5t-42.5 -20.5t-30.5 -37t-11.5 -56q0 -26 13.5 -45t34 -33.5t45.5 -25.5t48 -20q32 -13 62.5 -27.5t54 -35.5t37.5 -49t14 -68q0 -41 -15 -72t-41.5 -52t-62.5 -31.5t-77 -10.5q-48 0 -92.5 16.5t-71.5 45.5q-4 4 -3 6.5t5 6.5l13 13q6 6 14 0 q24 -20 61.5 -36t72.5 -16z" />
<glyph unicode="&#x406;" horiz-adv-x="201" d="M122 7q0 -7 -8 -7h-28q-8 0 -8 7v603q0 7 8 7h28q8 0 8 -7v-603v0z" />
<glyph unicode="&#x407;" horiz-adv-x="201" d="M122 7q0 -7 -8 -7h-28q-8 0 -8 7v603q0 7 8 7h28q8 0 8 -7v-603zM205 704q0 -13 -8.5 -21.5t-20.5 -8.5t-20.5 8.5t-8.5 21.5t8.5 21.5t20.5 8.5t20.5 -8.5t8.5 -21.5zM51 704q0 -13 -8.5 -21.5t-20.5 -8.5t-20.5 8.5t-8.5 21.5t8.5 21.5t20.5 8.5t20.5 -8.5t8.5 -21.5z " />
<glyph unicode="&#x408;" horiz-adv-x="227" d="M148 123q0 -52 -6 -88.5t-23 -63t-47.5 -45.5t-79.5 -36q-3 -1 -7 -0.5t-6 6.5l-6 22q-3 9 7 13q42 15 66.5 31.5t37.5 38.5t17 51t4 67v489q0 8 8 8h26q9 0 9 -8v-485z" />
<glyph unicode="&#x409;" horiz-adv-x="757" d="M403 617q7 0 8 -7v-262q0 -7 7 -7h155q39 0 69.5 -13t51.5 -36t32 -54.5t11 -67.5t-11.5 -67t-33 -54t-52 -36t-68.5 -13h-195q-9 0 -9 8v565q0 6 -7 6h-191q-7 0 -7 -6v-94q0 -92 -2.5 -161.5t-9 -121t-17 -87t-25.5 -59.5t-35.5 -38t-47.5 -23q-9 -3 -11 5l-7 20 q-2 7 7 11q31 13 51.5 36.5t33 73t17.5 131.5t5 212v132q0 7 8 7h273zM572 38q28 0 51 11t39 29t24.5 41.5t8.5 49.5q0 58 -33 96t-90 38h-154q-7 0 -7 -8v-251q0 -6 9 -6h152z" />
<glyph unicode="&#x40a;" horiz-adv-x="743" d="M354 296q-2 7 -7 7h-236q-7 0 -7 -7v-289q0 -7 -7 -7h-28q-8 0 -8 7v603q0 7 8 7h28q7 0 7 -7v-263q0 -6 7 -6h236q7 0 7 7v262q0 7 8 7h27q8 0 8 -7v-262q0 -7 7 -7h158q37 0 67 -13t51 -36t32 -54.5t11 -67.5t-11.5 -67t-33 -54t-52 -36t-68.5 -13h-195q-9 0 -9 9v287z M558 38q28 0 51 11t39 29t24.5 41.5t8.5 49.5q0 58 -33 96t-90 38h-154q-7 0 -7 -9v-249q0 -4 1.5 -5.5t7.5 -1.5h152z" />
<glyph unicode="&#x40b;" horiz-adv-x="598" d="M170 572q0 7 -7 7h-135q-8 0 -8 7v23q0 8 8 8h430q7 0 7 -8v-23q0 -7 -7 -7h-238q-8 0 -8 -6l-1 -214q0 -12 9 -3q12 12 29 22.5t36.5 18t39.5 11.5t39 4q45 0 77.5 -13.5t54 -37t32 -55t10.5 -67.5v-232q0 -7 -7 -7h-29q-7 0 -7 7v224q0 30 -6.5 56t-22.5 45t-42.5 30 t-66.5 11q-44 0 -80 -18.5t-59 -45.5q-7 -10 -7 -20v-282q0 -7 -7 -7h-27q-8 0 -8 7z" />
<glyph unicode="&#x40c;" horiz-adv-x="470" d="M432 7q0 -7 -7 -7h-26q-7 0 -7 7l-13 179q-2 23 -6.5 47t-18.5 44t-40 33t-69 13q-41 0 -68 -12.5t-43 -32.5t-23 -44.5t-7 -48.5v-178q0 -7 -6 -7h-30q-8 0 -8 6v602q0 9 8 9h30q6 0 6 -9v-289q0 -6 1.5 -8.5t7.5 4.5l260 295q6 6 12 6h30q6 0 6.5 -3t-1.5 -6l-214 -246 q-5 -5 -3 -6.5t7 -1.5q12 3 26.5 4t26.5 1q43 -1 72 -15t47 -36.5t26.5 -51t10.5 -58.5zM198 649q-7 -4 -13 2l-6 8q-5 8 1 12l109 93q8 7 15 -1l19 -23q9 -9 -2 -15z" />
<glyph unicode="&#x40e;" horiz-adv-x="410" d="M240 160l-27 -77q-10 -26 -19.5 -43.5t-21.5 -28t-27.5 -15t-37.5 -4.5h-24q-8 0 -8 8v22q0 10 7 10h24q23 0 36.5 12t23.5 35l12 31q7 18 6 30t-8 30l-167 437q-4 10 6 10h28q10 0 12 -8l153 -407q2 -2 3 -2l2 2l138 407q3 8 13 8h26q6 0 7 -3.5t-1 -7.5zM96 739 q0 7 6 7h13q5 0 6 -3t3 -8q6 -33 29.5 -51t52.5 -18q28 0 52.5 18.5t30.5 50.5q2 5 3 8t6 3h12q7 0 7 -7q0 -24 -9.5 -44.5t-25.5 -34.5t-36 -22t-41 -8t-40.5 8t-34.5 22t-24.5 34.5t-9.5 44.5z" />
<glyph unicode="&#x40f;" horiz-adv-x="510" d="M277 -138q-1 -8 -3 -10t-6 -2h-27q-8 0 -8 12v131q0 7 -9 7h-151q-8 0 -8 7v603q0 7 8 7h28q7 0 7 -7v-565q0 -7 7 -7h281q6 0 6 7v565q0 7 8 7h28q7 0 7 -7v-603q0 -7 -7 -7h-152q-9 0 -9 -7v-131z" />
<glyph unicode="&#x410;" horiz-adv-x="445" d="M395 0q-8 0 -10 6l-43 146q-1 4 -6 4h-231q-4 0 -5 -3q-1 -5 -7.5 -27t-13.5 -46.5t-13.5 -46.5t-7.5 -27q-2 -6 -9 -6h-28q-5 0 -7 1.5t0 7.5l175 601q2 7 8 7h47q8 0 9 -7l177 -599q4 -11 -5 -11h-30zM181 437l-68 -237q-2 -7 3 -7h209q6 0 5 6l-70 239l-37 132 q-1 3 -2.5 3t-2.5 -3z" />
<glyph unicode="&#x411;" horiz-adv-x="444" d="M98 348q0 -7 8 -7h154q40 0 70.5 -13t51.5 -36t31.5 -54.5t10.5 -67.5t-11.5 -67t-32.5 -54t-51.5 -36t-68.5 -13h-195q-10 0 -10 9v599q0 9 11 9h306q7 0 7 -7v-24q0 -7 -7 -7h-268q-6 0 -6 -5v-226zM260 38q28 0 50.5 11t38.5 29t24.5 41.5t8.5 49.5q0 58 -32.5 96 t-89.5 38h-155q-7 0 -7 -9v-249q0 -7 9 -7h153z" />
<glyph unicode="&#x412;" horiz-adv-x="472" d="M429 174q0 -38 -11.5 -70t-33 -55t-52 -36t-69.5 -13h-195q-7 0 -7 8v601q0 8 7 8h184q72 0 116 -38.5t44 -113.5q0 -37 -19.5 -74.5t-62.5 -55.5q-2 -1 -2 -2.5t2 -2.5q25 -9 44 -25t31 -37t18 -45.5t6 -48.5zM386 172q0 29 -9 54.5t-26.5 44.5t-42 30t-55.5 11h-143 q-6 0 -6 -7v-261q0 -5 7 -5h151q29 0 52 10.5t39 28.5t24.5 42t8.5 52zM369 465q0 51 -30 82.5t-87 31.5h-142q-3 0 -4.5 -0.5t-1.5 -5.5v-216q0 -4 0.5 -5.5t5.5 -1.5h143q53 0 84.5 31.5t31.5 83.5z" />
<glyph unicode="&#x413;" horiz-adv-x="396" d="M397 586q0 -7 -8 -7h-269q-4 0 -6 -0.5t-2 -5.5v-566q0 -7 -7 -7h-28q-8 0 -8 7v602q0 8 8 8h312q8 0 8 -7v-24v0z" />
<glyph unicode="&#x414;" horiz-adv-x="530" d="M178 578q-6 0 -6 -7q0 -8 -1.5 -36.5t-4 -68t-5 -83.5t-5 -83t-4.5 -67t-3 -35q-3 -45 -14.5 -84.5t-35.5 -68.5q-5 -7 5 -7h295q7 0 7 7v526q0 7 -8 7h-220zM45 -124q0 -8 -1.5 -9.5t-6.5 -1.5h-22q-8 0 -9 10v148q0 8 2.5 10.5t7.5 4.5q2 0 12.5 1t12.5 2 q32 20 47.5 61.5t20.5 99.5q1 6 3 33.5t4.5 66.5t5 84.5t5 88.5t4 78t2.5 54q1 9 11 9h296q9 0 9 -9v-561q0 -7 7 -8h28q6 -1 7.5 -3.5t1.5 -7.5v-151q0 -8 -2 -9.5t-6 -1.5h-22q-8 0 -9 11v117q0 7 -8 7h-392q-8 0 -9 -8v-116z" />
<glyph unicode="&#x415;" horiz-adv-x="429" d="M399 8q0 -8 -8 -8h-322q-8 0 -8 8v601q0 8 8 8h310q7 0 7 -8v-23q0 -7 -7 -7h-267q-4 0 -6 -0.5t-2 -5.5v-229q0 -6 7 -6h233q7 0 7 -8v-23q0 -7 -7 -7h-233q-7 0 -7 -7v-249q0 -6 7 -6h280q8 0 8 -7v-23v0z" />
<glyph unicode="&#x416;" horiz-adv-x="696" d="M28 201q3 31 13 59t29.5 49.5t48.5 34t70 12.5q11 0 25.5 -1.5t22.5 -3.5q5 -2 6 2t-1 6l-215 248q-2 4 -2 6.5t7 2.5h30q6 0 12 -6l246 -278q3 -3 6 -4.5t3 5.5v275q0 9 7 9h29q8 0 8 -9v-278q0 -4 2.5 -5t5.5 2l243 283q6 6 12 6h30q7 0 7 -2.5t-2 -6.5l-211 -248 q-10 -11 5 -8q10 2 23.5 3.5t24.5 1.5q42 0 70.5 -12.5t46.5 -34t27 -49.5t11 -58l15 -195v-2q0 -5 -7 -5h-26q-7 0 -7 7l-15 176q-2 24 -7 48.5t-17.5 44.5t-36 33t-61.5 13q-40 0 -66 -10.5t-41 -28.5t-20.5 -41.5t-5.5 -49.5v-186q0 -6 -8 -6h-29q-7 0 -7 7v188 q0 27 -5.5 50t-20 40.5t-40 27t-66.5 9.5q-38 0 -63 -13t-40 -32.5t-21.5 -44t-7.5 -46.5l-12 -179q0 -7 -7 -7h-26q-7 0 -7 5v2z" />
<glyph unicode="&#x417;" horiz-adv-x="444" d="M200 624q39 0 71 -11t55.5 -31t36.5 -48.5t13 -62.5q0 -25 -8.5 -47.5t-21.5 -40t-28.5 -29.5t-30.5 -16q-3 -1 -3 -3t3 -3q21 -5 40 -18.5t32.5 -33t21.5 -44t8 -51.5q0 -45 -15 -81t-42 -60.5t-64 -37.5t-80 -13q-24 0 -48 4t-46 12t-40.5 20.5t-29.5 29.5q-2 5 -2 7.5 t6 7.5l18 12q5 3 7.5 3t7.5 -7q19 -25 56 -38t72 -13q32 0 60.5 10t50 29.5t34 47.5t12.5 64q0 33 -11 58t-30 42t-43 25.5t-51 8.5h-83q-7 0 -7 7v25q0 7 7 7h88q23 0 44 8t37.5 23t26 35.5t9.5 46.5q0 49 -36 83.5t-99 34.5q-33 0 -68 -12t-55 -37q-7 -8 -15 -3l-18 12 q-7 6 -1 14q23 32 67.5 48t91.5 16z" />
<glyph unicode="&#x418;" horiz-adv-x="497" d="M58 610q0 7 7 7h27q8 0 8 -8v-522q0 -2 1 -2t3 3l287 520q2 4 5 6.5t10 2.5h27q7 0 7 -7v-602q0 -8 -7 -8h-28q-7 0 -7 8v524q0 6 -4 0q-6 -12 -28 -52t-52 -94.5t-63.5 -115.5t-63.5 -115.5t-52 -94.5t-28 -52q-3 -5 -5.5 -6.5t-9.5 -1.5h-27q-7 0 -7 7v603z" />
<glyph unicode="&#x419;" horiz-adv-x="497" d="M58 610q0 7 7 7h27q8 0 8 -8v-522q0 -2 1 -2t3 3l287 520q2 4 5 6.5t10 2.5h27q7 0 7 -7v-602q0 -8 -7 -8h-28q-7 0 -7 8v524q0 6 -4 0q-6 -12 -28 -52t-52 -94.5t-63.5 -115.5t-63.5 -115.5t-52 -94.5t-28 -52q-3 -5 -5.5 -6.5t-9.5 -1.5h-27q-7 0 -7 7v603zM135 739 q0 7 6 7h13q5 0 6 -3t3 -8q6 -33 29.5 -51t52.5 -18q28 0 52.5 18.5t30.5 50.5q2 5 3 8t6 3h12q7 0 7 -7q0 -24 -9.5 -44.5t-25.5 -34.5t-36 -22t-41 -8t-40.5 8t-34.5 22t-24.5 34.5t-9.5 44.5z" />
<glyph unicode="&#x41a;" horiz-adv-x="470" d="M432 7q0 -7 -7 -7h-26q-7 0 -7 7l-13 179q-2 23 -6.5 47t-18.5 44t-40 33t-69 13q-41 0 -68 -12.5t-43 -32.5t-23 -44.5t-7 -48.5v-178q0 -7 -6 -7h-30q-8 0 -8 6v602q0 9 8 9h30q6 0 6 -9v-289q0 -6 1.5 -8.5t7.5 4.5l260 295q6 6 12 6h30q6 0 6.5 -3t-1.5 -6l-214 -246 q-5 -5 -3 -6.5t7 -1.5q12 3 26.5 4t26.5 1q43 -1 72 -15t47 -36.5t26.5 -51t10.5 -58.5z" />
<glyph unicode="&#x41b;" horiz-adv-x="495" d="M170 579q-7 0 -7 -6v-94q0 -92 -2.5 -161.5t-9 -121t-17 -87t-25.5 -59.5t-35.5 -38t-47.5 -23q-7 -2 -11 5l-7 20q-3 7 7 11q31 13 51.5 36.5t33 73t17.5 131.5t5 212v132q0 7 8 7h298q7 0 7 -7v-603q0 -7 -7 -7h-28q-8 0 -8 6v566q0 7 -6 7h-216z" />
<glyph unicode="&#x41c;" horiz-adv-x="603" d="M549 7q0 -7 -7 -7h-27q-8 0 -8 7v495q0 5 -4 1l-88 -233q-23 -60 -45.5 -118.5t-45.5 -118.5q-5 -9 -13 -9h-22q-5 0 -8 1.5t-5 6.5q-24 64 -48 127.5t-49 127.5l-81 215q-3 3 -4 0v-495q0 -7 -7 -7h-27q-8 0 -8 7v597q0 5 2.5 9t9.5 4h23q11 0 14 -9l142 -377 q14 -37 27 -73.5t27 -73.5q3 -7 7 0l54 148q36 95 71.5 188.5t70.5 188.5q2 4 5 6t9 2h23q8 0 10 -4t2 -9v-597v0z" />
<glyph unicode="&#x41d;" horiz-adv-x="499" d="M439 7q0 -7 -7 -7h-29q-8 0 -8 7v285q0 7 -6 7h-278q-7 0 -7 -7v-285q0 -7 -7 -7h-28q-8 0 -8 7v603q0 7 8 7h28q7 0 7 -7v-267q0 -6 7 -6h278q5 0 5.5 1.5t0.5 4.5v267q0 7 8 7h28q8 0 8 -7v-603v0z" />
<glyph unicode="&#x41e;" horiz-adv-x="476" d="M418 160q0 -37 -12 -67.5t-35.5 -52.5t-57 -34.5t-75.5 -12.5q-44 0 -78 13t-56.5 36.5t-34 55t-11.5 67.5v293q0 36 13 66t36 52.5t56 35t74 12.5t74.5 -12t57 -34t36.5 -52.5t13 -67.5v-298zM375 456q0 26 -8.5 49.5t-25.5 41t-42.5 28t-60.5 10.5q-33 0 -59 -10.5 t-43 -28t-26 -41t-9 -49.5v-289q0 -27 8 -51.5t24.5 -43t42.5 -30t62 -11.5q66 0 101.5 36t35.5 95v294z" />
<glyph unicode="&#x41f;" horiz-adv-x="502" d="M445 7q0 -7 -7 -7h-28q-8 0 -8 7v566q0 6 -6 6h-281q-7 0 -7 -6v-566q0 -7 -7 -7h-28q-8 0 -8 7v603q0 7 8 7h365q7 0 7 -7v-603v0z" />
<glyph unicode="&#x420;" horiz-adv-x="445" d="M425 453q0 -36 -11.5 -65.5t-33 -51.5t-51.5 -34t-66 -12h-148q-7 0 -7 -8v-275q0 -7 -8 -7h-27q-8 0 -8 7v602q0 8 9 8h188q38 0 68 -12.5t51 -34t32.5 -51.5t11.5 -66zM116 579q-9 0 -9 -6v-238q0 -8 8 -8h147q59 0 90 35t31 92q0 25 -8 48t-23.5 40t-38 27t-51.5 10 h-146z" />
<glyph unicode="&#x421;" horiz-adv-x="413" d="M385 71q8 -7 2 -13q-28 -31 -66 -47.5t-84 -16.5q-42 0 -75 12t-56 33.5t-35.5 51.5t-12.5 66v306q0 34 12.5 63.5t36 51t56 34t71.5 12.5q45 0 84.5 -15t66.5 -48q6 -6 -1 -13l-18 -15q-6 -6 -14 3q-19 24 -52 37t-66 13q-60 0 -96.5 -35.5t-36.5 -88.5v-303 q0 -27 9 -50t26 -40.5t42.5 -27.5t58.5 -10q32 0 63 12.5t53 35.5q10 11 17 5z" />
<glyph unicode="&#x422;" horiz-adv-x="400" d="M388 586q0 -7 -7 -7h-153q-4 0 -6 -0.5t-2 -5.5v-566q0 -7 -7 -7h-27q-9 0 -9 7v566q0 6 -7 6h-151q-7 0 -7 7v23q0 8 7 8h362q7 0 7 -7v-24v0z" />
<glyph unicode="&#x423;" horiz-adv-x="410" d="M240 160l-27 -77q-10 -26 -19.5 -43.5t-21.5 -28t-27.5 -15t-37.5 -4.5h-24q-8 0 -8 8v22q0 10 7 10h24q23 0 36.5 12t23.5 35l12 31q7 18 6 30t-8 30l-167 437q-4 10 6 10h28q10 0 12 -8l153 -407q2 -2 3 -2l2 2l138 407q3 8 13 8h26q6 0 7 -3.5t-1 -7.5z" />
<glyph unicode="&#x424;" horiz-adv-x="534" d="M495 224q0 -35 -15.5 -65t-42 -52t-61 -35.5t-71.5 -14.5q-9 -1 -9 -9v-41q0 -7 -6 -7h-29q-7 0 -7 7v41q0 3 -1.5 6t-6.5 3q-40 2 -75 15.5t-60.5 35.5t-40 51.5t-14.5 63.5v190q0 36 14 66.5t39 53t59.5 36t76.5 15.5q9 0 9 7v19q0 7 7 7h28q7 0 7 -7v-18q0 -8 9 -8 q43 -2 78 -15t60 -35.5t38.5 -52.5t13.5 -66v-191zM454 418q0 53 -38 90t-111 39q-9 0 -9 -8v-437q0 -7 8 -7q30 1 57.5 11t48 27t32.5 40t12 50v195zM254 539q0 8 -8 8q-71 -3 -110 -41t-39 -90v-194q0 -24 11 -46.5t30.5 -39.5t47.5 -28.5t61 -12.5q7 -1 7 6v438z" />
<glyph unicode="&#x425;" horiz-adv-x="413" d="M211 274q-3 7 -7 1l-147 -270q-3 -5 -5.5 -5h-6.5h-29q-5 0 -6 3t1 7l167 303q5 8 3.5 11.5t-3.5 5.5l-152 278q-5 9 5 9h31q10 0 12 -5l130 -243q2 -2 4 -2t3 2q3 5 13 24t23.5 44t29.5 53.5t29.5 53.5t23.5 43.5t13 24.5q2 5 11 5h29q10 0 6 -9q-4 -8 -16 -29 t-27.5 -49.5t-33.5 -60.5t-33.5 -60.5t-27 -50t-15.5 -28.5q-4 -6 -3 -10t3 -6q4 -8 16.5 -31t30 -54.5t37.5 -66.5t37.5 -66.5t30.5 -55t17 -30.5q4 -10 -5 -10h-30h-7t-5 5z" />
<glyph unicode="&#x426;" horiz-adv-x="515" d="M445 46q0 -8 7 -8h31q6 0 7.5 -4t1.5 -9v-149q0 -11 -9 -11h-21q-5 0 -7 1.5t-2 9.5v117q0 7 -9 7h-371q-8 0 -8 7v603q0 7 8 7h28q7 0 7 -7v-565q0 -7 7 -7h281q6 0 6 7v565q0 7 8 7h28q7 0 7 -7v-564z" />
<glyph unicode="&#x427;" horiz-adv-x="484" d="M381 308q0 12 -9 3q-12 -12 -29.5 -22.5t-37 -18t-40 -11.5t-39.5 -4q-45 0 -78 13.5t-55.5 37t-33.5 55t-11 67.5v183q0 7 7 7h29q7 0 7 -7v-175q0 -30 8 -56t25.5 -45t44 -30t64.5 -11q44 0 81 18.5t60 45.5q7 10 7 20v233q0 7 7 7h27q8 0 8 -7v-604q0 -7 -8 -7h-27 q-7 0 -7 7v301z" />
<glyph unicode="&#x428;" horiz-adv-x="747" d="M682 7q0 -7 -7 -7h-602q-8 0 -8 7v603q0 7 8 7h28q7 0 7 -7v-565q0 -7 7 -7h228q5 0 5 7v565q0 7 8 7h28q7 0 7 -7v-565q0 -7 5 -7h236q7 0 7 7v565q0 7 8 7h28q7 0 7 -7v-603z" />
<glyph unicode="&#x429;" horiz-adv-x="753" d="M73 0q-8 0 -8 7v603q0 7 8 7h28q7 0 7 -7v-565q0 -7 7 -7h228q5 0 5 7v565q0 7 8 7h28q7 0 7 -7v-565q0 -7 5 -7h236q7 0 7 7v565q0 7 8 7h28q7 0 7 -7l1 -564q0 -8 7 -8h30q7 0 8 -4t1 -9v-149q0 -11 -8 -11h-22q-9 0 -9 11v117q0 7 -9 7h-608z" />
<glyph unicode="&#x42a;" horiz-adv-x="601" d="M416 38q28 0 51 11t39 29t24.5 41.5t8.5 49.5q0 58 -33 96t-90 38h-154q-8 0 -8 -9v-249q0 -7 9 -7h153zM212 573q0 6 -6 6h-187q-7 0 -7 7v23q0 8 7 8h228q7 0 7 -7v-262q0 -7 8 -7h155q40 0 70.5 -13t51 -36t31 -54.5t10.5 -67.5t-11.5 -67t-32.5 -54t-51.5 -36 t-68.5 -13h-195q-9 0 -9 9v564z" />
<glyph unicode="&#x42b;" horiz-adv-x="606" d="M104 348q0 -7 7 -7h159q38 0 68 -13t50.5 -36t31 -54.5t10.5 -67.5t-11.5 -67t-32.5 -54t-51.5 -36t-68.5 -13h-195q-9 0 -9 9v601q0 7 7 7h28q7 0 7 -7v-262zM546 7q0 -7 -7 -7h-28q-8 0 -8 7v603q0 7 8 7h28q7 0 7 -7v-603zM266 38q28 0 50.5 11t38.5 29t24.5 41.5 t8.5 49.5q0 58 -32.5 96t-89.5 38h-155q-7 0 -7 -9v-249q0 -7 9 -7h153z" />
<glyph unicode="&#x42c;" horiz-adv-x="450" d="M104 348q0 -7 7 -7h157q40 0 70 -13t50.5 -36t31 -54.5t10.5 -67.5t-11.5 -67t-32.5 -54t-51.5 -36t-68.5 -13h-195q-10 0 -10 9v601q0 7 8 7h28q7 0 7 -7v-262zM266 38q28 0 50.5 11t38.5 29t24.5 41.5t8.5 49.5q0 58 -32.5 96t-89.5 38h-155q-7 0 -7 -9v-249q0 -7 9 -7 h153z" />
<glyph unicode="&#x42d;" horiz-adv-x="421" d="M51 84q7 6 17 -5q22 -23 53 -35.5t63 -12.5q33 0 58.5 10t42.5 27.5t26 40.5t9 50v143q0 4 -5 4h-204q-7 0 -7 7v23q0 8 8 8h203q5 0 5 4v114q0 26 -8 49t-24.5 39.5t-40.5 26t-57 9.5t-67.5 -13t-53.5 -37q-8 -9 -14 -3l-18 15q-7 7 -1 13q27 33 68 48t86 15t77.5 -12.5 t53.5 -34t31.5 -51t10.5 -63.5v-306q0 -36 -12.5 -66t-35.5 -51.5t-56 -33.5t-75 -12q-46 0 -84 16.5t-66 47.5q-6 6 2 13z" />
<glyph unicode="&#x42e;" horiz-adv-x="636" d="M230 292q0 7 -7 7h-112q-7 0 -7 -7v-285q0 -7 -7 -7h-28q-8 0 -8 7v603q0 7 8 7h28q7 0 7 -7v-267q0 -6 7 -6h112q7 0 7 5v126q0 36 13 64.5t36 49t54.5 31.5t68.5 11t69 -10.5t55 -30.5t36.5 -49t13.5 -66v-318q0 -74 -47.5 -115.5t-125.5 -41.5q-38 0 -70 11t-55 31 t-35.5 49.5t-12.5 65.5v142zM534 466q0 52 -36.5 86t-94.5 34q-57 0 -93.5 -33.5t-36.5 -86.5v-314q0 -27 9.5 -49t27 -38t41 -25t52.5 -9q27 0 50.5 7.5t41.5 22.5t28.5 38t10.5 53v314z" />
<glyph unicode="&#x42f;" horiz-adv-x="473" d="M238 579q-40 0 -67 -12.5t-43 -32t-22.5 -43t-6.5 -46.5q0 -31 17.5 -68t52.5 -63q2 -2 7.5 -4t13.5 -2h174q7 0 7 8v255q0 8 -10 8h-123zM56 450q0 75 45 120.5t126 45.5h176q11 0 11 -9v-600q0 -7 -8 -7h-28q-7 0 -7 7v256q0 8 -8 8h-152q-8 0 -11 -3t-6 -9l-117 -249 q-2 -6 -4.5 -8t-10.5 -2h-26q-4 0 -7 2t0 8l121 257q3 5 1 7.5t-4 4.5q-37 26 -64 70.5t-27 100.5z" />
<glyph unicode="&#x430;" horiz-adv-x="382" d="M28 138q0 31 10 58t29 47t47.5 32t65.5 12q31 0 59.5 -11t45.5 -31q4 -4 6.5 -2.5t2.5 6.5v46q0 21 -4.5 40.5t-16.5 34.5t-33.5 24.5t-54.5 9.5q-12 0 -26 -1.5t-28.5 -4.5t-28 -7t-23.5 -8q-7 -5 -10 3l-9 21q-1 6 5 9q25 12 59 18.5t64 6.5q80 0 114 -38.5t34 -110.5 v-285q0 -7 -7 -7h-26q-6 0 -6 6v39q0 7 -3 7t-6 -4q-39 -53 -116 -53q-69 0 -106.5 39.5t-37.5 103.5zM67 140q0 -47 26 -79t85 -32q51 0 82.5 33t31.5 80q0 46 -29.5 79t-81.5 33q-27 0 -48.5 -9t-36 -24.5t-22 -36.5t-7.5 -44z" />
<glyph unicode="&#x431;" horiz-adv-x="421" d="M373 154q0 -73 -42 -116t-121 -43q-78 0 -119.5 41.5t-41.5 118.5v188q0 45 9 88t31.5 79.5t59 64t92.5 42.5q29 7 50.5 13t44.5 14q11 3 12 -5l7 -22q1 -7 -9 -10q-22 -8 -48.5 -14t-53.5 -14q-41 -12 -70 -34t-47 -49.5t-26 -59.5t-9 -64q0 -6 4 -2q20 26 52.5 40.5 t72.5 14.5q73 0 112.5 -43.5t39.5 -114.5v-113zM332 266q0 53 -30.5 88t-88.5 35q-55 0 -89 -35t-34 -88v-110q0 -59 31 -92.5t88 -33.5t90 34t33 91v111z" />
<glyph unicode="&#x432;" horiz-adv-x="415" d="M370 120q0 -55 -35.5 -87.5t-98.5 -32.5h-173q-9 0 -9 9v417q0 9 8 9h171q54 0 90 -29t36 -83q0 -25 -14 -51t-45 -40q-7 -3 0 -5q36 -14 53 -44t17 -63zM329 120q0 38 -27 64.5t-72 26.5h-132q-4 0 -4 -5v-164q0 -6 5 -6h134q49 0 72.5 24t23.5 60zM316 322 q0 33 -23.5 55t-66.5 22h-127q-5 0 -5 -8v-141q0 -5 4 -5h130q39 0 63.5 21t24.5 56z" />
<glyph unicode="&#x433;" horiz-adv-x="327" d="M320 408q0 -9 -9 -9h-214q-8 0 -8.5 -3.5t-0.5 -9.5v-377q0 -9 -9 -9h-24q-9 0 -9 8v417q0 9 10 9h255q9 0 9 -8v-18z" />
<glyph unicode="&#x434;" horiz-adv-x="415" d="M31 38q27 20 38 51.5t16 72.5q4 34 6.5 63.5t5 59.5t4 63t3.5 75q0 10 11 10h241q9 0 9 -8v-382q0 -8 9 -8h13q5 0 6 -4t1 -8v-118q0 -12 -8 -12h-20q-8 0 -8 12v88q0 7 -8 7h-301q-4 0 -6 -1t-2 -6v-88q0 -12 -8 -12h-20q-8 0 -8 12v116q0 5 1.5 7.5t7.5 4.5zM317 35 q8 0 8 9v343q0 7 -2.5 8.5t-7.5 1.5h-166q-6 0 -7.5 -2t-1.5 -6q-3 -66 -7 -127t-11 -113q-5 -34 -12 -59t-24 -49q-5 -6 4 -6h227z" />
<glyph unicode="&#x435;" horiz-adv-x="408" d="M372 231q0 -9 -4.5 -13t-9.5 -4h-257q-12 0 -12 -13v-48q0 -52 33 -87t89 -35q33 0 58.5 13t42.5 36q6 8 13 3l19 -12q6 -5 4 -11q-21 -32 -57 -48.5t-81 -16.5q-75 0 -118.5 42.5t-43.5 114.5v126q0 38 12.5 68t34 51t51 32t63.5 11q35 0 65 -10.5t51.5 -31t34 -51.5 t12.5 -73v-43zM330 283q0 53 -33 87t-88 34q-26 0 -47.5 -9t-38 -25.5t-25.5 -38.5t-9 -47v-24q0 -11 12 -11h220q9 0 9 11v23z" />
<glyph unicode="&#x436;" horiz-adv-x="667" d="M45 122q2 30 11.5 56.5t27.5 46t44.5 31t61.5 11.5h7t7 -1q6 0 6 3t-4 7q-38 38 -77 74t-77 74q0 2 -1 3t-1 3q0 4 6 4h36q8 0 13 -5q50 -51 97.5 -95.5t97.5 -95.5q3 -3 7 -4t4 7v188q0 6 6 6h30q5 0 7 -6v-190q0 -6 3.5 -6t6.5 3l196 193q4 5 12 5h36q5 0 5 -4t-2 -6 l-153 -148q-4 -4 -4 -7t6 -3q3 1 7.5 1h8.5q38 -1 65.5 -13.5t45 -33.5t25.5 -48.5t8 -57.5l5 -106q0 -8 -8 -8h-26q-8 0 -8 7l-5 105q0 24 -7 46t-21 38.5t-35.5 26t-51.5 9.5q-24 0 -44 -8t-34.5 -21.5t-23 -32t-8.5 -39.5v-125q0 -6 -7 -6h-28q-7 0 -7 6v124 q0 43 -32 72.5t-81 29.5q-54 0 -83 -34.5t-29 -83.5l-5 -107q0 -7 -8 -7h-25q-9 0 -9 8z" />
<glyph unicode="&#x437;" horiz-adv-x="362" d="M156 -7q-92 0 -138 66q-2 3 -2 6t6 7l20 13q7 4 11 -3q16 -21 40 -36t60 -15q18 0 39 4t38 15t28.5 30t11.5 49q0 20 -7 35.5t-18.5 26t-25.5 16t-29 5.5h-70q-7 0 -7 7v21q0 7 7 7h66q13 0 27 3.5t26 12.5t19.5 23t7.5 35q0 23 -9 38.5t-24 25t-33.5 13.5t-37.5 4 q-29 0 -56 -13t-45 -36q-7 -7 -13 -3l-20 15q-7 4 -2 12q24 28 59 45.5t80 17.5q69 0 107.5 -31.5t38.5 -88.5q0 -25 -14.5 -51t-43.5 -35q-9 -4 0 -8q19 -9 31 -22t18.5 -27t9 -27t2.5 -22q0 -62 -42 -98.5t-116 -36.5z" />
<glyph unicode="&#x438;" horiz-adv-x="408" d="M51 426q0 8 8 8h25q8 0 8 -8v-353q0 -4 2 -4q1 0 3 2l50 81l172 274q3 5 5.5 6.5t10.5 1.5h23q9 0 9 -8v-418q0 -8 -9 -8h-24q-9 0 -9 8v354q0 2 -0.5 2.5t-0.5 1.5v1q-2 0 -4 -4l-66 -108l-157 -248q-3 -5 -5.5 -6t-7.5 -1h-25q-8 0 -8 8v418z" />
<glyph unicode="&#x439;" horiz-adv-x="417" d="M101 612q0 6 6 6h13q5 0 6 -2.5l3 -7.5q7 -33 30 -51t52 -18q28 0 52.5 18t30.5 51l3 7.5t6 2.5h12q7 0 7 -6q0 -24 -9.5 -44.5t-25.5 -34.5t-36 -22t-41 -8t-40.5 8t-34.5 22t-24.5 34.5t-9.5 44.5zM51 426q0 8 8 8h25q8 0 8 -8v-353q0 -4 2 -4q1 0 3 2l50 81l172 274 q3 5 5.5 6.5t10.5 1.5h23q9 0 9 -8v-418q0 -8 -9 -8h-24q-9 0 -9 8v354q0 2 -0.5 2.5t-0.5 1.5v1q-2 0 -4 -4l-66 -108l-157 -248q-3 -5 -5.5 -6t-7.5 -1h-25q-8 0 -8 8v418z" />
<glyph unicode="&#x43a;" horiz-adv-x="406" d="M376 9q0 -9 -8 -9h-26q-8 0 -8 8l-5 101q-1 24 -7.5 46t-20.5 38.5t-35.5 26t-52.5 9.5q-25 0 -47 -9t-38 -25t-25 -36.5t-9 -42.5v-109q0 -7 -6 -7h-28q-8 0 -8 6v422q0 7 7 7h29q6 0 6 -6v-197q0 -8 3.5 -8.5t7.5 2.5l205 204q6 5 14 5h35q4 0 5.5 -2.5t-0.5 -4.5 l-156 -157q-5 -5 -3 -7t5 -1q4 1 7.5 1h6.5q71 0 107 -41.5t40 -113.5l5 -100v0z" />
<glyph unicode="&#x43b;" horiz-adv-x="407" d="M94 427q0 8 9 8h244q7 0 7 -8v-420q0 -8 -7 -8h-27q-8 0 -8 8v385q0 7 -7 7h-164q-7 0 -7 -7v-104q0 -94 -9 -150t-24 -87t-35.5 -43.5t-43.5 -20.5q-7 -1 -10 5l-8 19q-3 6 7 11q17 9 32 19t26.5 36t18 75t6.5 135v140v0z" />
<glyph unicode="&#x43c;" horiz-adv-x="489" d="M83 434q8 0 10 -2t4 -6l114 -247l43 -97q4 -4 5 0l44 98l113 245q3 6 6 7.5t8 1.5h24q9 0 9 -9v-416q0 -9 -9 -9h-22q-11 0 -11 8v325q0 6 -1.5 5t-3.5 -5l-38 -82l-100 -211q-2 -4 -4 -7t-8 -3h-20q-5 0 -7.5 2.5t-5.5 7.5l-100 211l-35 77q-2 4 -4 5.5t-2 -5.5v-319 q0 -9 -9 -9h-22q-10 0 -10 8v417q0 9 9 9h23z" />
<glyph unicode="&#x43d;" horiz-adv-x="419" d="M369 9q0 -9 -10 -9h-22q-10 0 -10 8v190q0 9 -9 9h-215q-9 0 -9 -9v-189q0 -9 -10 -9h-22q-10 0 -10 8v419q0 8 9 8h24q9 0 9 -8v-176q0 -10 9 -10h215q9 0 9 10v176q0 8 9 8h23q10 0 10 -8v-418v0z" />
<glyph unicode="&#x43e;" horiz-adv-x="421" d="M373 156q0 -77 -42.5 -119t-118.5 -42q-79 0 -121 43t-42 116v128q0 71 43.5 114.5t119.5 43.5q75 0 118 -42.5t43 -116.5v-125zM332 280q0 54 -30 89t-90 35q-54 0 -88 -34.5t-34 -88.5v-126q0 -57 31 -91t91 -34t90 34t30 92v124z" />
<glyph unicode="&#x43f;" horiz-adv-x="427" d="M376 7q0 -7 -7 -7h-28q-7 0 -7 6v383q0 9 -8 9h-226q-7 0 -7 -8v-383q0 -7 -7 -7h-28q-7 0 -7 6v422q0 7 7 7h311q7 0 7 -7v-421v0z" />
<glyph unicode="&#x440;" horiz-adv-x="425" d="M379 159q0 -30 -8.5 -60t-27 -53t-48 -37.5t-71.5 -14.5q-39 0 -67.5 13.5t-49.5 37.5q-10 10 -10 -4v-215q0 -6 -7 -6h-28q-7 0 -7 6v602q0 7 7 7h26q7 0 7 -7v-37q0 -11 10 -1q18 23 48.5 36.5t67.5 13.5q75 0 116.5 -43.5t41.5 -112.5v-125zM338 281q0 55 -29.5 89 t-91.5 34q-54 0 -87.5 -34t-33.5 -86v-128q0 -26 9 -48.5t25 -40t38 -27.5t49 -10q32 0 55 10t37.5 27t21.5 40.5t7 49.5v124z" />
<glyph unicode="&#x441;" horiz-adv-x="371" d="M343 377q5 -8 -2 -12l-18 -15q-6 -4 -13 3q-17 24 -44 37.5t-58 13.5q-54 0 -88 -34.5t-34 -87.5v-129q0 -57 34.5 -89.5t88.5 -32.5q36 0 61 13.5t42 36.5q4 7 11 2l18 -11q5 -4 5.5 -7t-1.5 -6q-23 -33 -58.5 -48.5t-78.5 -15.5q-77 0 -120 43t-43 115v128 q0 36 12.5 65.5t34.5 50t52 32t65 11.5q86 0 134 -63z" />
<glyph unicode="&#x442;" horiz-adv-x="347" d="M333 408q0 -9 -10 -9h-130v-390q0 -5 -1.5 -7t-7.5 -2h-23q-10 0 -10 8v158v107.5v66.5v36.5t-0.5 16t-0.5 5.5h-7.5t-17 0.5t-36.5 0.5h-66q-10 0 -10 9v17q0 9 10 9h300q10 0 10 -8v-18z" />
<glyph unicode="&#x443;" horiz-adv-x="361" d="M160 -6q2 6 -3 6h-6q-9 0 -12 9l-131 417q-2 9 7 9h25q8 0 12 -8l117 -382q2 -5 4 -5q4 0 5 5l128 381q1 3 3 6t8 3h24q9 0 8 -9l-201 -598q-2 -11 -15 -11h-20q-10 0 -7 12z" />
<glyph unicode="&#x444;" horiz-adv-x="506" d="M270 -173q0 -7 -6 -7h-25q-7 0 -7 6v155q0 9 -3.5 12t-9.5 3q-37 2 -68.5 16t-54 38t-35 55.5t-12.5 68.5v99q0 33 11.5 62t34 51.5t54.5 37t73 17.5q9 0 9 12v175q0 3 1 6t6 3h26q7 0 7 -9q0 -43 -0.5 -87.5t-0.5 -86.5q0 -8 3.5 -10t8.5 -3q80 -7 127.5 -51.5 t47.5 -116.5v-99q0 -38 -12.5 -69.5t-35 -55t-54 -37.5t-70.5 -17q-5 -1 -10 -3t-5 -10v-155zM415 271q0 54 -36 90t-97 41q-5 0 -8.5 -1.5t-3.5 -10.5v-346q0 -11 10 -11q30 1 55 12.5t43 30.5t27.5 44t9.5 54v97zM90 164q0 -26 10 -49.5t28 -41.5t42.5 -29t53.5 -11 q7 0 7 11v345q0 12 -8 12q-33 -1 -58 -11.5t-41.5 -28.5t-25 -41.5t-8.5 -48.5v-107z" />
<glyph unicode="&#x445;" horiz-adv-x="343" d="M336 9q6 -9 -5 -9h-27q-6 0 -9.5 1.5t-7.5 7.5l-110 179q-2 5 -4.5 4t-4.5 -4l-110 -179q-4 -6 -7.5 -7.5t-8.5 -1.5h-27q-11 0 -5 9l131 208q5 8 5 11.5t-5 10.5l-116 187q-2 3 -1 6t6 3h26q7 0 10 -1t7 -8l96 -157q4 -8 8 1l95 156q4 7 7 8t10 1h26q5 0 6 -3t-1 -6 l-117 -188q-5 -8 -3.5 -11.5t3.5 -6.5z" />
<glyph unicode="&#x446;" horiz-adv-x="427" d="M63 0q-10 0 -10 9v417q0 5 3.5 6.5t6.5 1.5h24q9 0 9 -8v-382q0 -7 2 -8t7 -1h213q9 0 9 9v381q0 9 8 9h23q10 0 10 -8v-383q0 -8 8 -8h13q6 0 6.5 -3.5t0.5 -7.5v-124q0 -7 -6 -7h-23q-8 0 -8 7v93q0 7 -8 7h-288v0z" />
<glyph unicode="&#x447;" horiz-adv-x="400" d="M33 429q0 6 6 6h29q7 0 7 -6v-104q0 -26 4 -48.5t16 -39.5t35 -27t61 -10q32 0 65 16t47 39q2 3 3.5 8.5t1.5 18.5v147q0 6 6 6h28q8 0 8 -6v-423q0 -6 -7 -6h-29q-6 0 -6 6v194q0 7 -2 7q-1 0 -5 -2q-25 -21 -57 -31.5t-65 -10.5q-45 0 -73.5 13t-44.5 35.5t-22 52.5 t-6 63v102v0z" />
<glyph unicode="&#x448;" horiz-adv-x="639" d="M545 426q0 9 10 9h23q6 0 7.5 -2t1.5 -7v-417q0 -9 -11 -9h-514q-10 0 -10 8v418q0 9 9 9h23q9 0 9 -9v-382q0 -8 8 -8h186q8 0 8 8v382q0 9 9 9h24q10 0 10 -9v-382q0 -3 1 -5.5t7 -2.5h192q7 0 7 8v382z" />
<glyph unicode="&#x449;" horiz-adv-x="647" d="M588 43q0 -8 8 -8h13q6 0 6.5 -3.5t0.5 -7.5v-124q0 -7 -6 -7h-23q-8 0 -8 7v93q0 7 -8 7h-510q-10 0 -10 8v418q0 8 10 8h23q9 0 9 -8v-382q0 -9 8 -9h185q9 0 9 8v383q0 8 9 8h24q9 0 9 -8v-383q0 -2 1.5 -5t6.5 -3h195q6 0 6 6v385q0 8 10 8h23q6 0 7.5 -1.5t1.5 -6.5 v-383z" />
<glyph unicode="&#x44a;" horiz-adv-x="511" d="M443 133q0 19 -6 36.5t-18 31t-29 22t-39 8.5h-138q-8 0 -8 -6v-184q0 -6 7 -6h139q24 0 41 9t28.5 23t17 31.5t5.5 34.5zM19 399q-10 0 -10 9v18q0 8 10 8h176q10 0 10 -8v-153q0 -6 7 -6h134q65 0 101.5 -38t36.5 -96q0 -33 -11 -58t-30 -41.5t-44.5 -25t-53.5 -8.5 h-171q-4 0 -7.5 2t-3.5 7v381q0 5 -1.5 7t-7.5 2h-135z" />
<glyph unicode="&#x44b;" horiz-adv-x="518" d="M52 426q0 9 10 9h21q11 0 11 -9v-152q0 -6 6 -6h141q31 0 55.5 -11t41.5 -29.5t26 -43t9 -50.5t-9 -50t-26 -42.5t-41.5 -30t-55.5 -11.5h-178q-11 0 -11 10v416zM466 9q0 -5 -1.5 -7t-8.5 -2h-21q-11 0 -11 9v417q0 9 11 9h21q10 0 10 -9v-417zM241 36q21 0 38 9t29 23 t18 31.5t6 34.5q0 19 -6 36.5t-18 31t-29 21.5t-38 8h-138q-9 0 -9 -6v-183q0 -6 7 -6h140z" />
<glyph unicode="&#x44c;" horiz-adv-x="399" d="M52 426q0 9 10 9h21q11 0 11 -9v-152q0 -6 6 -6h141q31 0 55.5 -11t41.5 -29.5t26 -43t9 -50.5t-9 -50t-26 -42.5t-41.5 -30t-55.5 -11.5h-178q-11 0 -11 10v416zM241 36q21 0 38 9t29 23t18 31.5t6 34.5q0 19 -6 36.5t-18 31t-29 21.5t-38 8h-138q-9 0 -9 -6v-183 q0 -6 7 -6h140z" />
<glyph unicode="&#x44d;" horiz-adv-x="365" d="M22 377q23 31 59.5 47t79.5 16q75 0 114 -43.5t39 -115.5v-128q0 -72 -43 -115t-120 -43q-43 0 -78.5 15.5t-58.5 48.5q-2 3 -1.5 6t5.5 7l20 11q7 5 11 -2q17 -23 41 -36.5t60 -13.5q54 0 88.5 32.5t34.5 89.5v41q0 8 -5.5 10.5t-12.5 2.5h-168q-3 0 -4 2t-1 4v24 q0 6 6 6h170q3 0 9 2t6 12v25q0 53 -28 87.5t-88 34.5q-31 0 -57 -13.5t-43 -37.5q-7 -7 -13 -3l-20 15q-7 4 -2 12z" />
<glyph unicode="&#x44e;" horiz-adv-x="536" d="M186 201q0 6 -8 6h-76q-6 0 -7.5 -2t-1.5 -5v-191q0 -9 -9 -9h-23q-9 0 -9 9v417q0 9 9 9h23q9 0 9 -8v-178q0 -7 8 -7h79q6 0 6 7v33q0 71 39 114.5t113 43.5t112.5 -42.5t38.5 -116.5v-125q0 -77 -37.5 -119t-113.5 -42q-78 0 -115 43t-37 116v47zM448 280 q0 54 -27.5 89t-82.5 35q-54 0 -82.5 -34.5t-28.5 -88.5v-126q0 -57 28.5 -91t82.5 -34q56 0 83 34t27 92v124z" />
<glyph unicode="&#x44f;" horiz-adv-x="403" d="M338 435q7 0 10 -3.5t3 -7.5v-414q0 -10 -9 -10h-24q-9 0 -9 10v166q0 6 -7 6h-141q-7 0 -11 -7l-78 -165q-3 -5 -5 -7.5t-10 -2.5h-24q-6 0 -7 3.5t1 8.5l82 169q1 2 1.5 3.5t-1.5 3.5q-29 22 -48 54t-19 70q0 54 32 88.5t90 34.5h174zM168 399q-26 0 -42.5 -8.5 t-25.5 -21.5t-12.5 -29t-3.5 -31q0 -20 12 -44.5t37 -41.5q4 -4 17 -4h153q6 0 6 7v164q0 9 -8 9h-133z" />
<glyph unicode="&#x451;" horiz-adv-x="408" d="M372 231q0 -9 -4.5 -13t-9.5 -4h-257q-12 0 -12 -13v-48q0 -52 33 -87t89 -35q33 0 58.5 13t42.5 36q6 8 13 3l19 -12q6 -5 4 -11q-21 -32 -57 -48.5t-81 -16.5q-75 0 -118.5 42.5t-43.5 114.5v126q0 38 12.5 68t34 51t51 32t63.5 11q35 0 65 -10.5t51.5 -31t34 -51.5 t12.5 -73v-43zM330 283q0 53 -33 87t-88 34q-26 0 -47.5 -9t-38 -25.5t-25.5 -38.5t-9 -47v-24q0 -11 12 -11h220q9 0 9 11v23zM313 563q0 -12 -8.5 -21t-20.5 -9q-13 0 -21.5 9t-8.5 21q0 13 8.5 21.5t20.5 8.5t21 -8.5t9 -21.5zM159 563q0 -13 -9 -21.5t-20 -8.5 q-12 0 -20.5 9t-8.5 21q0 13 8.5 21.5t20.5 8.5t20.5 -8.5t8.5 -21.5z" />
<glyph unicode="&#x452;" horiz-adv-x="453" d="M362 278q0 52 -30.5 88t-90.5 36q-27 0 -49 -9.5t-38 -26.5t-25 -39.5t-9 -47.5v-273q0 -6 -6 -6h-28q-7 0 -7 6v494q-1 7 -9 7h-57q-7 0 -7 6v20q0 7 6 7h59q8 1 8 9v81q0 7 7 7h27q7 0 7 -7v-83q0 -7 7 -7h194q6 0 6 -6v-20q0 -7 -6 -7h-193q-8 0 -8 -8v-106q0 -8 4 -8 q3 0 6 4q19 25 52 37.5t65 12.5q45 0 75 -14t48 -37.5t25.5 -54t7.5 -63.5v-121q0 -28 -7.5 -57t-25.5 -53t-48 -40t-75 -17h-16q-12 0 -12 9v18q0 8 10 8h12q34 1 57 13t37.5 30.5t20.5 42t6 47.5v128z" />
<glyph unicode="&#x453;" horiz-adv-x="321" d="M320 408q0 -9 -9 -9h-214q-8 0 -8.5 -3.5t-0.5 -9.5v-377q0 -9 -9 -9h-24q-9 0 -9 8v417q0 9 10 9h255q9 0 9 -8v-18zM170 494q-6 -7 -13 -3l-9 6q-2 2 -3.5 4.5t1.5 8.5l68 124q3 5 7 7t11 -2l21 -13q7 -4 7 -9q0 -2 -1 -3.5t-2 -3.5z" />
<glyph unicode="&#x454;" horiz-adv-x="367" d="M204 30q36 0 60.5 13.5t41.5 36.5q4 7 11 2l19 -11q6 -4 6 -6t-2 -7q-23 -33 -58.5 -48t-78.5 -15q-77 0 -120 42.5t-43 114.5v128q0 36 12.5 65t34 50t51 32.5t64.5 11.5q88 0 136 -62q6 -7 -2 -13l-15 -11q-7 -5 -10 -4t-9 7q-21 21 -44 34t-55 13q-26 0 -48 -9 t-38.5 -25.5t-26 -38.5t-9.5 -48v-27q0 -13 11 -13h175q6 0 6 -6v-24q0 -2 -1 -4t-4 -2h-176q-10 0 -11 -10v-44q0 -54 34.5 -88t88.5 -34z" />
<glyph unicode="&#x455;" horiz-adv-x="340" d="M314 109q0 -21 -8.5 -42t-26.5 -37t-45.5 -26t-64.5 -10q-45 0 -85 19.5t-60 60.5q-4 6 3 9l22 11q4 2 6 0l4 -4q15 -27 45.5 -44t65.5 -17q46 0 74.5 21.5t28.5 57.5q0 20 -8.5 34.5t-21.5 25t-29.5 18.5t-32.5 14q-22 8 -47.5 17.5t-47.5 24t-36.5 35t-14.5 50.5 q0 28 12 49t31 35t43.5 21.5t49.5 7.5q40 0 74 -13t57 -37q5 -6 -1 -12l-14 -16q-6 -6 -13 1q-20 19 -47.5 30t-55.5 11q-14 0 -30.5 -4t-31 -13t-24 -23t-9.5 -34t10 -34t26 -24t34 -17.5t35 -13.5q25 -9 48.5 -19.5t42.5 -25.5t30.5 -36t11.5 -51z" />
<glyph unicode="&#x456;" horiz-adv-x="172" d="M114 562q0 -13 -9 -22t-21 -9t-21 8.5t-9 22.5q0 13 9 21.5t21 8.5q13 0 21.5 -8.5t8.5 -21.5zM62 428q0 7 7 7h28q7 0 7 -7v-422q0 -6 -7 -6h-28q-7 0 -7 6v422z" />
<glyph unicode="&#x457;" horiz-adv-x="172" d="M62 428q0 7 7 7h28q7 0 7 -7v-422q0 -6 -7 -6h-28q-7 0 -7 6v422zM190 561q0 -12 -8.5 -21t-20.5 -9t-20.5 9t-8.5 21q0 13 8.5 21.5t20.5 8.5t20.5 -8.5t8.5 -21.5zM36 561q0 -13 -8.5 -21.5t-20.5 -8.5t-20.5 9t-8.5 21q0 13 8.5 21.5t20.5 8.5t20.5 -8.5t8.5 -21.5z " />
<glyph unicode="&#x458;" horiz-adv-x="164" d="M115 562q0 -13 -9 -22t-20 -9q-13 0 -22 8.5t-9 22.5q0 13 9 21.5t21 8.5q13 0 21.5 -8.5t8.5 -21.5zM-44 -142q2 6 10 5q8 -2 18 -3t18 -1q38 0 50 20t12 60v489q0 7 7 7h28q7 0 7 -7v-492q0 -57 -24 -86t-77 -29q-14 0 -27 1.5t-21 4.5q-7 1 -6 9z" />
<glyph unicode="&#x459;" horiz-adv-x="623" d="M307 435q10 0 10 -9v-152q0 -2 0.5 -4t5.5 -2h142q31 0 55.5 -11t41.5 -29.5t25.5 -43t8.5 -50.5t-9 -50t-25.5 -42.5t-41 -30t-55.5 -11.5h-179q-11 0 -11 10v380q0 9 -9 9h-125q-7 0 -7 -7v-104q0 -94 -9 -150t-24 -87t-35.5 -43.5t-43.5 -20.5q-7 -1 -10 5l-8 19 q-3 6 7 11q17 9 32 19t26.5 36t18 75t6.5 135v140q0 8 9 8h204zM465 36q21 0 38 9t29 23t18 31.5t6 34.5q0 19 -6 36.5t-17.5 31t-28.5 21.5t-39 8h-140q-8 0 -8 -6v-183q0 -6 7 -6h141z" />
<glyph unicode="&#x45a;" horiz-adv-x="628" d="M323 41q0 -6 7 -6h139q22 0 39 8.5t29 22t18 30t6 33.5q0 38 -24 66.5t-68 28.5h-137q-5 0 -7 -2t-2 -4v-177zM94 266q0 -2 1 -4t6 -2h173q7 0 7 7v159q0 8 11 8h21q10 0 10 -9v-159q0 -6 7 -6h138q27 0 51 -9.5t42.5 -26.5t29 -41t10.5 -53q0 -24 -8 -47t-23.5 -40.5 t-38 -29t-50.5 -13.5h-188q-12 0 -12 9v208q0 6 -9 6h-171q-5 0 -6 -1.5t-1 -3.5v-209q0 -9 -9 -9h-24q-10 0 -10 8v418q0 9 10 9h23q10 0 10 -9v-160z" />
</font>
</defs>
</svg>
