<?xml version="1.0" standalone="no"?>
<!DOCTYPE svg PUBLIC "-//W3C//DTD SVG 1.1//EN" "http://www.w3.org/Graphics/SVG/1.1/DTD/svg11.dtd" >
<svg xmlns="http://www.w3.org/2000/svg">
<metadata></metadata>
<defs>
<font id="neo_tech_altmedium" horiz-adv-x="1290" >
<font-face units-per-em="2048" ascent="1638" descent="-410" />
<missing-glyph horiz-adv-x="512" />
<glyph horiz-adv-x="2048" />
<glyph horiz-adv-x="2048" />
<glyph unicode="&#xd;" horiz-adv-x="512" />
<glyph unicode=" "  horiz-adv-x="512" />
<glyph unicode="&#x09;" horiz-adv-x="512" />
<glyph unicode="&#xa0;" horiz-adv-x="512" />
<glyph unicode="!" horiz-adv-x="524" d="M123 1518v2q0 16 13.5 27.5t29.5 11.5h194q17 0 29 -11t12 -28v-2l-30 -1039q0 -15 -13 -28t-28 -13h-133q-16 0 -29.5 12.5t-13.5 28.5zM131 35v231q0 17 11 28t28 11h184q17 0 28 -11t11 -28v-231q0 -18 -11.5 -29.5t-27.5 -11.5h-184q-16 0 -27.5 11.5t-11.5 29.5z " />
<glyph unicode="&#x22;" horiz-adv-x="860" d="M59 1077q0 13 2 19l105 424q8 39 41 39h192q25 0 25 -23q0 -4 -4 -16l-139 -424q-12 -39 -39 -39h-164q-19 0 -19 20zM469 1077q0 13 2 19l104 424q10 39 41 39h193q25 0 25 -23q0 -1 -5 -16l-139 -424q-11 -39 -39 -39h-164q-18 0 -18 20z" />
<glyph unicode="#" horiz-adv-x="1401" d="M74 436v4l10 92q1 17 12.5 29t28.5 12h176l33 365l-166 2q-17 0 -29 10.5t-12 26.5v4l10 92q1 17 12.5 29t28.5 12h170l33 369q1 15 12.5 27t26.5 12h164q14 0 22 -10.5t8 -24.5v-4l-32 -369h266l33 369q4 39 39 39h161q31 0 31 -35v-4l-33 -369h178q17 0 29 -10.5 t12 -26.5v-4l-10 -92q-2 -19 -13.5 -30t-27.5 -11l-182 -2l-33 -365h174q17 0 29 -10t12 -26v-5l-10 -92q-2 -18 -13.5 -29.5t-27.5 -11.5h-180l-31 -360q-4 -39 -37 -39h-162q-32 0 -32 35v4l30 360h-266l-31 -360q-4 -39 -36 -39h-164q-14 0 -23.5 11.5t-9.5 23.5v4 l31 360h-170q-17 0 -29 11t-12 26zM535 573h266l33 365h-267z" />
<glyph unicode="$" d="M154 1149q0 150 83.5 249.5t264.5 127.5v172q0 15 12 28t29 13h186q17 0 29 -12t12 -29v-164q186 -10 289 -33q16 -3 26.5 -13.5t10.5 -25.5v-151q0 -16 -9.5 -26.5t-25.5 -10.5h-4q-225 20 -404 20q-215 0 -215 -145q0 -51 34.5 -88.5t133.5 -93.5l246 -138 q160 -88 222.5 -187.5t62.5 -229.5q0 -94 -36.5 -178.5t-118 -147t-212.5 -88.5v-186q0 -19 -12 -30t-29 -11h-186q-17 0 -29 12t-12 29v174q-129 5 -266 34q-39 9 -39 41v148q0 16 11.5 27.5t27.5 11.5h4q55 -7 181 -14t181 -7q90 0 142 21t74 61.5t22 102.5q0 58 -36 99 t-138 101l-271 162q-134 80 -187.5 170t-53.5 205z" />
<glyph unicode="%" horiz-adv-x="1661" d="M82 1022v168q0 172 75.5 257t217.5 85t216.5 -85t74.5 -257v-168q0 -114 -34 -191.5t-99 -115t-158 -37.5q-141 0 -217 86t-76 258zM256 1022q0 -105 30 -149t89 -44q58 0 87.5 44.5t29.5 148.5v168q0 104 -29 147t-88 43q-60 0 -89.5 -42.5t-29.5 -147.5v-168zM279 12 q0 14 8 25l854 1444q14 23 24 32t25 9h172q18 0 18 -17q0 -11 -8 -24l-854 -1444q-15 -26 -23.5 -34.5t-23.5 -8.5h-172q-20 0 -20 18zM997 332v168q0 114 35 191.5t100 115t158 37.5q140 0 215.5 -85t75.5 -259v-168q0 -173 -75.5 -258.5t-215.5 -85.5q-139 0 -216 86 t-77 258zM1171 332q0 -104 30.5 -147.5t88.5 -43.5q59 0 88 43t29 148v168q0 104 -29 147t-88 43q-58 0 -88.5 -43.5t-30.5 -146.5v-168z" />
<glyph unicode="&#x26;" horiz-adv-x="1335" d="M92 1096q0 249 166.5 345.5t425.5 96.5q92 0 199.5 -9.5t185.5 -23.5q21 -4 21 -20v-180q0 -10 -7.5 -15.5t-17.5 -5.5h-381q-107 0 -173 -12t-102 -52.5t-36 -123.5q0 -56 17.5 -112.5t45.5 -100.5h805q18 0 29.5 -10.5t11.5 -28.5v-154q0 -16 -12 -26.5t-29 -10.5h-151 v-612q0 -35 -35 -39l-96 -6t-94 -5t-93 -3t-98 -2q-130 0 -233.5 22t-181.5 75.5t-121.5 145t-43.5 224.5q0 192 127 319q-64 75 -96.5 154t-32.5 170zM375 453q0 -90 38 -138.5t101.5 -65t159.5 -16.5h151v420h-389q-61 -88 -61 -200z" />
<glyph unicode="'" horiz-adv-x="451" d="M59 1077q0 13 2 19l105 424q8 39 41 39h192q25 0 25 -23q0 -4 -4 -16l-139 -424q-12 -39 -39 -39h-164q-19 0 -19 20z" />
<glyph unicode="(" horiz-adv-x="682" d="M113 541v39q0 149 16.5 271.5t51.5 236.5t83 210.5t117 194.5q20 29 70 29h145q25 0 25 -21q0 -13 -11 -33q-98 -181 -159.5 -399t-61.5 -489v-39q0 -269 61 -485.5t160 -401.5q11 -18 11 -33q0 -20 -25 -20h-145q-50 0 -70 28q-69 98 -117 194t-83 210t-51.5 237 t-16.5 271z" />
<glyph unicode=")" horiz-adv-x="682" d="M61 -379q0 15 11 33q62 116 111 247.5t79.5 292.5t30.5 347v39q0 184 -30.5 347t-79.5 294t-111 247q-11 20 -11 33q0 21 25 21h145q50 0 70 -29q65 -90 116 -190t84 -208.5t50.5 -239t17.5 -275.5v-39q0 -145 -17.5 -275.5t-51 -238.5t-84 -208t-115.5 -190 q-20 -28 -70 -28h-145q-25 0 -25 20z" />
<glyph unicode="*" horiz-adv-x="969" d="M80 1194q0 6 2 10l33 101q6 20 26 20q9 0 21 -4l244 -80l-5 254v2q0 39 31 39h107q30 0 30 -41l-2 -254l242 80q12 4 20 4q21 0 27 -20l33 -101q2 -4 2 -10q0 -23 -31 -33l-244 -74l152 -206q10 -15 10 -29q0 -12 -12 -23l-84 -61q-9 -6 -18 -6q-18 0 -31 20l-148 209 l-147 -209q-13 -20 -31 -20q-9 0 -18 6l-86 61q-13 11 -13 23q0 13 11 29l153 206l-241 74q-33 10 -33 33z" />
<glyph unicode="+" d="M170 729v143q0 33 41 33h330v332q0 41 32 41h144q16 0 24.5 -11.5t8.5 -29.5v-332h331q41 0 41 -33v-143q0 -16 -11.5 -24.5t-29.5 -8.5h-331v-329q0 -18 -9 -29.5t-24 -11.5h-144q-32 0 -32 41v329h-330q-18 0 -29.5 9t-11.5 24z" />
<glyph unicode="," horiz-adv-x="530" d="M23 -170q0 8 2 12l125 430q12 39 40 39h197q13 0 21 -6.5t8 -17.5q0 -1 -4 -15l-179 -430q-9 -23 -16 -32t-22 -9h-142q-30 0 -30 29z" />
<glyph unicode="-" horiz-adv-x="657" d="M88 565v129q0 16 11.5 27.5t29.5 11.5h401q17 0 28 -11t11 -28v-129q0 -16 -11.5 -26.5t-27.5 -10.5h-401q-17 0 -29 11t-12 26z" />
<glyph unicode="." horiz-adv-x="530" d="M133 41v231q0 16 12.5 27.5t28.5 11.5h182q18 0 29.5 -10.5t11.5 -28.5v-231q0 -18 -12 -29.5t-29 -11.5h-182q-15 0 -28 12t-13 29z" />
<glyph unicode="/" horiz-adv-x="788" d="M31 33q1 3 1.5 5t0.5 5l446 1438q12 41 39 41h207q13 0 23 -9t10 -22q0 -6 -2 -10l-445 -1438q-13 -43 -39 -43h-206q-13 0 -24 10t-11 23z" />
<glyph unicode="0" d="M111 684v152q0 186 36 322t105.5 219.5t167 122t225.5 38.5t226 -38.5t167.5 -122t105.5 -219.5t36 -322v-152q0 -187 -36 -320.5t-105.5 -218t-167.5 -123t-226 -38.5t-225.5 38.5t-167 123t-105.5 218t-36 320.5zM395 684q0 -176 32 -280.5t87.5 -146.5t130.5 -42 t130.5 42t87.5 146.5t32 280.5v152q0 260 -66.5 365.5t-183.5 105.5t-183.5 -105.5t-66.5 -365.5v-152z" />
<glyph unicode="1" horiz-adv-x="1006" d="M156 1153v178q0 15 14 23l336 159q15 9 47 9h135q17 0 28 -11t11 -28v-1442q0 -18 -11.5 -29.5t-27.5 -11.5h-205q-16 0 -27.5 11.5t-11.5 29.5v1194l-241 -102q-14 -7 -25 -7q-22 0 -22 27z" />
<glyph unicode="2" d="M162 41v201q0 108 41.5 210t111.5 185t158 141l203 135q87 59 123.5 90.5t50.5 66t14 93.5q0 84 -55 118t-184 34q-138 0 -410 -31h-4q-17 0 -27 12.5t-10 28.5v123q0 27 39 39q74 21 190 36t222 15q266 0 384.5 -91t118.5 -284q0 -123 -62 -215t-194 -182l-184 -123 q-100 -67 -163.5 -126t-95.5 -125.5t-32 -149.5v-9h674q19 0 30 -9.5t11 -26.5v-156q0 -18 -12 -29.5t-29 -11.5h-868q-17 0 -29 12t-12 29z" />
<glyph unicode="3" d="M172 74v127q0 16 10.5 26.5t26.5 10.5h4q276 -29 391 -29q122 0 176 53.5t54 163.5v43q0 95 -40.5 151t-148.5 56h-362q-17 0 -28 11t-11 28v129q0 17 11 28t28 11h362q108 0 148.5 53t40.5 147v33q0 91 -50 144t-180 53q-102 0 -168 -6t-223 -23h-4q-16 0 -26.5 9.5 t-10.5 27.5v127q0 15 11.5 25.5t27.5 13.5q91 23 186.5 37t206.5 14q156 0 270 -42.5t179 -136.5t65 -243v-33q0 -208 -176 -303q55 -29 95 -77.5t60.5 -108.5t20.5 -125v-43q0 -111 -39 -195.5t-108 -139t-163 -81t-204 -26.5q-79 0 -141 6t-136 20t-116 25q-39 7 -39 39z " />
<glyph unicode="4" d="M80 408v165q0 37 22 66l631 846q28 37 60 37h186q15 0 28 -13t13 -28v-889h151q17 0 29 -12t12 -29v-143q0 -18 -12 -29.5t-29 -11.5h-151v-326q0 -19 -10 -30t-27 -11h-211q-15 0 -26 12t-11 29v326h-614q-17 0 -29 12t-12 29zM352 602q0 -10 17 -10h368v520q0 12 -6 12 t-14 -12l-359 -498q-6 -6 -6 -12z" />
<glyph unicode="5" d="M172 80v121q0 16 10.5 26.5t26.5 10.5h4q224 -29 391 -29q92 0 146 32.5t75 92t21 151.5v11q0 84 -37 134.5t-118 72.5t-208 22h-276q-9 0 -16 10t-7 17v4l66 729q1 14 13.5 25.5t27.5 11.5h743q18 0 29.5 -10.5t11.5 -28.5v-156q0 -17 -11.5 -28t-29.5 -11h-555 l-30 -340h34q133 0 244 -17t203 -64t146 -139t54 -232v-11q0 -119 -32 -210.5t-97 -156.5t-164 -99.5t-233 -34.5q-61 0 -126.5 6t-138.5 18.5t-128 26.5q-18 5 -28.5 15t-10.5 30z" />
<glyph unicode="6" d="M123 616v236q0 245 63 396t188 220.5t316 69.5q190 0 379 -39q47 -10 47 -43v-127q0 -43 -39 -43h-8q-175 27 -379 27q-105 0 -166.5 -35t-90.5 -116t-32 -222q127 23 285 23q105 0 194.5 -24t159 -77.5t109 -141t39.5 -208.5v-20q0 -114 -34.5 -206.5t-103.5 -161 t-167.5 -104.5t-223.5 -36q-114 0 -212.5 37.5t-170.5 114t-112.5 198.5t-40.5 282zM401 616q0 -239 66 -325t192 -86q118 0 184 64t66 223v20q0 244 -280 244q-109 0 -228 -23v-117z" />
<glyph unicode="7" horiz-adv-x="1204" d="M119 1325v158q0 16 11.5 27.5t29.5 11.5h854q34 0 58 -24t24 -58v-111q0 -15 -37 -94l-553 -1196q-11 -23 -23 -31t-32 -8h-213q-29 0 -29 31q0 6 4 18l588 1225v4q0 4 -2 7t-8 3h-631q-17 0 -29 11t-12 26z" />
<glyph unicode="8" d="M111 440v19q0 100 49.5 186.5t136.5 147.5q-178 115 -178 319v8q0 146 68.5 240t183.5 136t264 42h20q149 0 265.5 -42t186 -135.5t69.5 -240.5v-8q0 -98 -44.5 -178.5t-136.5 -140.5q86 -60 136.5 -146.5t50.5 -187.5v-19q0 -118 -42 -205.5t-115 -143t-166.5 -81.5 t-203.5 -26h-20q-109 0 -201.5 26t-166 82t-115 143.5t-41.5 204.5zM383 1104q0 -95 54.5 -153t166.5 -58h84q113 0 168 58t55 153v8q0 217 -256 217h-20q-252 0 -252 -217v-8zM387 440q0 -106 64.5 -174.5t183.5 -68.5h20q120 0 185 68t65 175v19q0 87 -53.5 156t-163.5 69 h-84q-110 0 -163.5 -69t-53.5 -156v-19z" />
<glyph unicode="9" d="M100 1008v20q0 232 140 370t389 138q156 0 277 -67t190 -208.5t69 -357.5v-235q0 -244 -63 -395.5t-188 -221t-316 -69.5q-194 0 -379 38q-47 11 -47 43v127q0 43 39 43h8q169 -26 379 -26q106 0 167 35t90 116.5t32 221.5q-117 -23 -285 -23q-105 0 -193.5 23.5 t-159.5 78t-110 141.5t-39 208zM379 1008q0 -244 280 -244q41 0 114 7t114 15v117q0 239 -66 325.5t-192 86.5q-117 0 -183.5 -65t-66.5 -222v-20z" />
<glyph unicode=":" horiz-adv-x="530" d="M133 41v231q0 16 12.5 27.5t28.5 11.5h182q18 0 29.5 -10.5t11.5 -28.5v-231q0 -18 -12 -29.5t-29 -11.5h-182q-15 0 -28 12t-13 29zM133 848v231q0 17 12 29t29 12h182q19 0 30 -11t11 -30v-231q0 -17 -11.5 -28t-29.5 -11h-182q-16 0 -28.5 11.5t-12.5 27.5z" />
<glyph unicode=";" horiz-adv-x="530" d="M8 -170q0 8 2 12l125 430q12 39 41 39h197q28 0 28 -24q0 -1 -4 -15l-178 -430q-9 -23 -16 -32t-23 -9h-141q-13 0 -22 9t-9 20zM133 848v231q0 17 12 29t29 12h182q19 0 30 -11t11 -30v-231q0 -17 -11.5 -28t-29.5 -11h-182q-16 0 -28.5 11.5t-12.5 27.5z" />
<glyph unicode="&#x3c;" d="M238 801q0 22 10.5 39.5t36.5 40.5l473 413q10 10 19.5 16.5t25.5 6.5h225q11 0 18 -9t7 -20q0 -15 -13 -24l-532 -463l532 -463q13 -9 13 -25q0 -10 -8 -19t-17 -9h-225q-14 0 -23.5 6t-21.5 16l-473 414q-28 27 -37.5 42.5t-9.5 37.5z" />
<glyph unicode="=" d="M190 481v144q0 32 41 32h830q41 0 41 -32v-144q0 -32 -41 -32h-830q-41 0 -41 32zM190 977v143q0 33 41 33h830q41 0 41 -33v-143q0 -33 -41 -33h-830q-41 0 -41 33z" />
<glyph unicode="&#x3e;" d="M238 313q0 16 12 25l532 463l-532 463q-12 9 -12 24q0 11 6.5 20t17.5 9h225q16 0 24.5 -5.5t20.5 -17.5l474 -413q26 -23 36.5 -40t10.5 -40q0 -22 -9.5 -37.5t-37.5 -42.5l-474 -414q-14 -12 -22.5 -17t-22.5 -5h-225q-10 0 -17 9t-7 19z" />
<glyph unicode="?" horiz-adv-x="895" d="M61 1317v127q0 27 6 39t31 18q62 17 145 27t169 10q212 0 317 -71.5t105 -247.5v-33q0 -70 -27 -139t-119 -177l-125 -147q-10 -13 -32 -38.5t-34.5 -43.5t-20 -41.5t-7.5 -44.5v-78q0 -16 -12 -27.5t-29 -11.5h-170q-17 0 -28 11t-11 28v78q0 97 25 157.5t96 143.5 l131 152q33 39 46 80t13 98v33q0 75 -118 75q-108 0 -308 -22h-8q-35 0 -35 45zM211 39v231q0 17 11.5 29t29.5 12h184q19 0 30 -11t11 -30v-231q0 -17 -11.5 -28t-29.5 -11h-184q-18 0 -29.5 11.5t-11.5 27.5z" />
<glyph unicode="@" horiz-adv-x="1581" d="M74 315q0 43 2 66l30 334q13 144 70.5 263t154 201.5t232 127.5t299.5 45q160 0 282.5 -50t203 -135t121 -195t40.5 -231q0 -182 -53 -306.5t-153 -199t-235.5 -106t-313.5 -31.5q-158 0 -253 75.5t-95 217.5q1 9 1.5 17t0.5 20l18 240q13 168 118.5 253t278.5 85 q85 0 271 -31q47 -7 47 -53v-9l-60 -618q101 16 161.5 75.5t85 152.5t24.5 218q0 128 -53.5 235.5t-165 171.5t-273.5 64q-135 0 -239.5 -33.5t-180.5 -98.5t-120 -160.5t-56 -214.5l-31 -324q-4 -50 -4 -68q0 -188 130.5 -300.5t381.5 -112.5q162 0 297 14h13q14 0 14 -18 v-76q0 -24 -27 -27q-152 -20 -297 -20q-197 0 -348.5 64.5t-235 187t-83.5 290.5zM618 395q0 -62 35.5 -88t114.5 -26h41q39 0 57 2l47 530q-60 10 -112 10q-78 0 -113.5 -36.5t-44.5 -127.5l-22 -229q-3 -12 -3 -35z" />
<glyph unicode="A" horiz-adv-x="1386" d="M154 41v1055q0 243 119.5 339.5t349.5 96.5h141q112 0 197.5 -21t146 -70t93 -133t32.5 -212v-1055q0 -18 -11.5 -29.5t-27.5 -11.5h-207q-15 0 -26 12t-11 29v541h-512v-541q0 -18 -11.5 -29.5t-27.5 -11.5h-206q-16 0 -27.5 11.5t-11.5 29.5zM438 821h512v275 q0 71 -16.5 112t-56 58.5t-113.5 17.5h-141q-72 0 -112 -17t-56.5 -58.5t-16.5 -112.5v-275z" />
<glyph unicode="B" horiz-adv-x="1331" d="M154 117v1290q0 54 21.5 79t70.5 32q51 8 142.5 14t199.5 6q147 0 261 -22.5t196 -70.5t128 -128.5t46 -194.5v-41q0 -68 -21 -128.5t-64.5 -107.5t-103.5 -73q199 -84 199 -311v-35q0 -157 -74.5 -256t-213 -142.5t-335.5 -43.5q-238 0 -354 22q-52 9 -75 33t-23 78z M438 223q26 0 87 -2t81 -2q191 0 267.5 50t76.5 161v27q0 95 -58 156t-194 61h-260v-451zM438 883h260q244 0 244 194v29q0 72 -34 115t-111.5 62.5t-208.5 19.5q-42 0 -150 -5v-415z" />
<glyph unicode="C" horiz-adv-x="1153" d="M113 610v301q0 182 52.5 307t138 194.5t185 97.5t203.5 28q68 0 140.5 -6.5t122 -14.5t61.5 -12q45 -14 45 -47v-137q0 -43 -41 -43h-4q-192 16 -320 16q-139 0 -218 -88.5t-79 -294.5v-301q0 -383 297 -383q116 0 320 17h4q41 0 41 -43v-138q0 -31 -45 -47 q-35 -9 -128.5 -20.5t-195.5 -11.5q-100 0 -200.5 29t-186.5 99t-139 194t-53 304z" />
<glyph unicode="D" horiz-adv-x="1366" d="M154 72v1378q0 54 53 63q45 9 167.5 17t235.5 8q153 0 274 -41t202.5 -120.5t124 -195t42.5 -270.5v-301q0 -153 -42.5 -269t-124 -195.5t-202.5 -120.5t-274 -41q-83 0 -218.5 8t-184.5 16q-53 9 -53 64zM438 229q129 -6 172 -6q171 0 266 86t95 301v301 q0 147 -45.5 232.5t-125.5 120t-190 34.5q-47 0 -62.5 -0.5t-48.5 -2t-61 -3.5v-1063z" />
<glyph unicode="E" horiz-adv-x="1180" d="M154 403v715q0 165 60 258t163 127.5t250 34.5q163 0 238.5 -7.5t150.5 -21.5q24 -3 32.5 -12t8.5 -31v-131q0 -15 -13 -28t-28 -13h-418q-90 0 -126 -38t-36 -138v-221h555q19 0 30 -11t11 -30v-147q0 -18 -12 -29.5t-29 -11.5h-555v-265q0 -99 36 -137.5t126 -38.5h418 q17 0 29 -12t12 -29v-131q0 -38 -41 -43q-24 -3 -57.5 -8.5t-97 -10.5t-103.5 -7t-131 -2q-147 0 -250 34.5t-163 127t-60 257.5z" />
<glyph unicode="F" horiz-adv-x="1180" d="M154 41v1077q0 165 60 258t163 127.5t250 34.5q163 0 238.5 -7.5t150.5 -21.5q24 -3 32.5 -12t8.5 -31v-131q0 -15 -13 -28t-28 -13h-418q-90 0 -126 -38t-36 -138v-221h555q19 0 30 -11t11 -30v-147q0 -18 -12 -29.5t-29 -11.5h-555v-627q0 -18 -12 -29.5t-29 -11.5 h-200q-17 0 -29 12t-12 29z" />
<glyph unicode="G" horiz-adv-x="1300" d="M113 612v295q0 228 83 369t210 201.5t262 60.5q85 0 175 -6.5t162.5 -16t102.5 -14.5q39 -9 39 -43v-137q0 -23 -8.5 -33t-32.5 -10h-6q-188 16 -432 16q-73 0 -134 -37.5t-98 -123.5t-37 -226v-295q0 -135 38.5 -222t98 -125t126.5 -38q108 0 202 6v523q0 16 11.5 28.5 t27.5 12.5h203q15 0 28 -13t13 -28v-688q0 -40 -39 -50q-53 -11 -115 -18t-158.5 -11.5t-172.5 -4.5q-126 0 -252 61t-211.5 202.5t-85.5 364.5z" />
<glyph unicode="H" horiz-adv-x="1458" d="M154 41v1442q0 16 11.5 27.5t29.5 11.5h202q18 0 29.5 -10.5t11.5 -28.5v-565h582v565q0 16 11.5 27.5t29.5 11.5h203q16 0 28.5 -11.5t12.5 -27.5v-1442q0 -17 -13 -29t-28 -12h-203q-17 0 -29 12t-12 29v627h-582v-627q0 -18 -12 -29.5t-29 -11.5h-202q-17 0 -29 12 t-12 29z" />
<glyph unicode="I" horiz-adv-x="592" d="M154 41v1442q0 16 11.5 27.5t29.5 11.5h202q18 0 29.5 -10.5t11.5 -28.5v-1442q0 -18 -12 -29.5t-29 -11.5h-202q-17 0 -29 12t-12 29z" />
<glyph unicode="J" horiz-adv-x="594" d="M-45 -375q0 13 10 33l115 223q53 102 63.5 154.5t10.5 189.5v1258q0 15 10 27t24 12h215q15 0 25 -11t10 -28v-1258q0 -98 -6.5 -158.5t-25.5 -118t-56 -124.5l-98 -174q-18 -30 -30.5 -39.5t-33.5 -9.5h-206q-27 0 -27 24z" />
<glyph unicode="K" horiz-adv-x="1317" d="M154 41v1440q0 16 11.5 27.5t29.5 11.5h202q18 0 29.5 -10.5t11.5 -28.5v-652l502 674q11 17 47 17h234q39 0 39 -25q0 -12 -15 -33l-524 -678l528 -741q11 -18 11 -25q0 -18 -31 -18h-275q-32 0 -47 23l-469 698v-680q0 -18 -12 -29.5t-29 -11.5h-202q-17 0 -29 12 t-12 29z" />
<glyph unicode="L" horiz-adv-x="1057" d="M154 403v1078q0 15 12 28t29 13h202q17 0 29 -12t12 -29v-1078q0 -100 35.5 -138t124.5 -38h377q17 0 29 -12t12 -29v-131q0 -21 -9 -30t-32 -13q-47 -11 -160.5 -19.5t-187.5 -8.5q-147 0 -250 34.5t-163 127t-60 257.5z" />
<glyph unicode="M" horiz-adv-x="1898" d="M154 41v922q0 190 46 304t142 172.5t238.5 78.5t369.5 20q228 0 370.5 -20t237.5 -78.5t141 -172.5t46 -304v-922q0 -18 -11.5 -29.5t-27.5 -11.5h-209q-15 0 -26 12t-11 29v922q0 141 -31.5 209t-106.5 90t-230 22v-1243q0 -18 -11.5 -29.5t-27.5 -11.5h-207 q-16 0 -27.5 11.5t-11.5 29.5v1243q-120 0 -187.5 -11t-107 -43.5t-57 -95t-17.5 -171.5v-922q0 -19 -10 -30t-27 -11h-208q-16 0 -27.5 11.5t-11.5 29.5z" />
<glyph unicode="N" horiz-adv-x="1458" d="M154 41v1399q0 34 24 58t58 24h221q34 0 53.5 -14t36.5 -52l477 -1053q6 -16 16 -16q11 0 11 19v1077q0 17 11 28t28 11h176q17 0 28 -11t11 -28v-1401q0 -34 -24 -58t-58 -24h-207q-47 0 -75 13t-50 61l-455 997q-8 16 -18 16t-10 -16v-1030q0 -18 -11.5 -29.5 t-27.5 -11.5h-174q-17 0 -29 12t-12 29z" />
<glyph unicode="O" horiz-adv-x="1393" d="M113 623v276q0 217 73.5 360.5t205 211t304.5 67.5q172 0 304 -67t206 -210.5t74 -361.5v-276q0 -218 -74 -361.5t-206 -210.5t-304 -67q-173 0 -304.5 67.5t-205 211t-73.5 360.5zM399 623q0 -201 73 -296.5t224 -95.5q152 0 224.5 95.5t72.5 296.5v276 q0 202 -72.5 296.5t-224.5 94.5q-151 0 -224 -94.5t-73 -296.5v-276z" />
<glyph unicode="P" horiz-adv-x="1282" d="M154 41v1409q0 51 65 61q170 27 402 27q124 0 230 -24t186.5 -78.5t126.5 -147.5t46 -223v-18q0 -173 -78 -280t-211 -153.5t-300 -46.5q-17 0 -72 2.5t-72 3.5t-39 2v-534q0 -18 -11.5 -29.5t-27.5 -11.5h-204q-17 0 -29 12t-12 29zM438 807q99 -6 183 -6 q110 0 177 26.5t98.5 80.5t31.5 139v18q0 127 -74.5 182.5t-232.5 55.5q-40 0 -102 -3.5t-81 -5.5v-487z" />
<glyph unicode="Q" horiz-adv-x="1401" d="M113 653v215q0 176 44.5 306t126 210.5t186 117t230.5 36.5q127 0 233 -37t186 -117t124.5 -208t44.5 -308v-215q0 -201 -57 -340t-158.5 -215t-236.5 -98v-319q0 -17 -11 -29t-26 -12h-197q-15 0 -26 12t-11 29v319q-134 22 -236 98.5t-159 215t-57 339.5zM403 653 q0 -413 297 -413q144 0 221.5 96.5t77.5 316.5v215q0 221 -77.5 317.5t-221.5 96.5q-297 0 -297 -414v-215z" />
<glyph unicode="R" horiz-adv-x="1337" d="M154 41v1409q0 51 65 61q170 27 402 27q263 0 426 -108.5t163 -354.5v-18q0 -157 -72.5 -262t-203.5 -156l321 -598q5 -6 5 -16q0 -25 -25 -25h-250q-21 0 -41 41l-295 547h-28q-17 0 -72 2.5t-72 3.5t-39 2v-555q0 -18 -11.5 -29.5t-27.5 -11.5h-204q-17 0 -29 12 t-12 29zM438 825q99 -6 183 -6q110 0 176 22.5t98.5 75t32.5 140.5v18q0 114 -75.5 166.5t-231.5 52.5q-109 0 -183 -8v-461z" />
<glyph unicode="S" horiz-adv-x="1167" d="M92 1149q0 120 50.5 205.5t165 134.5t296.5 49q98 0 220.5 -12t172.5 -25q37 -7 37 -39v-151q0 -17 -9.5 -27t-25.5 -10h-4q-225 20 -403 20q-215 0 -215 -145q0 -51 34.5 -88.5t133.5 -93.5l246 -138q161 -88 222.5 -187.5t61.5 -229.5q0 -179 -127.5 -303.5 t-410.5 -124.5q-203 0 -363 36q-39 10 -39 41v148q0 16 11.5 27.5t27.5 11.5h4q56 -6 125 -10.5t132 -7.5t106 -3q130 0 183.5 45.5t53.5 139.5q0 58 -36 99t-138 101l-270 162q-92 56 -146 114.5t-75 122.5t-21 138z" />
<glyph unicode="T" horiz-adv-x="1186" d="M51 1321v162q0 16 12.5 27.5t28.5 11.5h1002q16 0 28.5 -11.5t12.5 -27.5v-162q0 -17 -12.5 -27t-28.5 -10h-359v-1243q0 -18 -12 -29.5t-29 -11.5h-202q-17 0 -29 12t-12 29v1243h-359q-16 0 -28.5 10t-12.5 27z" />
<glyph unicode="U" horiz-adv-x="1421" d="M143 559v924q0 16 12.5 27.5t28.5 11.5h203q18 0 29.5 -10.5t11.5 -28.5v-924q0 -122 23.5 -195.5t83.5 -109t167 -35.5q59 0 130 4t153 13v1247q0 17 11 28t28 11h203q16 0 28.5 -11.5t12.5 -27.5v-1340q0 -62 -25.5 -88.5t-85.5 -36.5q-50 -7 -211.5 -20.5 t-243.5 -13.5q-265 0 -412 133t-147 442z" />
<glyph unicode="V" horiz-adv-x="1343" d="M49 1487q0 16 11.5 25.5t25.5 9.5h217q31 0 39 -35l297 -1231q5 -20 11.5 -26.5t21.5 -6.5t21.5 7t11.5 26l296 1231q10 35 39 35h217q16 0 26.5 -9.5t10.5 -25.5q0 -3 -0.5 -5t-1.5 -5l-336 -1284q-54 -209 -284 -209q-231 0 -285 209l-336 1284q0 4 -0.5 6t-1.5 4z" />
<glyph unicode="W" horiz-adv-x="1898" d="M154 559v924q0 15 12 27t29 12h202q17 0 29 -11t12 -28v-924q0 -134 17 -203.5t65.5 -99t149.5 -29.5h137v1254q0 15 12 28t29 13h203q16 0 28.5 -11t12.5 -26v-1258h137q100 0 148.5 29.5t65.5 99t17 203.5v924q0 15 13 27t28 12h203q15 0 28 -12t13 -27v-924 q0 -184 -51 -312.5t-151 -195.5t-243 -67q-72 0 -128.5 4.5t-110 16t-111.5 34.5q-56 -23 -111 -34.5t-111.5 -16t-129.5 -4.5q-107 0 -189 37t-140 112t-86.5 182t-28.5 244z" />
<glyph unicode="X" horiz-adv-x="1311" d="M41 1495q0 10 9.5 18.5t23.5 8.5h241q26 0 54 -39l299 -477l276 477q22 39 53 39h224q13 0 22.5 -7.5t9.5 -19.5q0 -4 -4 -12l-430 -721l451 -721q4 -6 4 -16q0 -25 -33 -25h-242q-25 0 -53 41l-301 483l-283 -483q-21 -41 -53 -41h-223q-33 0 -33 27q0 6 4 14l437 727 l-449 715q-4 8 -4 12z" />
<glyph unicode="Y" horiz-adv-x="1274" d="M51 1495q0 12 10 19.5t23 7.5h233q21 0 37 -33l283 -602l283 602q17 33 38 33h232q13 0 23 -7.5t10 -19.5q0 -8 -6 -20l-437 -871v-563q0 -18 -11.5 -29.5t-27.5 -11.5h-211q-16 0 -26 12t-10 29v563l-437 871q-6 12 -6 20z" />
<glyph unicode="Z" horiz-adv-x="1225" d="M92 76v112q0 39 27 78l649 973q6 9 6 18q0 17 -20 17h-570q-16 0 -27.5 9.5t-11.5 27.5v172q0 17 11 28t28 11h826q48 0 78 -20t30 -58v-119q0 -40 -28 -84l-639 -956q-9 -12 -9 -23q0 -12 19 -12h631q18 0 29.5 -10t11.5 -27v-172q0 -17 -13 -29t-28 -12h-895 q-105 0 -105 76z" />
<glyph unicode="[" horiz-adv-x="729" d="M143 -358v1841q0 15 10 27t25 12h455q18 0 28.5 -9t10.5 -24v-150q0 -34 -39 -34h-215v-1485h215q16 0 27.5 -9.5t11.5 -25.5v-150q0 -32 -39 -32h-455q-15 0 -25 12t-10 27z" />
<glyph unicode="\" horiz-adv-x="788" d="M31 1491q0 13 11 22t24 9h204q29 0 41 -41l447 -1454q1 -3 1.5 -5t0.5 -6q0 -13 -10.5 -22.5t-24.5 -9.5h-207q-25 0 -37 43l-448 1454q0 4 -0.5 6t-1.5 4z" />
<glyph unicode="]" horiz-adv-x="729" d="M57 -215q0 16 11.5 25.5t27.5 9.5h215v1485h-215q-39 0 -39 32v150q0 16 11.5 25.5t27.5 9.5h455q15 0 25 -12t10 -27v-1841q0 -15 -10 -27t-25 -12h-455q-39 0 -39 32v150z" />
<glyph unicode="^" d="M168 1174q0 11 10 24l232 303q17 23 29 30t36 7h340q24 0 37 -7.5t29 -29.5l231 -303q10 -13 10 -24q0 -19 -24 -19h-209q-21 0 -30 5.5t-32 27.5l-182 209l-182 -209q-18 -20 -29.5 -26.5t-32.5 -6.5h-208q-25 0 -25 19z" />
<glyph unicode="_" horiz-adv-x="1071" d="M-63 -121q0 33 40 33h1117q41 0 41 -33v-80q0 -32 -41 -32h-1117q-40 0 -40 32v80z" />
<glyph unicode="`" horiz-adv-x="850" d="M66 1581q0 14 22 14h217q19 0 28 -5.5t25 -24.5l193 -246q8 -8 8 -21q0 -14 -18 -14h-176q-16 0 -21.5 3t-26.5 24l-243 254q-8 8 -8 16z" />
<glyph unicode="a" horiz-adv-x="1122" d="M92 328v10q0 91 25.5 155t82.5 108t148.5 65.5t226.5 21.5h144v90q0 96 -42.5 131t-137.5 35q-200 0 -334 -16q-24 0 -35.5 7.5t-11.5 27.5v131q0 33 39 43q164 32 342 32q146 0 246 -43t152 -131.5t52 -216.5v-698q0 -22 -5 -30.5t-23 -14.5q-90 -24 -176 -37.5 t-210 -13.5q-252 0 -367.5 81t-115.5 263zM365 332q0 -58 18.5 -88.5t63 -43t128.5 -12.5q87 0 144 17v303h-144q-93 0 -137 -16.5t-58.5 -51t-14.5 -96.5v-12z" />
<glyph unicode="b" horiz-adv-x="1182" d="M133 92v1426q0 15 13 28t28 13h188q17 0 29 -12t12 -29v-363q106 14 197 14q163 0 272.5 -61t163.5 -177t54 -276v-157q0 -160 -54 -276t-163.5 -177t-272.5 -61q-208 0 -412 53q-24 6 -35 12.5t-15.5 16.5t-4.5 26zM403 219q68 -14 197 -14q124 0 171.5 77t47.5 216v157 q0 140 -47.5 216.5t-171.5 76.5q-95 0 -197 -14v-715z" />
<glyph unicode="c" horiz-adv-x="958" d="M92 481v191q0 162 60 274t166.5 167.5t240.5 55.5q91 0 155.5 -7.5t108.5 -18.5q25 -6 34 -17.5t9 -35.5v-134q0 -30 -37 -30h-6q-115 14 -264 14q-84 0 -140.5 -60.5t-56.5 -207.5v-191q0 -145 56.5 -206.5t140.5 -61.5q93 0 153 4t111 10h6q37 0 37 -30v-134 q0 -24 -9 -35.5t-34 -17.5q-102 -26 -264 -26q-134 0 -240.5 55.5t-166.5 167.5t-60 274z" />
<glyph unicode="d" horiz-adv-x="1182" d="M92 498v157q0 160 54 276t163.5 177t272.5 61q90 0 196 -14v363q0 15 13 28t28 13h189q15 0 28 -13t13 -28v-1426q0 -24 -10.5 -35t-45.5 -20q-103 -26 -208 -39.5t-203 -13.5q-241 0 -365.5 135t-124.5 379zM362 498q0 -139 48.5 -216t171.5 -77q128 0 196 14v715 q-100 14 -196 14q-124 0 -172 -76.5t-48 -216.5v-157z" />
<glyph unicode="e" horiz-adv-x="1176" d="M98 498v151q0 241 129.5 380.5t362.5 139.5q153 0 263.5 -66t167 -183t56.5 -271v-114q0 -52 -41 -52h-667v-6q0 -107 56 -183.5t189 -76.5q176 0 377 21h6q37 0 37 -31v-135q0 -27 -8.5 -37.5t-34.5 -16.5q-97 -18 -186 -26t-211 -8q-84 0 -169.5 26t-160.5 84.5 t-120.5 159t-45.5 244.5zM371 676h434v8q0 77 -27 134.5t-75.5 87.5t-112.5 30q-98 0 -158.5 -66.5t-60.5 -185.5v-8z" />
<glyph unicode="f" horiz-adv-x="776" d="M123 43v1212q0 128 45.5 200t121.5 100t179 28q55 0 116 -4.5t103 -11.5q37 -5 37 -33v-121q0 -35 -31 -35h-178q-72 0 -96.5 -24.5t-24.5 -98.5v-100h289q19 0 30 -11t11 -30v-123q0 -17 -11.5 -28t-29.5 -11h-289v-909q0 -18 -11.5 -30.5t-29.5 -12.5h-188 q-17 0 -30 13t-13 30z" />
<glyph unicode="g" horiz-adv-x="1182" d="M92 498v157q0 160 54 276t163.5 177t272.5 61q66 0 136.5 -6.5t145 -19.5t129.5 -27q35 -9 45.5 -20t10.5 -35v-1057q0 -216 -112 -315t-349 -99q-231 0 -383 50q-41 11 -41 49v108q0 35 39 35h4q288 -25 381 -25q82 0 122.5 16t54 54.5t13.5 112.5v16q-118 -22 -196 -22 q-241 0 -365.5 135t-124.5 379zM362 498q0 -139 48.5 -216t171.5 -77q82 0 196 16v709q-38 8 -87.5 13t-108.5 5q-124 0 -172 -76.5t-48 -216.5v-157z" />
<glyph unicode="h" horiz-adv-x="1212" d="M133 43v1475q0 15 13 28t28 13h188q17 0 29 -12t12 -29v-369q100 20 197 20q241 0 360 -114.5t119 -315.5v-696q0 -18 -11.5 -30.5t-29.5 -12.5h-188q-18 0 -29.5 13.5t-11.5 29.5v696q0 107 -49 156t-160 49q-125 0 -197 -18v-883q0 -18 -11.5 -30.5t-29.5 -12.5h-188 q-16 0 -28.5 13.5t-12.5 29.5z" />
<glyph unicode="i" horiz-adv-x="549" d="M133 1350v180q0 16 13.5 28.5t29.5 12.5h199q15 0 28 -13t13 -28v-180q0 -17 -13 -29t-28 -12h-199q-16 0 -29.5 11.5t-13.5 29.5zM139 43v1071q0 17 12 29t29 12h189q17 0 29 -12t12 -29v-1071q0 -16 -12.5 -29.5t-28.5 -13.5h-189q-16 0 -28.5 13.5t-12.5 29.5z" />
<glyph unicode="j" horiz-adv-x="549" d="M-68 -227q0 32 43 32h93q33 0 48 10t19 33.5t4 65.5v1200q0 17 12 29t29 12h189q17 0 29 -12t12 -29v-1200q0 -179 -76 -251.5t-228 -72.5q-64 0 -135 13q-39 6 -39 37v133zM135 1350v180q0 15 13 28t28 13h197q16 0 29.5 -12.5t13.5 -28.5v-180q0 -18 -13.5 -29.5 t-29.5 -11.5h-197q-15 0 -28 12t-13 29z" />
<glyph unicode="k" horiz-adv-x="1124" d="M133 43v1475q0 15 13 28t28 13h188q17 0 29 -12t12 -29v-854l351 466q18 25 47 25h229q31 0 31 -22q0 -10 -8 -21l-412 -506l416 -565q6 -9 6 -16q0 -11 -8 -18t-21 -7h-250q-15 0 -32 12.5t-27 28.5l-322 467v-465q0 -18 -11.5 -30.5t-29.5 -12.5h-188q-16 0 -28.5 13.5 t-12.5 29.5z" />
<glyph unicode="l" horiz-adv-x="557" d="M143 43v1475q0 15 13 28t28 13h191q16 0 27.5 -12.5t11.5 -28.5v-1475q0 -17 -11 -30t-28 -13h-191q-16 0 -28.5 13.5t-12.5 29.5z" />
<glyph unicode="m" horiz-adv-x="1735" d="M133 43v735q0 191 108.5 291t305.5 100h49q178 0 270 -82q94 82 273 82h49q129 0 222.5 -44.5t142.5 -131.5t49 -215v-735q0 -17 -11 -30t-28 -13h-193q-17 0 -28 13t-11 30v735q0 100 -33 133t-110 33h-49q-83 0 -109 -40t-26 -126v-735q0 -17 -11 -30t-28 -13h-195 q-17 0 -28 13t-11 30v735q0 86 -26 126t-109 40h-49q-77 0 -110.5 -33.5t-33.5 -132.5v-735q0 -17 -10.5 -30t-27.5 -13h-193q-17 0 -28 13t-11 30z" />
<glyph unicode="n" horiz-adv-x="1192" d="M123 43v709q0 190 106.5 303.5t302.5 113.5h127q130 0 222.5 -52t140 -146t47.5 -219v-709q0 -17 -11 -30t-28 -13h-192q-17 0 -28 13t-11 30v709q0 89 -29 140.5t-111 51.5h-127q-81 0 -110 -51.5t-29 -140.5v-709q0 -17 -11 -30t-28 -13h-192q-17 0 -28 13t-11 30z" />
<glyph unicode="o" horiz-adv-x="1176" d="M98 494v165q0 146 56.5 263t166.5 182t267 65q155 0 266 -65t167 -182t56 -263v-165q0 -146 -56 -263t-167 -182t-266 -65q-157 0 -267 65t-166.5 182t-56.5 263zM369 494q0 -127 56.5 -202t162.5 -75q105 0 162 74.5t57 202.5v165q0 128 -56.5 202.5t-162.5 74.5 q-107 0 -163 -74.5t-56 -202.5v-165z" />
<glyph unicode="p" horiz-adv-x="1182" d="M133 -365v1426q0 24 10.5 35t44.5 20q204 53 412 53q163 0 272.5 -61t163.5 -177t54 -276v-157q0 -160 -54 -276t-163.5 -177t-272.5 -61q-91 0 -197 14v-363q0 -17 -12 -29t-29 -12h-188q-15 0 -28 13t-13 28zM403 219q102 -14 197 -14q124 0 171.5 77t47.5 216v157 q0 140 -47.5 216.5t-171.5 76.5q-64 0 -112.5 -3.5t-84.5 -10.5v-715z" />
<glyph unicode="q" horiz-adv-x="1182" d="M92 498v157q0 160 54 276t163.5 177t272.5 61q66 0 136.5 -6.5t145 -19.5t129.5 -27q35 -9 45.5 -20t10.5 -35v-1426q0 -15 -13 -28t-28 -13h-189q-15 0 -28 13t-13 28v363q-106 -14 -196 -14q-241 0 -365.5 135t-124.5 379zM362 498q0 -139 48.5 -216t171.5 -77 q96 0 196 14v715q-34 7 -83 10.5t-113 3.5q-124 0 -172 -76.5t-48 -216.5v-157z" />
<glyph unicode="r" horiz-adv-x="715" d="M133 43v1006q0 43 55 61q93 31 189.5 45t226.5 14q60 0 60 -34v-156q0 -37 -60 -37q-53 0 -107.5 -3t-93.5 -11v-885q0 -17 -10.5 -30t-27.5 -13h-191q-16 0 -28.5 13.5t-12.5 29.5z" />
<glyph unicode="s" horiz-adv-x="1001" d="M92 862q0 307 389 307q120 0 198.5 -10.5t166.5 -30.5q37 -9 37 -47v-118q0 -39 -35 -39h-6q-174 24 -338 24q-75 0 -108.5 -19t-33.5 -67q0 -23 15.5 -37t66.5 -47l269 -164q82 -50 125 -101t57 -102t14 -108q0 -90 -45 -162.5t-136.5 -114.5t-219.5 -42q-69 0 -175 9.5 t-192 31.5q-39 10 -39 47v123q0 12 11 22t26 10h6q182 -22 344 -22q86 0 116 25.5t30 72.5q0 30 -21 53t-69 52l-281 172q-79 49 -125.5 122t-46.5 160z" />
<glyph unicode="t" horiz-adv-x="776" d="M123 291v1032q0 34 41 41l190 33h6q14 0 24.5 -13t10.5 -28v-201h289q19 0 30 -11t11 -30v-121q0 -17 -12 -29t-29 -12h-289v-661q0 -59 28 -77.5t97 -18.5h162q43 0 43 -31v-127q0 -31 -39 -37q-37 -6 -107.5 -11t-132.5 -5q-80 0 -138.5 15.5t-99.5 50t-63 95.5 t-22 146z" />
<glyph unicode="u" horiz-adv-x="1192" d="M123 479v633q0 17 11 30t28 13h192q17 0 28 -13t11 -30v-633q0 -100 23.5 -158.5t66 -81t107.5 -22.5h12q65 0 107.5 22.5t66 81t23.5 158.5v633q0 17 11 30t28 13h192q17 0 28 -13t11 -30v-633q0 -202 -84 -313t-188 -146.5t-195 -35.5h-12q-91 0 -195 35.5t-188 146.5 t-84 313z" />
<glyph unicode="v" horiz-adv-x="1128" d="M49 1122q0 13 9 23t24 10h205q32 0 41 -41l196 -858q10 -51 39 -51t39 51l197 858q4 20 15.5 30.5t27.5 10.5h205q14 0 23 -9t9 -24q0 -10 -2 -14l-258 -932q-52 -192 -256 -192q-202 0 -254 192l-258 932q-2 4 -2 14z" />
<glyph unicode="w" horiz-adv-x="1772" d="M133 514v602q0 17 13 28t28 11h184q19 0 30 -11t11 -28v-602q0 -136 34 -200.5t86.5 -80.5t142.5 -16h88v897q0 17 11.5 29t29.5 12h190q19 0 30 -11t11 -30v-897h88q91 0 143.5 16t85.5 81t33 200v602q0 15 12 27t29 12h184q17 0 29 -11t12 -28v-602q0 -198 -61.5 -316 t-163.5 -166t-237 -48q-173 0 -289 53q-116 -53 -291 -53q-463 0 -463 530z" />
<glyph unicode="x" horiz-adv-x="1141" d="M35 23q0 9 6 18l367 555l-347 518q-6 9 -6 16q0 10 7.5 17.5t19.5 7.5h242q17 0 27.5 -8.5t25.5 -32.5l207 -319l192 319q17 27 27 34t28 7h218q20 0 20 -18q0 -7 -8 -23l-338 -516l373 -557q6 -9 6 -18q0 -23 -25 -23h-243q-16 0 -24.5 6t-29.5 35l-233 360l-221 -360 q-16 -25 -27.5 -33t-28.5 -8h-213q-22 0 -22 23z" />
<glyph unicode="y" horiz-adv-x="1223" d="M133 498v616q0 17 12 29t29 12h188q19 0 30 -11t11 -30v-616q0 -139 48.5 -216t171.5 -77q82 0 196 16v893q0 17 12 29t29 12h189q17 0 29 -12t12 -29v-1110q0 -216 -112 -315t-349 -99q-231 0 -383 50q-41 11 -41 49v108q0 35 39 35h4q288 -25 381 -25q82 0 122.5 16 t54 54.5t13.5 112.5v16q-118 -22 -196 -22q-241 0 -365.5 135t-124.5 379z" />
<glyph unicode="z" horiz-adv-x="1004" d="M82 82v88q0 30 27 66l495 682q6 9 6 12q0 6 -12 6h-463q-15 0 -26 8.5t-11 24.5v145q0 17 12 29t29 12h697q33 0 57.5 -24.5t24.5 -59.5v-117q0 -32 -11 -47l-477 -653l-4 -8q0 -6 12 -6h447q16 0 26.5 -9t10.5 -24v-166q0 -17 -13 -29t-28 -12h-717q-34 0 -58 24t-24 58 z" />
<glyph unicode="{" horiz-adv-x="743" d="M76 477v164q64 44 91.5 97t27.5 132v310q0 137 30 209t109.5 102.5t232.5 30.5h117q16 0 27.5 -9.5t11.5 -25.5v-150q0 -32 -39 -32h-96q-54 0 -78.5 -11.5t-32.5 -38.5t-8 -75v-310q0 -109 -37 -184.5t-123 -126.5q86 -51 124 -126.5t38 -184.5v-311q0 -50 8 -76.5 t32.5 -37.5t78.5 -11h94q18 0 28.5 -9t10.5 -24v-150q0 -16 -11.5 -25.5t-27.5 -9.5h-115q-118 0 -188 16.5t-111.5 56.5t-57 103t-15.5 167v311q0 80 -29.5 133.5t-91.5 95.5z" />
<glyph unicode="|" horiz-adv-x="561" d="M143 -356v1837q0 15 13 28t28 13h195q16 0 27.5 -12.5t11.5 -28.5v-1837q0 -18 -11.5 -29.5t-27.5 -11.5h-195q-15 0 -28 12t-13 29z" />
<glyph unicode="}" horiz-adv-x="743" d="M20 -221q0 15 11 24t28 9h95q52 0 77 11t33 37.5t8 76.5v311q0 109 37.5 184t124.5 127q-84 51 -122 126.5t-38 184.5v310q0 48 -8 75.5t-33 38.5t-77 11h-97q-39 0 -39 32v150q0 16 11.5 25.5t27.5 9.5h117q153 0 233.5 -30.5t110 -102.5t29.5 -209v-310 q0 -79 27.5 -132t91.5 -97v-164q-62 -42 -91.5 -95.5t-29.5 -133.5v-311q0 -104 -16 -168t-56.5 -103t-111 -55.5t-189.5 -16.5h-115q-16 0 -27.5 9.5t-11.5 25.5v150z" />
<glyph unicode="~" d="M162 741v54q0 150 66 218t200 68q91 0 152 -43l180 -123q39 -26 82 -26q37 0 54 18t17 66v53q0 41 35 41h144q38 0 38 -41v-53q0 -152 -65 -218.5t-199 -66.5q-38 0 -79.5 10t-73.5 31l-181 125q-38 27 -79 27q-74 0 -74 -86v-54q0 -41 -35 -41h-145q-37 0 -37 41z" />
<glyph unicode="&#xa0;" />
<glyph unicode="&#xa1;" horiz-adv-x="524" d="M127 -369l31 1039q0 15 12 28t29 13h133q16 0 29.5 -12.5t13.5 -28.5l31 -1039v-2q0 -16 -13.5 -27.5t-30.5 -11.5h-194q-17 0 -29 12t-12 27v2zM135 883v231q0 18 11 29.5t28 11.5h184q18 0 28.5 -11.5t10.5 -29.5v-231q0 -17 -11 -28t-28 -11h-184q-17 0 -28 11t-11 28 z" />
<glyph unicode="&#xa2;" d="M238 481v191q0 127 38 225t107.5 160.5t161.5 89.5v180q0 17 11.5 29t29.5 12h168q17 0 29 -12t12 -29v-160q89 -4 174 -24q25 -6 34 -17.5t9 -35.5v-134q0 -30 -37 -30h-6q-115 14 -264 14q-85 0 -141 -60.5t-56 -207.5v-191q0 -145 56 -206.5t141 -61.5q93 0 153 4 t111 10h6q16 0 26.5 -7.5t10.5 -22.5v-134q0 -24 -9 -35.5t-34 -17.5q-85 -20 -174 -24v-164q0 -17 -13 -29t-28 -12h-168q-17 0 -29 12t-12 29v184q-92 27 -161.5 89.5t-107.5 160.5t-38 225z" />
<glyph unicode="&#xa3;" d="M141 702v154q0 16 12.5 27.5t28.5 11.5h101v197q0 105 25 179.5t82 127.5t152.5 79.5t237.5 26.5q70 0 177 -9.5t157 -18.5q26 -4 31.5 -12.5t5.5 -26.5v-150q0 -37 -35 -37h-4q-19 1 -146.5 11t-185.5 10q-118 0 -168.5 -38t-50.5 -142v-197h379q18 0 29.5 -10.5 t11.5 -28.5v-154q0 -36 -39 -36h-381v-256q0 -98 -49 -183h596q17 0 29 -9t12 -25v-156q0 -17 -12.5 -27t-28.5 -10h-875q-36 0 -36 53v105q0 23 16 47q27 39 48.5 96.5t21.5 108.5v256h-103q-16 0 -27.5 9.5t-11.5 26.5z" />
<glyph unicode="&#xa4;" d="M121 1145q0 14 10 24l98 99q12 10 21 10q15 0 33 -16l168 -168q90 55 196 55q99 0 189 -53l172 172q14 14 30 14q13 0 23 -10l98 -98q10 -12 10 -23q0 -17 -14 -31l-174 -172q53 -86 53 -186q0 -106 -55 -195l170 -172q14 -14 14 -30q0 -13 -10 -23l-96 -98 q-11 -11 -23 -11q-15 0 -30 15l-177 176q-82 -49 -180 -49q-103 0 -186 51l-174 -172q-22 -16 -33 -16q-9 0 -21 10l-96 98q-10 13 -10 25q0 16 14 30l172 170q-55 94 -55 191q0 98 49 180l-172 172q-14 14 -14 31zM459 766q0 -77 57 -134t133 -57q78 0 133.5 56.5 t55.5 134.5q0 52 -25.5 94.5t-69 67t-94.5 24.5t-94.5 -24.5t-69.5 -66.5t-26 -95z" />
<glyph unicode="&#xa5;" d="M59 1495q0 12 10 19.5t23 7.5h234q20 0 36 -33l283 -602l283 602q17 33 39 33h231q33 0 33 -27q0 -8 -6 -20l-234 -465h191q16 0 28.5 -11t12.5 -26v-129q0 -18 -11.5 -27.5t-27.5 -9.5h-293l-103 -203v-24h394q16 0 28.5 -11t12.5 -26v-129q0 -18 -11.5 -27.5 t-27.5 -9.5h-396v-336q0 -18 -10.5 -29.5t-27.5 -11.5h-211q-17 0 -27 12t-10 29v336h-398q-38 0 -38 37v129q0 15 12 26t28 11h396v24l-103 203h-295q-38 0 -38 37v129q0 15 12 26t28 11h193l-233 465q-7 11 -7 20z" />
<glyph unicode="&#xa6;" horiz-adv-x="561" d="M143 317q0 17 12 29t29 12h195q18 0 28.5 -11.5t10.5 -29.5v-706q0 -17 -11 -30t-28 -13h-195q-16 0 -28.5 13.5t-12.5 29.5v706zM143 743v707q0 17 12 29t29 12h195q18 0 28.5 -11.5t10.5 -29.5v-707q0 -17 -11 -30t-28 -13h-195q-16 0 -28.5 13.5t-12.5 29.5z" />
<glyph unicode="&#xa7;" horiz-adv-x="1174" d="M90 737q0 132 57 211q-57 87 -57 215q0 119 49.5 202t161.5 128t299 45q97 0 224.5 -12t179.5 -25q38 -8 38 -39v-162q0 -16 -10 -26t-28 -10h-3q-43 3 -118.5 8.5t-155 9.5t-123.5 4h-6q-113 0 -162 -33.5t-49 -103.5q0 -52 33 -89.5t131 -92.5l246 -138 q108 -59 171.5 -122.5t89 -133t25.5 -153.5q0 -128 -53 -219q53 -83 53 -207q0 -116 -51.5 -215.5t-171.5 -160t-313 -60.5q-211 0 -377 39q-41 8 -41 38v160q0 17 12 27t29 10h4q127 -12 202.5 -18.5t160.5 -6.5h14q88 1 137 23t68.5 61.5t19.5 96.5q0 60 -32.5 99.5 t-133.5 98.5l-256 152q-151 90 -207.5 181t-56.5 218zM315 729q0 -45 17 -80t55.5 -66.5t122.5 -82.5l158 -94q98 -59 149 -107q25 46 25 123q0 53 -17.5 91t-61.5 74.5t-136 92.5l-162 96q-83 50 -111 76q-39 -46 -39 -123z" />
<glyph unicode="&#xa8;" horiz-adv-x="850" d="M104 1350v180q0 16 13.5 28.5t29.5 12.5h148q16 0 29.5 -12.5t13.5 -28.5v-180q0 -18 -13.5 -29.5t-29.5 -11.5h-148q-16 0 -29.5 11.5t-13.5 29.5zM514 1350v180q0 16 13.5 28.5t29.5 12.5h148q16 0 29.5 -12.5t13.5 -28.5v-180q0 -18 -13.5 -29.5t-29.5 -11.5h-148 q-16 0 -29.5 11.5t-13.5 29.5z" />
<glyph unicode="&#xa9;" horiz-adv-x="1536" d="M92 766q0 138 52.5 263t145 218.5t215.5 146t261 52.5q139 0 262.5 -52.5t216 -145t146 -218.5t53.5 -264q0 -137 -53.5 -262t-146 -216.5t-216.5 -143.5t-262 -52q-137 0 -261 52.5t-216 144.5t-144.5 216t-52.5 261zM190 766q0 -154 77 -286t210 -209.5t289 -77.5 t289 77t210.5 209t77.5 287q0 156 -78 289t-211 212t-288 79t-288.5 -79t-210.5 -212.5t-77 -288.5zM438 711v123q0 195 88.5 289t245.5 94q105 0 176 -19q29 -7 29 -27v-100q0 -24 -27 -24h-4q-112 10 -174 10q-156 0 -156 -223v-123q0 -224 156 -224q26 1 54 2t46.5 2.5 t34 3t39.5 3.5h4q27 0 27 -25v-98q0 -22 -29 -29q-74 -18 -176 -18q-157 0 -245.5 94t-88.5 289z" />
<glyph unicode="&#xaa;" horiz-adv-x="686" d="M66 1036v15q0 71 36 114t104.5 62.5t170.5 19.5h53v27q0 60 -23 83t-73 23q-83 0 -191 -10h-2q-10 0 -19 8t-9 21v78q0 23 28 30q98 25 193 25q135 0 205.5 -60.5t70.5 -197.5v-391q0 -28 -18 -33q-112 -31 -238 -31q-148 0 -218 53t-70 164zM238 1036q0 -47 26 -66.5 t90 -19.5q11 0 28.5 2t28 3.5t19.5 2.5v183q-7 1 -14.5 1.5t-24.5 0.5q-12 0 -14 -2q-76 0 -107.5 -20.5t-31.5 -69.5v-15z" />
<glyph unicode="&#xab;" horiz-adv-x="1411" d="M113 578q0 34 16 51l332 364q12 14 25 20.5t36 6.5h195q31 0 31 -23q0 -7 -7 -14l-370 -405l370 -406q7 -7 7 -14q0 -23 -31 -23h-195q-23 0 -34 5.5t-27 21.5l-332 364q-16 17 -16 52zM700 578q0 34 17 51l332 364q12 14 25 20.5t36 6.5h195q30 0 30 -23q0 -8 -6 -14 l-371 -405l371 -406q6 -6 6 -14q0 -23 -30 -23h-195q-23 0 -34 5.5t-27 21.5l-332 364q-17 17 -17 52z" />
<glyph unicode="&#xac;" d="M190 979v143q0 33 41 33h834q16 0 26.5 -9.5t10.5 -25.5v-704q0 -17 -13 -29t-28 -12h-127q-17 0 -29 12t-12 29v530h-662q-41 0 -41 33z" />
<glyph unicode="&#xad;" horiz-adv-x="657" d="M88 565v129q0 16 11.5 27.5t29.5 11.5h401q17 0 28 -11t11 -28v-129q0 -16 -11.5 -26.5t-27.5 -10.5h-401q-17 0 -29 11t-12 26z" />
<glyph unicode="&#xae;" horiz-adv-x="1225" d="M49 991q0 151 76 282t205.5 206t281.5 75q153 0 283 -75t206.5 -205.5t76.5 -282.5q0 -153 -76 -282.5t-206.5 -205t-283.5 -75.5q-152 0 -282 75.5t-205.5 205.5t-75.5 282zM145 991q0 -126 62.5 -234t170.5 -170.5t234 -62.5t234.5 62.5t171.5 170t63 234.5t-63 235 t-171 171t-235 63t-234.5 -63t-170 -171.5t-62.5 -234.5zM365 680v608q0 50 45 55q54 9 172 9q139 0 208.5 -49.5t69.5 -165.5v-13q0 -135 -127 -180l148 -252q4 -8 4 -16q0 -23 -23 -23h-104q-14 0 -23 17l-143 241q-5 11 -21 11h-63v-242q0 -11 -7 -19t-18 -8h-94 q-10 0 -17 9t-7 18zM504 1032q27 0 47 -0.5t41 -1.5q69 0 100 23t31 71v13q0 50 -30 71t-101 21h-64h-24v-197z" />
<glyph unicode="&#xaf;" horiz-adv-x="1071" d="M-63 1642v80q0 33 40 33h1117q41 0 41 -33v-80q0 -32 -41 -32h-1117q-40 0 -40 32z" />
<glyph unicode="&#xb0;" horiz-adv-x="723" d="M57 1233q0 83 41.5 153t111.5 111t152 41q64 0 119 -23t98 -66t66 -97.5t23 -118.5t-23 -118t-66.5 -97.5t-100 -66.5t-116.5 -23q-82 0 -152 41t-111.5 111t-41.5 153zM203 1233q0 -65 46.5 -112.5t112.5 -47.5q67 0 114.5 46.5t47.5 113.5q0 34 -13 63.5t-34.5 51 t-50 34.5t-64.5 13q-67 0 -113 -48t-46 -114z" />
<glyph unicode="&#xb1;" d="M170 2v115q0 15 11.5 24t29.5 9h870q18 0 29.5 -8.5t11.5 -24.5v-115q0 -16 -11.5 -24.5t-29.5 -8.5h-870q-18 0 -29.5 9t-11.5 24zM170 729v143q0 33 41 33h330v332q0 41 32 41h144q16 0 24.5 -11.5t8.5 -29.5v-332h331q41 0 41 -33v-143q0 -16 -11.5 -24.5t-29.5 -8.5 h-331v-329q0 -18 -9 -29.5t-24 -11.5h-144q-32 0 -32 41v329h-330q-18 0 -29.5 9t-11.5 24z" />
<glyph unicode="&#xb2;" horiz-adv-x="707" d="M80 711v94q0 114 45 190.5t145 143.5l113 75q40 27 53 48t13 53q0 40 -29 55.5t-109 15.5q-83 0 -190 -14h-4q-25 0 -25 25v84q0 17 27 24q37 13 96.5 23t120.5 10q149 0 221 -53t72 -170q0 -65 -31.5 -113.5t-105.5 -99.5l-101 -68q-60 -40 -90 -68t-39.5 -52.5 t-9.5 -59.5v-12h340q10 0 19.5 -8t9.5 -17v-108q0 -11 -9.5 -18t-19.5 -7h-483q-12 0 -20.5 8.5t-8.5 18.5z" />
<glyph unicode="&#xb3;" horiz-adv-x="707" d="M82 741v82q0 25 22 25h5q95 -10 139 -10q105 0 151.5 18.5t46.5 73.5v20q0 41 -21.5 72t-76.5 31h-201q-26 0 -26 26v88q0 27 26 27h193q57 0 81.5 27.5t24.5 66.5v10q0 54 -41.5 70t-119.5 16h-41q-24 0 -73 -5.5t-58 -6.5h-4q-23 0 -23 25v84q0 18 25 26q93 31 208 31 q306 0 306 -217v-14q0 -120 -99 -183q97 -57 97 -174v-20q0 -114 -80.5 -180t-223.5 -66q-52 0 -112 8.5t-105 24.5q-20 8 -20 24z" />
<glyph unicode="&#xb4;" horiz-adv-x="850" d="M291 1298q0 13 8 21l195 246q15 19 24.5 24.5t28.5 5.5h215q22 0 22 -14q0 -8 -8 -16l-241 -254q-13 -14 -22.5 -20.5t-27.5 -6.5h-176q-18 0 -18 14z" />
<glyph unicode="&#xb5;" horiz-adv-x="1202" d="M123 -352v1464q0 16 11.5 29.5t29.5 13.5h190q18 0 29.5 -12.5t11.5 -30.5v-709q0 -196 213 -196q114 0 197 22v883q0 16 11.5 29.5t29.5 13.5h190q17 0 30 -13t13 -30v-1026q0 -40 -55 -53q-185 -49 -416 -49q-132 0 -211 63v-399q0 -19 -10 -30t-27 -11h-198 q-16 0 -27.5 11.5t-11.5 29.5z" />
<glyph unicode="&#xb6;" horiz-adv-x="1319" d="M92 969v96q0 144 63.5 247t176 156.5t254.5 53.5h577q33 0 33 -39v-1843q0 -17 -10 -28t-25 -11h-71q-15 0 -25 12t-10 27v1744h-125v-1744q0 -15 -10 -27t-25 -12h-72q-15 0 -25 12t-10 27v872h-202q-142 0 -254.5 53.5t-176 156.5t-63.5 247z" />
<glyph unicode="&#xb7;" horiz-adv-x="530" d="M133 674v231q0 16 12.5 27.5t28.5 11.5h182q18 0 29.5 -10.5t11.5 -28.5v-231q0 -18 -12 -29.5t-29 -11.5h-182q-15 0 -28 12t-13 29z" />
<glyph unicode="&#xb8;" horiz-adv-x="825" d="M113 -367q0 13 8 21l192 246q18 20 26.5 25t27.5 5h217q22 0 22 -14q0 -8 -8 -16l-244 -252q-19 -21 -25.5 -25t-21.5 -4h-176q-18 0 -18 14z" />
<glyph unicode="&#xb9;" horiz-adv-x="610" d="M82 1294v125q0 16 16 21l170 73q12 9 23 9h112q23 0 23 -21v-794q0 -23 -20 -23h-142q-20 0 -20 23v636l-138 -57q-12 -4 -14 -4q-10 0 -10 12z" />
<glyph unicode="&#xba;" horiz-adv-x="731" d="M68 1141v69q0 158 77 240t222 82q146 0 222.5 -82t76.5 -240v-69q0 -158 -76.5 -240t-222.5 -82q-145 0 -222 82t-77 240zM248 1141q0 -88 28.5 -129t90.5 -41q61 0 88.5 40.5t27.5 129.5v69q0 90 -27.5 129t-88.5 39q-62 0 -90.5 -39.5t-28.5 -128.5v-69z" />
<glyph unicode="&#xbb;" horiz-adv-x="1411" d="M106 158q0 7 7 14l370 406l-370 405q-7 7 -7 14q0 23 31 23h195q24 0 35.5 -6t25.5 -21l332 -364q16 -17 16 -51q0 -35 -16 -52l-332 -364q-17 -17 -27 -22t-34 -5h-195q-31 0 -31 23zM694 158q0 8 6 14l371 406l-371 405q-6 6 -6 14q0 23 31 23h195q24 0 36 -6.5 t25 -20.5l332 -364q16 -17 16 -51q0 -35 -16 -52l-332 -364q-16 -16 -26.5 -21.5t-34.5 -5.5h-195q-31 0 -31 23z" />
<glyph unicode="&#xbc;" horiz-adv-x="1573" d="M82 1294v125q0 16 16 21l170 73q12 9 23 9h112q23 0 23 -21v-794q0 -23 -20 -23h-142q-20 0 -20 23v636l-138 -57q-12 -4 -14 -4q-10 0 -10 12zM182 12q0 14 8 25l859 1450q13 21 20.5 28t24.5 7h172q20 0 20 -17q0 -13 -8 -24l-858 -1452q-12 -22 -20 -28.5t-23 -6.5 h-174q-21 0 -21 18zM874 211v104q0 27 13 45l344 469q9 13 24 13h95q17 0 31 -12.5t14 -32.5v-461h67q13 0 21 -6.5t8 -18.5v-92q0 -10 -8.5 -18t-20.5 -8h-67v-164q0 -12 -8.5 -20.5t-18.5 -8.5h-129q-9 0 -17 9t-8 20v164h-317q-11 0 -17 4t-6 14zM1030 348q0 -12 14 -12 h177v268q0 6 -2 6q-4 0 -7 -6l-174 -237q-8 -10 -8 -19z" />
<glyph unicode="&#xbd;" horiz-adv-x="1630" d="M82 1294v125q0 16 16 21l170 73q12 9 23 9h112q23 0 23 -21v-794q0 -23 -20 -23h-142q-20 0 -20 23v636l-138 -57q-12 -4 -14 -4q-10 0 -10 12zM182 12q0 14 8 25l859 1450q13 21 20.5 28t24.5 7h172q20 0 20 -17q0 -13 -8 -24l-858 -1452q-12 -22 -20 -28.5t-23 -6.5 h-174q-21 0 -21 18zM999 27v94q0 109 45.5 183.5t145.5 141.5l113 76q41 28 53 47.5t12 53.5q0 40 -29 55.5t-108 15.5q-82 0 -191 -14h-4q-24 0 -24 25v83q0 18 26 25q106 33 217 33q151 0 222 -53.5t71 -169.5q0 -65 -31.5 -113.5t-105.5 -99.5l-100 -68 q-87 -59 -113.5 -93.5t-26.5 -86.5v-4h340q11 0 20 -7t9 -18v-108q0 -12 -9 -18.5t-20 -6.5h-483q-10 0 -19.5 8.5t-9.5 18.5z" />
<glyph unicode="&#xbe;" horiz-adv-x="1753" d="M82 741v82q0 25 22 25h5q95 -10 139 -10q105 0 151.5 18.5t46.5 73.5v20q0 41 -21.5 72t-76.5 31h-201q-26 0 -26 26v88q0 27 26 27h193q57 0 81.5 27.5t24.5 66.5v10q0 54 -41.5 70t-119.5 16h-41q-24 0 -73 -5.5t-58 -6.5h-4q-23 0 -23 25v84q0 18 25 26q93 31 208 31 q306 0 306 -217v-14q0 -120 -99 -183q97 -57 97 -174v-20q0 -114 -80.5 -180t-223.5 -66q-52 0 -112 8.5t-105 24.5q-20 8 -20 24zM322 12q0 14 8 25l858 1450q13 21 20.5 28t24.5 7h172q20 0 20 -17q0 -13 -8 -24l-858 -1452q-13 -23 -20.5 -29t-22.5 -6h-174q-20 0 -20 18 zM1014 211v104q0 28 12 45l344 469q9 13 25 13h94q17 0 31 -12.5t14 -32.5v-461h68q12 0 20 -6.5t8 -18.5v-92q0 -10 -8.5 -18t-19.5 -8h-68v-164q0 -12 -8.5 -20.5t-18.5 -8.5h-129q-10 0 -17 9t-7 20v164h-318q-10 0 -16 4t-6 14zM1169 348q0 -3 4.5 -7.5t10.5 -4.5h176 v268q0 6 -2 6q-3 0 -6 -6l-174 -237q-9 -11 -9 -19z" />
<glyph unicode="&#xbf;" horiz-adv-x="895" d="M61 -37q0 71 26 137.5t120 178.5l125 147q55 65 74.5 95.5t19.5 72.5v78q0 15 12 27t29 12h170q17 0 28 -11t11 -28v-78q0 -97 -24.5 -156t-96.5 -145l-131 -152q-34 -40 -46.5 -83t-12.5 -95v-33q0 -42 27 -58.5t91 -16.5q65 0 161 8t147 14h8q35 0 35 -45v-127 q0 -27 -6.5 -39t-30.5 -18q-138 -37 -314 -37q-209 0 -315.5 72t-106.5 247v33zM418 885v231q0 16 11.5 27.5t29.5 11.5h184q18 0 29.5 -10.5t11.5 -28.5v-231q0 -18 -12 -29.5t-29 -11.5h-184q-17 0 -29 12t-12 29z" />
<glyph unicode="&#xc0;" horiz-adv-x="1386" d="M154 41v1055q0 243 119.5 339.5t349.5 96.5h141q112 0 197.5 -21t146 -70t93 -133t32.5 -212v-1055q0 -18 -11.5 -29.5t-27.5 -11.5h-207q-15 0 -26 12t-11 29v541h-512v-541q0 -18 -11.5 -29.5t-27.5 -11.5h-206q-16 0 -27.5 11.5t-11.5 29.5zM396 1923q0 14 22 14h217 q19 0 28 -5.5t25 -24.5l193 -246q8 -8 8 -21q0 -14 -18 -14h-176q-16 0 -21.5 3t-26.5 24l-243 254q-8 8 -8 16zM438 821h512v275q0 71 -16.5 112t-56 58.5t-113.5 17.5h-141q-72 0 -112 -17t-56.5 -58.5t-16.5 -112.5v-275z" />
<glyph unicode="&#xc1;" horiz-adv-x="1386" d="M154 41v1055q0 243 119.5 339.5t349.5 96.5h141q112 0 197.5 -21t146 -70t93 -133t32.5 -212v-1055q0 -18 -11.5 -29.5t-27.5 -11.5h-207q-15 0 -26 12t-11 29v541h-512v-541q0 -18 -11.5 -29.5t-27.5 -11.5h-206q-16 0 -27.5 11.5t-11.5 29.5zM438 821h512v275 q0 71 -16.5 112t-56 58.5t-113.5 17.5h-141q-72 0 -112 -17t-56.5 -58.5t-16.5 -112.5v-275zM513 1640q0 13 8 21l195 246q15 19 24.5 24.5t28.5 5.5h215q22 0 22 -14q0 -8 -8 -16l-241 -254q-13 -14 -22.5 -20.5t-27.5 -6.5h-176q-18 0 -18 14z" />
<glyph unicode="&#xc2;" horiz-adv-x="1386" d="M154 41v1055q0 243 119.5 339.5t349.5 96.5h141q112 0 197.5 -21t146 -70t93 -133t32.5 -212v-1055q0 -18 -11.5 -29.5t-27.5 -11.5h-207q-15 0 -26 12t-11 29v541h-512v-541q0 -18 -11.5 -29.5t-27.5 -11.5h-206q-16 0 -27.5 11.5t-11.5 29.5zM313 1640q0 13 8 21 l189 246q15 19 24.5 24.5t28.5 5.5h266q19 0 28 -5.5t25 -24.5l187 -246q8 -8 8 -21q0 -14 -19 -14h-170q-11 0 -18.5 3t-14.5 10l-14 14l-145 166l-145 -166q-13 -14 -22.5 -20.5t-27.5 -6.5h-170q-18 0 -18 14zM438 821h512v275q0 71 -16.5 112t-56 58.5t-113.5 17.5h-141 q-72 0 -112 -17t-56.5 -58.5t-16.5 -112.5v-275z" />
<glyph unicode="&#xc3;" horiz-adv-x="1386" d="M154 41v1055q0 243 119.5 339.5t349.5 96.5h141q112 0 197.5 -21t146 -70t93 -133t32.5 -212v-1055q0 -18 -11.5 -29.5t-27.5 -11.5h-207q-15 0 -26 12t-11 29v541h-512v-541q0 -18 -11.5 -29.5t-27.5 -11.5h-206q-16 0 -27.5 11.5t-11.5 29.5zM309 1658v43 q0 230 229 230q80 0 141 -46l90 -67q53 -41 86 -41q58 0 58 68v43q0 32 28 32h117q29 0 29 -32v-46q0 -229 -228 -229q-35 0 -73 12t-70 35l-90 68q-58 43 -86 43q-57 0 -57 -70v-43q0 -33 -29 -33h-117q-28 0 -28 33zM438 821h512v275q0 71 -16.5 112t-56 58.5t-113.5 17.5 h-141q-72 0 -112 -17t-56.5 -58.5t-16.5 -112.5v-275z" />
<glyph unicode="&#xc4;" horiz-adv-x="1386" d="M154 41v1055q0 243 119.5 339.5t349.5 96.5h141q112 0 197.5 -21t146 -70t93 -133t32.5 -212v-1055q0 -18 -11.5 -29.5t-27.5 -11.5h-207q-15 0 -26 12t-11 29v541h-512v-541q0 -18 -11.5 -29.5t-27.5 -11.5h-206q-16 0 -27.5 11.5t-11.5 29.5zM376 1688v180 q0 16 13.5 28.5t29.5 12.5h148q16 0 29.5 -12.5t13.5 -28.5v-180q0 -18 -13.5 -29.5t-29.5 -11.5h-148q-16 0 -29.5 11.5t-13.5 29.5zM438 821h512v275q0 71 -16.5 112t-56 58.5t-113.5 17.5h-141q-72 0 -112 -17t-56.5 -58.5t-16.5 -112.5v-275zM786 1688v180 q0 16 13.5 28.5t29.5 12.5h148q16 0 29.5 -12.5t13.5 -28.5v-180q0 -18 -13.5 -29.5t-29.5 -11.5h-148q-16 0 -29.5 11.5t-13.5 29.5z" />
<glyph unicode="&#xc5;" horiz-adv-x="1386" d="M154 41v1055q0 243 119.5 339.5t349.5 96.5h141q112 0 197.5 -21t146 -70t93 -133t32.5 -212v-1055q0 -18 -11.5 -29.5t-27.5 -11.5h-207q-15 0 -26 12t-11 29v541h-512v-541q0 -18 -11.5 -29.5t-27.5 -11.5h-206q-16 0 -27.5 11.5t-11.5 29.5zM438 821h512v275 q0 71 -16.5 112t-56 58.5t-113.5 17.5h-141q-72 0 -112 -17t-56.5 -58.5t-16.5 -112.5v-275zM471 1820q0 93 66 160t161 67t160 -66.5t65 -160.5q0 -61 -30 -113t-82 -82t-113 -30q-60 0 -113 30t-83.5 81.5t-30.5 113.5zM604 1822q0 -40 27 -69t67 -29t69 29t29 69 q0 41 -29.5 68.5t-68.5 27.5t-66.5 -27.5t-27.5 -68.5z" />
<glyph unicode="&#xc6;" horiz-adv-x="1978" d="M154 41v1055q0 243 119.5 339.5t349.5 96.5h141q215 0 321 -74q61 45 144.5 62.5t195.5 17.5q216 0 390 -29q23 -3 31.5 -12t8.5 -31v-131q0 -17 -12 -29t-28 -12h-418q-90 0 -126 -38t-36 -138v-221h555q17 0 29 -12t12 -29v-147q0 -17 -13 -29t-28 -12h-555v-265 q0 -99 36 -137.5t126 -38.5h418q18 0 29 -11t11 -30v-131q0 -38 -40 -43q-24 -3 -57.5 -8.5t-97 -10.5t-104 -7t-131.5 -2q-145 0 -249.5 34.5t-165 126.5t-60.5 258v179h-512v-541q0 -18 -11.5 -29.5t-27.5 -11.5h-206q-16 0 -27.5 11.5t-11.5 29.5zM438 821h512v297 q0 99 -41.5 132.5t-144.5 33.5h-141q-72 0 -112 -17t-56.5 -58.5t-16.5 -112.5v-275z" />
<glyph unicode="&#xc7;" horiz-adv-x="1153" d="M113 610v301q0 182 52.5 307t138 194.5t185 97.5t203.5 28q68 0 140.5 -6.5t122 -14.5t61.5 -12q45 -14 45 -47v-137q0 -43 -41 -43h-4q-192 16 -320 16q-139 0 -218 -88.5t-79 -294.5v-301q0 -383 297 -383q116 0 320 17h4q41 0 41 -43v-138q0 -31 -45 -47 q-35 -9 -128.5 -20.5t-195.5 -11.5q-100 0 -200.5 29t-186.5 99t-139 194t-53 304zM365 -367q0 9 8 21l192 246q26 30 53 30h218q24 0 24 -14q0 -6 -10 -16l-244 -252q-6 -7 -12.5 -14.5t-14.5 -11t-20 -3.5h-176q-18 0 -18 14z" />
<glyph unicode="&#xc8;" horiz-adv-x="1180" d="M154 403v715q0 165 60 258t163 127.5t250 34.5q163 0 238.5 -7.5t150.5 -21.5q24 -3 32.5 -12t8.5 -31v-131q0 -15 -13 -28t-28 -13h-418q-90 0 -126 -38t-36 -138v-221h555q19 0 30 -11t11 -30v-147q0 -18 -12 -29.5t-29 -11.5h-555v-265q0 -99 36 -137.5t126 -38.5h418 q17 0 29 -12t12 -29v-131q0 -38 -41 -43q-24 -3 -57.5 -8.5t-97 -10.5t-103.5 -7t-131 -2q-147 0 -250 34.5t-163 127t-60 257.5zM332 1923q0 14 22 14h217q19 0 28 -5.5t25 -24.5l193 -246q8 -8 8 -21q0 -14 -18 -14h-176q-16 0 -21.5 3t-26.5 24l-243 254q-8 8 -8 16z" />
<glyph unicode="&#xc9;" horiz-adv-x="1180" d="M154 403v715q0 165 60 258t163 127.5t250 34.5q163 0 238.5 -7.5t150.5 -21.5q24 -3 32.5 -12t8.5 -31v-131q0 -15 -13 -28t-28 -13h-418q-90 0 -126 -38t-36 -138v-221h555q19 0 30 -11t11 -30v-147q0 -18 -12 -29.5t-29 -11.5h-555v-265q0 -99 36 -137.5t126 -38.5h418 q17 0 29 -12t12 -29v-131q0 -38 -41 -43q-24 -3 -57.5 -8.5t-97 -10.5t-103.5 -7t-131 -2q-147 0 -250 34.5t-163 127t-60 257.5zM436 1640q0 13 8 21l195 246q15 19 24.5 24.5t28.5 5.5h215q22 0 22 -14q0 -8 -8 -16l-241 -254q-13 -14 -22.5 -20.5t-27.5 -6.5h-176 q-18 0 -18 14z" />
<glyph unicode="&#xca;" horiz-adv-x="1180" d="M154 403v715q0 165 60 258t163 127.5t250 34.5q163 0 238.5 -7.5t150.5 -21.5q24 -3 32.5 -12t8.5 -31v-131q0 -15 -13 -28t-28 -13h-418q-90 0 -126 -38t-36 -138v-221h555q19 0 30 -11t11 -30v-147q0 -18 -12 -29.5t-29 -11.5h-555v-265q0 -99 36 -137.5t126 -38.5h418 q17 0 29 -12t12 -29v-131q0 -38 -41 -43q-24 -3 -57.5 -8.5t-97 -10.5t-103.5 -7t-131 -2q-147 0 -250 34.5t-163 127t-60 257.5zM227 1642q0 13 8 21l189 246q15 19 24.5 24.5t28.5 5.5h266q19 0 28 -5.5t25 -24.5l187 -246q8 -8 8 -21q0 -14 -19 -14h-170q-11 0 -18.5 3 t-14.5 10l-14 14l-145 166l-145 -166q-13 -14 -22.5 -20.5t-27.5 -6.5h-170q-18 0 -18 14z" />
<glyph unicode="&#xcb;" horiz-adv-x="1180" d="M154 403v715q0 165 60 258t163 127.5t250 34.5q163 0 238.5 -7.5t150.5 -21.5q24 -3 32.5 -12t8.5 -31v-131q0 -15 -13 -28t-28 -13h-418q-90 0 -126 -38t-36 -138v-221h555q19 0 30 -11t11 -30v-147q0 -18 -12 -29.5t-29 -11.5h-555v-265q0 -99 36 -137.5t126 -38.5h418 q17 0 29 -12t12 -29v-131q0 -38 -41 -43q-24 -3 -57.5 -8.5t-97 -10.5t-103.5 -7t-131 -2q-147 0 -250 34.5t-163 127t-60 257.5zM274 1688v180q0 16 13.5 28.5t29.5 12.5h148q16 0 29.5 -12.5t13.5 -28.5v-180q0 -18 -13.5 -29.5t-29.5 -11.5h-148q-16 0 -29.5 11.5 t-13.5 29.5zM684 1688v180q0 16 13.5 28.5t29.5 12.5h148q16 0 29.5 -12.5t13.5 -28.5v-180q0 -18 -13.5 -29.5t-29.5 -11.5h-148q-16 0 -29.5 11.5t-13.5 29.5z" />
<glyph unicode="&#xcc;" horiz-adv-x="592" d="M-20 1923q0 14 22 14h217q19 0 28 -5.5t25 -24.5l193 -246q8 -8 8 -21q0 -14 -18 -14h-176q-16 0 -21.5 3t-26.5 24l-243 254q-8 8 -8 16zM154 41v1442q0 16 11.5 27.5t29.5 11.5h202q18 0 29.5 -10.5t11.5 -28.5v-1442q0 -18 -12 -29.5t-29 -11.5h-202q-17 0 -29 12 t-12 29z" />
<glyph unicode="&#xcd;" horiz-adv-x="592" d="M127 1640q0 13 8 21l195 246q15 19 24.5 24.5t28.5 5.5h215q22 0 22 -14q0 -8 -8 -16l-241 -254q-13 -14 -22.5 -20.5t-27.5 -6.5h-176q-18 0 -18 14zM154 41v1442q0 16 11.5 27.5t29.5 11.5h202q18 0 29.5 -10.5t11.5 -28.5v-1442q0 -18 -12 -29.5t-29 -11.5h-202 q-17 0 -29 12t-12 29z" />
<glyph unicode="&#xce;" horiz-adv-x="592" d="M-84 1640q0 13 8 21l189 246q15 19 24.5 24.5t28.5 5.5h266q19 0 28 -5.5t25 -24.5l187 -246q8 -8 8 -21q0 -14 -19 -14h-170q-11 0 -18.5 3t-14.5 10l-14 14l-145 166l-145 -166q-13 -14 -22.5 -20.5t-27.5 -6.5h-170q-18 0 -18 14zM154 41v1442q0 16 11.5 27.5 t29.5 11.5h202q18 0 29.5 -10.5t11.5 -28.5v-1442q0 -18 -12 -29.5t-29 -11.5h-202q-17 0 -29 12t-12 29z" />
<glyph unicode="&#xcf;" horiz-adv-x="592" d="M-28 1688v180q0 16 13.5 28.5t29.5 12.5h148q16 0 29.5 -12.5t13.5 -28.5v-180q0 -18 -13.5 -29.5t-29.5 -11.5h-148q-16 0 -29.5 11.5t-13.5 29.5zM154 41v1442q0 16 11.5 27.5t29.5 11.5h202q18 0 29.5 -10.5t11.5 -28.5v-1442q0 -18 -12 -29.5t-29 -11.5h-202 q-17 0 -29 12t-12 29zM382 1688v180q0 16 13.5 28.5t29.5 12.5h148q16 0 29.5 -12.5t13.5 -28.5v-180q0 -18 -13.5 -29.5t-29.5 -11.5h-148q-16 0 -29.5 11.5t-13.5 29.5z" />
<glyph unicode="&#xd0;" horiz-adv-x="1366" d="M-4 707v153q0 37 39 37h119v553q0 54 53 63q45 9 167.5 17t235.5 8q153 0 274 -41t202.5 -120.5t124 -195t42.5 -270.5v-301q0 -153 -42.5 -269t-124 -195.5t-202.5 -120.5t-274 -41q-83 0 -218.5 8t-184.5 16q-53 9 -53 64v596h-119q-17 0 -28 11t-11 28zM438 229 q129 -6 172 -6q171 0 266 86t95 301v301q0 147 -45.5 232.5t-125.5 120t-190 34.5q-47 0 -62.5 -0.5t-48.5 -2t-61 -3.5v-395h146q18 0 28.5 -9.5t10.5 -27.5v-153q0 -17 -11 -28t-28 -11h-146v-439z" />
<glyph unicode="&#xd1;" horiz-adv-x="1458" d="M154 41v1399q0 34 24 58t58 24h221q34 0 53.5 -14t36.5 -52l477 -1053q6 -16 16 -16q11 0 11 19v1077q0 17 11 28t28 11h176q17 0 28 -11t11 -28v-1401q0 -34 -24 -58t-58 -24h-207q-47 0 -75 13t-50 61l-455 997q-8 16 -18 16t-10 -16v-1030q0 -18 -11.5 -29.5 t-27.5 -11.5h-174q-17 0 -29 12t-12 29zM336 1658v43q0 230 229 230q80 0 141 -46l90 -67q53 -41 86 -41q58 0 58 68v43q0 32 28 32h117q29 0 29 -32v-46q0 -229 -228 -229q-35 0 -73 12t-70 35l-90 68q-58 43 -86 43q-57 0 -57 -70v-43q0 -33 -29 -33h-117q-28 0 -28 33z " />
<glyph unicode="&#xd2;" horiz-adv-x="1393" d="M113 623v276q0 217 73.5 360.5t205 211t304.5 67.5q172 0 304 -67t206 -210.5t74 -361.5v-276q0 -218 -74 -361.5t-206 -210.5t-304 -67q-173 0 -304.5 67.5t-205 211t-73.5 360.5zM379 1923q0 14 22 14h217q19 0 28 -5.5t25 -24.5l193 -246q8 -8 8 -21q0 -14 -18 -14 h-176q-16 0 -21.5 3t-26.5 24l-243 254q-8 8 -8 16zM399 623q0 -201 73 -296.5t224 -95.5q152 0 224.5 95.5t72.5 296.5v276q0 202 -72.5 296.5t-224.5 94.5q-151 0 -224 -94.5t-73 -296.5v-276z" />
<glyph unicode="&#xd3;" horiz-adv-x="1393" d="M113 623v276q0 217 73.5 360.5t205 211t304.5 67.5q172 0 304 -67t206 -210.5t74 -361.5v-276q0 -218 -74 -361.5t-206 -210.5t-304 -67q-173 0 -304.5 67.5t-205 211t-73.5 360.5zM399 623q0 -201 73 -296.5t224 -95.5q152 0 224.5 95.5t72.5 296.5v276 q0 202 -72.5 296.5t-224.5 94.5q-151 0 -224 -94.5t-73 -296.5v-276zM506 1640q0 13 8 21l195 246q15 19 24.5 24.5t28.5 5.5h215q22 0 22 -14q0 -8 -8 -16l-241 -254q-13 -14 -22.5 -20.5t-27.5 -6.5h-176q-18 0 -18 14z" />
<glyph unicode="&#xd4;" horiz-adv-x="1393" d="M113 623v276q0 217 73.5 360.5t205 211t304.5 67.5q172 0 304 -67t206 -210.5t74 -361.5v-276q0 -218 -74 -361.5t-206 -210.5t-304 -67q-173 0 -304.5 67.5t-205 211t-73.5 360.5zM309 1642q0 13 8 21l189 246q15 19 24.5 24.5t28.5 5.5h266q19 0 28 -5.5t25 -24.5 l187 -246q8 -8 8 -21q0 -14 -19 -14h-170q-11 0 -18.5 3t-14.5 10l-14 14l-145 166l-145 -166q-13 -14 -22.5 -20.5t-27.5 -6.5h-170q-18 0 -18 14zM399 623q0 -201 73 -296.5t224 -95.5q152 0 224.5 95.5t72.5 296.5v276q0 202 -72.5 296.5t-224.5 94.5q-151 0 -224 -94.5 t-73 -296.5v-276z" />
<glyph unicode="&#xd5;" horiz-adv-x="1393" d="M113 623v276q0 217 73.5 360.5t205 211t304.5 67.5q172 0 304 -67t206 -210.5t74 -361.5v-276q0 -218 -74 -361.5t-206 -210.5t-304 -67q-173 0 -304.5 67.5t-205 211t-73.5 360.5zM317 1660v43q0 230 229 230q80 0 141 -46l90 -67q53 -41 86 -41q58 0 58 68v43 q0 32 28 32h117q29 0 29 -32v-46q0 -229 -228 -229q-35 0 -73 12t-70 35l-90 68q-58 43 -86 43q-57 0 -57 -70v-43q0 -33 -29 -33h-117q-28 0 -28 33zM399 623q0 -201 73 -296.5t224 -95.5q152 0 224.5 95.5t72.5 296.5v276q0 202 -72.5 296.5t-224.5 94.5 q-151 0 -224 -94.5t-73 -296.5v-276z" />
<glyph unicode="&#xd6;" horiz-adv-x="1393" d="M113 623v276q0 217 73.5 360.5t205 211t304.5 67.5q172 0 304 -67t206 -210.5t74 -361.5v-276q0 -218 -74 -361.5t-206 -210.5t-304 -67q-173 0 -304.5 67.5t-205 211t-73.5 360.5zM362 1688v180q0 16 13.5 28.5t29.5 12.5h148q16 0 29.5 -12.5t13.5 -28.5v-180 q0 -18 -13.5 -29.5t-29.5 -11.5h-148q-16 0 -29.5 11.5t-13.5 29.5zM399 623q0 -201 73 -296.5t224 -95.5q152 0 224.5 95.5t72.5 296.5v276q0 202 -72.5 296.5t-224.5 94.5q-151 0 -224 -94.5t-73 -296.5v-276zM772 1688v180q0 16 13.5 28.5t29.5 12.5h148q16 0 29.5 -12.5 t13.5 -28.5v-180q0 -18 -13.5 -29.5t-29.5 -11.5h-148q-16 0 -29.5 11.5t-13.5 29.5z" />
<glyph unicode="&#xd7;" d="M225 1087q0 12 11 21l100 100q11 11 20 11q16 0 33 -17l256 -256l256 256q17 17 33 17q9 0 20 -11l101 -100q10 -10 10 -21q0 -16 -16 -32l-256 -256l256 -254q14 -14 14 -31q0 -12 -10 -22l-101 -101q-10 -10 -20 -10q-15 0 -31 16l-256 254l-254 -254q-16 -16 -33 -16 q-10 0 -20 10l-100 101q-11 9 -11 20q0 18 17 33l254 254l-256 256q-17 15 -17 32z" />
<glyph unicode="&#xd8;" horiz-adv-x="1393" d="M51 6q0 7 6 17l148 206q-92 152 -92 394v276q0 217 73.5 360.5t205 211t304.5 67.5q113 0 205.5 -26t165.5 -82l61 81q16 21 39 21h154q22 0 22 -23q0 -7 -6 -16l-147 -203q29 -50 48.5 -109t30.5 -131.5t11 -150.5v-276q0 -218 -74 -361.5t-206 -210.5t-304 -67 q-228 0 -368 106l-58 -82q-15 -24 -41 -24h-155q-23 0 -23 22zM399 623q0 -66 7 -115l503 700q-72 82 -213 82q-151 0 -224 -94.5t-73 -296.5v-276zM485 309q74 -78 211 -78q152 0 224.5 95.5t72.5 296.5v276q0 60 -6 109z" />
<glyph unicode="&#xd9;" horiz-adv-x="1421" d="M143 559v924q0 16 12.5 27.5t28.5 11.5h203q18 0 29.5 -10.5t11.5 -28.5v-924q0 -122 23.5 -195.5t83.5 -109t167 -35.5q59 0 130 4t153 13v1247q0 17 11 28t28 11h203q16 0 28.5 -11.5t12.5 -27.5v-1340q0 -62 -25.5 -88.5t-85.5 -36.5q-50 -7 -211.5 -20.5 t-243.5 -13.5q-265 0 -412 133t-147 442zM375 1923q0 14 22 14h217q19 0 28 -5.5t25 -24.5l193 -246q8 -8 8 -21q0 -14 -18 -14h-176q-16 0 -21.5 3t-26.5 24l-243 254q-8 8 -8 16z" />
<glyph unicode="&#xda;" horiz-adv-x="1421" d="M143 559v924q0 16 12.5 27.5t28.5 11.5h203q18 0 29.5 -10.5t11.5 -28.5v-924q0 -122 23.5 -195.5t83.5 -109t167 -35.5q59 0 130 4t153 13v1247q0 17 11 28t28 11h203q16 0 28.5 -11.5t12.5 -27.5v-1340q0 -62 -25.5 -88.5t-85.5 -36.5q-50 -7 -211.5 -20.5 t-243.5 -13.5q-265 0 -412 133t-147 442zM555 1640q0 13 8 21l195 246q15 19 24.5 24.5t28.5 5.5h215q22 0 22 -14q0 -8 -8 -16l-241 -254q-13 -14 -22.5 -20.5t-27.5 -6.5h-176q-18 0 -18 14z" />
<glyph unicode="&#xdb;" horiz-adv-x="1421" d="M143 559v924q0 16 12.5 27.5t28.5 11.5h203q18 0 29.5 -10.5t11.5 -28.5v-924q0 -122 23.5 -195.5t83.5 -109t167 -35.5q59 0 130 4t153 13v1247q0 17 11 28t28 11h203q16 0 28.5 -11.5t12.5 -27.5v-1340q0 -62 -25.5 -88.5t-85.5 -36.5q-50 -7 -211.5 -20.5 t-243.5 -13.5q-265 0 -412 133t-147 442zM289 1640q0 13 8 21l189 246q15 19 24.5 24.5t28.5 5.5h266q19 0 28 -5.5t25 -24.5l187 -246q8 -8 8 -21q0 -14 -19 -14h-170q-11 0 -18.5 3t-14.5 10l-14 14l-145 166l-145 -166q-13 -14 -22.5 -20.5t-27.5 -6.5h-170q-18 0 -18 14 z" />
<glyph unicode="&#xdc;" horiz-adv-x="1421" d="M143 559v924q0 16 12.5 27.5t28.5 11.5h203q18 0 29.5 -10.5t11.5 -28.5v-924q0 -122 23.5 -195.5t83.5 -109t167 -35.5q59 0 130 4t153 13v1247q0 17 11 28t28 11h203q16 0 28.5 -11.5t12.5 -27.5v-1340q0 -62 -25.5 -88.5t-85.5 -36.5q-50 -7 -211.5 -20.5 t-243.5 -13.5q-265 0 -412 133t-147 442zM386 1688v180q0 16 13.5 28.5t29.5 12.5h148q16 0 29.5 -12.5t13.5 -28.5v-180q0 -18 -13.5 -29.5t-29.5 -11.5h-148q-16 0 -29.5 11.5t-13.5 29.5zM796 1688v180q0 16 13.5 28.5t29.5 12.5h148q16 0 29.5 -12.5t13.5 -28.5v-180 q0 -18 -13.5 -29.5t-29.5 -11.5h-148q-16 0 -29.5 11.5t-13.5 29.5z" />
<glyph unicode="&#xdd;" horiz-adv-x="1274" d="M51 1495q0 12 10 19.5t23 7.5h233q21 0 37 -33l283 -602l283 602q17 33 38 33h232q13 0 23 -7.5t10 -19.5q0 -8 -6 -20l-437 -871v-563q0 -18 -11.5 -29.5t-27.5 -11.5h-211q-16 0 -26 12t-10 29v563l-437 871q-6 12 -6 20zM492 1640q0 13 8 21l195 246q15 19 24.5 24.5 t28.5 5.5h215q22 0 22 -14q0 -8 -8 -16l-241 -254q-13 -14 -22.5 -20.5t-27.5 -6.5h-176q-18 0 -18 14z" />
<glyph unicode="&#xde;" horiz-adv-x="1282" d="M154 41v1442q0 17 11 28t28 11h206q18 0 27.5 -10.5t9.5 -28.5v-129q70 4 170 4q128 0 236 -24t191 -79t130 -146.5t47 -225.5v-25q0 -137 -46.5 -230t-128.5 -149.5t-188.5 -82t-234.5 -25.5q-31 0 -74.5 2t-101.5 4v-336q0 -19 -10 -30t-27 -11h-206q-16 0 -27.5 11.5 t-11.5 29.5zM436 616q62 -4 176 -4q106 0 176 25.5t104 80t34 140.5v25q0 64 -19.5 109.5t-59.5 72.5t-98.5 39t-136.5 12q-114 0 -176 -4v-496z" />
<glyph unicode="&#xdf;" horiz-adv-x="1278" d="M123 43v1012q0 131 34.5 229.5t100 162t162 95t223.5 31.5q114 0 203.5 -24.5t155 -76t102.5 -135t37 -200.5v-35q0 -90 -53.5 -169.5t-137.5 -121.5q99 -41 158 -125t59 -194v-39q0 -119 -38.5 -207.5t-107 -147t-157.5 -86.5t-190 -28q-43 0 -115 10q-41 7 -41 39v151 q0 16 7.5 23.5t27.5 7.5q109 0 180.5 14.5t115.5 66.5t44 157v39q0 96 -65.5 153t-194.5 57h-66q-16 0 -28.5 11t-12.5 26v127q0 17 11.5 27t29.5 10h66q84 0 136.5 27t76.5 71.5t24 100.5v35q0 61 -23.5 105.5t-73.5 69.5t-130 25q-100 0 -154 -38.5t-73 -99.5t-19 -142 v-1014q0 -17 -11 -30t-28 -13h-194q-18 0 -29.5 13.5t-11.5 29.5z" />
<glyph unicode="&#xe0;" horiz-adv-x="1122" d="M92 328v10q0 91 25.5 155t82.5 108t148.5 65.5t226.5 21.5h144v90q0 96 -42.5 131t-137.5 35q-200 0 -334 -16q-24 0 -35.5 7.5t-11.5 27.5v131q0 33 39 43q164 32 342 32q146 0 246 -43t152 -131.5t52 -216.5v-698q0 -22 -5 -30.5t-23 -14.5q-90 -24 -176 -37.5 t-210 -13.5q-252 0 -367.5 81t-115.5 263zM236 1581q0 14 22 14h217q19 0 28 -5.5t25 -24.5l193 -246q8 -8 8 -21q0 -14 -18 -14h-176q-16 0 -21.5 3t-26.5 24l-243 254q-8 8 -8 16zM365 332q0 -58 18.5 -88.5t63 -43t128.5 -12.5q87 0 144 17v303h-144q-93 0 -137 -16.5 t-58.5 -51t-14.5 -96.5v-12z" />
<glyph unicode="&#xe1;" horiz-adv-x="1122" d="M92 328v10q0 91 25.5 155t82.5 108t148.5 65.5t226.5 21.5h144v90q0 96 -42.5 131t-137.5 35q-200 0 -334 -16q-24 0 -35.5 7.5t-11.5 27.5v131q0 33 39 43q164 32 342 32q146 0 246 -43t152 -131.5t52 -216.5v-698q0 -22 -5 -30.5t-23 -14.5q-90 -24 -176 -37.5 t-210 -13.5q-252 0 -367.5 81t-115.5 263zM365 332q0 -58 18.5 -88.5t63 -43t128.5 -12.5q87 0 144 17v303h-144q-93 0 -137 -16.5t-58.5 -51t-14.5 -96.5v-12zM396 1298q0 13 8 21l195 246q15 19 24.5 24.5t28.5 5.5h215q22 0 22 -14q0 -8 -8 -16l-241 -254 q-13 -14 -22.5 -20.5t-27.5 -6.5h-176q-18 0 -18 14z" />
<glyph unicode="&#xe2;" horiz-adv-x="1122" d="M92 328v10q0 91 25.5 155t82.5 108t148.5 65.5t226.5 21.5h144v90q0 96 -42.5 131t-137.5 35q-200 0 -334 -16q-24 0 -35.5 7.5t-11.5 27.5v131q0 33 39 43q164 32 342 32q146 0 246 -43t152 -131.5t52 -216.5v-698q0 -22 -5 -30.5t-23 -14.5q-90 -24 -176 -37.5 t-210 -13.5q-252 0 -367.5 81t-115.5 263zM162 1298q0 13 8 21l189 246q15 19 24.5 24.5t28.5 5.5h266q19 0 28 -5.5t25 -24.5l187 -246q8 -8 8 -21q0 -14 -19 -14h-170q-11 0 -18.5 3t-14.5 10l-14 14l-145 166l-145 -166q-13 -14 -22.5 -20.5t-27.5 -6.5h-170 q-18 0 -18 14zM365 332q0 -58 18.5 -88.5t63 -43t128.5 -12.5q87 0 144 17v303h-144q-93 0 -137 -16.5t-58.5 -51t-14.5 -96.5v-12z" />
<glyph unicode="&#xe3;" horiz-adv-x="1122" d="M92 328v10q0 91 25.5 155t82.5 108t148.5 65.5t226.5 21.5h144v90q0 96 -42.5 131t-137.5 35q-200 0 -334 -16q-24 0 -35.5 7.5t-11.5 27.5v131q0 33 39 43q164 32 342 32q146 0 246 -43t152 -131.5t52 -216.5v-698q0 -22 -5 -30.5t-23 -14.5q-90 -24 -176 -37.5 t-210 -13.5q-252 0 -367.5 81t-115.5 263zM162 1329v43q0 230 229 230q80 0 141 -46l90 -67q53 -41 86 -41q58 0 58 68v43q0 32 28 32h117q29 0 29 -32v-46q0 -229 -228 -229q-35 0 -73 12t-70 35l-90 68q-58 43 -86 43q-57 0 -57 -70v-43q0 -33 -29 -33h-117q-28 0 -28 33z M365 332q0 -58 18.5 -88.5t63 -43t128.5 -12.5q87 0 144 17v303h-144q-93 0 -137 -16.5t-58.5 -51t-14.5 -96.5v-12z" />
<glyph unicode="&#xe4;" horiz-adv-x="1122" d="M92 328v10q0 91 25.5 155t82.5 108t148.5 65.5t226.5 21.5h144v90q0 96 -42.5 131t-137.5 35q-200 0 -334 -16q-24 0 -35.5 7.5t-11.5 27.5v131q0 33 39 43q164 32 342 32q146 0 246 -43t152 -131.5t52 -216.5v-698q0 -22 -5 -30.5t-23 -14.5q-90 -24 -176 -37.5 t-210 -13.5q-252 0 -367.5 81t-115.5 263zM216 1356v180q0 16 13.5 28.5t29.5 12.5h148q16 0 29.5 -12.5t13.5 -28.5v-180q0 -18 -13.5 -29.5t-29.5 -11.5h-148q-16 0 -29.5 11.5t-13.5 29.5zM365 332q0 -58 18.5 -88.5t63 -43t128.5 -12.5q87 0 144 17v303h-144 q-93 0 -137 -16.5t-58.5 -51t-14.5 -96.5v-12zM626 1356v180q0 16 13.5 28.5t29.5 12.5h148q16 0 29.5 -12.5t13.5 -28.5v-180q0 -18 -13.5 -29.5t-29.5 -11.5h-148q-16 0 -29.5 11.5t-13.5 29.5z" />
<glyph unicode="&#xe5;" horiz-adv-x="1122" d="M92 328v10q0 91 25.5 155t82.5 108t148.5 65.5t226.5 21.5h144v90q0 96 -42.5 131t-137.5 35q-200 0 -334 -16q-24 0 -35.5 7.5t-11.5 27.5v131q0 33 39 43q164 32 342 32q146 0 246 -43t152 -131.5t52 -216.5v-698q0 -22 -5 -30.5t-23 -14.5q-90 -24 -176 -37.5 t-210 -13.5q-252 0 -367.5 81t-115.5 263zM332 1497q0 93 66 160t161 67t160 -66.5t65 -160.5q0 -61 -30 -113t-82 -82t-113 -30q-60 0 -113 30t-83.5 81.5t-30.5 113.5zM365 332q0 -58 18.5 -88.5t63 -43t128.5 -12.5q87 0 144 17v303h-144q-93 0 -137 -16.5t-58.5 -51 t-14.5 -96.5v-12zM465 1499q0 -40 27 -69t67 -29t69 29t29 69q0 41 -29.5 68.5t-68.5 27.5t-66.5 -27.5t-27.5 -68.5z" />
<glyph unicode="&#xe6;" horiz-adv-x="1782" d="M94 344v23q0 115 58.5 186t175 103t288.5 32h105v55q0 110 -46.5 154.5t-142.5 44.5q-211 0 -321 -12h-2h-4q-35 0 -35 35v122q0 37 41 48q157 34 321 34q232 0 345 -135q121 135 329 135q161 0 266 -61t155 -170t50 -254v-135q0 -18 -13.5 -29.5t-29.5 -11.5h-643v-84 q0 -114 64.5 -163.5t204.5 -49.5q41 0 103.5 2.5t126 6.5t107.5 9h2h7q34 0 34 -32v-115q0 -39 -38 -49q-86 -24 -193.5 -36.5t-191.5 -12.5q-217 0 -324 110q-152 -110 -377 -110q-124 0 -218.5 38t-149 119t-54.5 203zM354 344q0 -86 47 -117.5t136 -31.5q119 0 192 28 v312h-113q-94 0 -151 -16.5t-84 -53.5t-27 -98v-23zM991 664h424v69q0 99 -50.5 162t-160.5 63q-107 0 -160 -64t-53 -161v-69z" />
<glyph unicode="&#xe7;" horiz-adv-x="958" d="M92 481v191q0 162 60 274t166.5 167.5t240.5 55.5q91 0 155.5 -7.5t108.5 -18.5q25 -6 34 -17.5t9 -35.5v-134q0 -30 -37 -30h-6q-115 14 -264 14q-84 0 -140.5 -60.5t-56.5 -207.5v-191q0 -145 56.5 -206.5t140.5 -61.5q93 0 153 4t111 10h6q37 0 37 -30v-134 q0 -24 -9 -35.5t-34 -17.5q-102 -26 -264 -26q-134 0 -240.5 55.5t-166.5 167.5t-60 274zM195 -367q0 13 8 21l192 246q18 20 26.5 25t27.5 5h217q22 0 22 -14q0 -8 -8 -16l-244 -252q-19 -21 -25.5 -25t-21.5 -4h-176q-18 0 -18 14z" />
<glyph unicode="&#xe8;" horiz-adv-x="1176" d="M98 498v151q0 241 129.5 380.5t362.5 139.5q153 0 263.5 -66t167 -183t56.5 -271v-114q0 -52 -41 -52h-667v-6q0 -107 56 -183.5t189 -76.5q176 0 377 21h6q37 0 37 -31v-135q0 -27 -8.5 -37.5t-34.5 -16.5q-97 -18 -186 -26t-211 -8q-84 0 -169.5 26t-160.5 84.5 t-120.5 159t-45.5 244.5zM227 1581q0 14 22 14h217q19 0 28 -5.5t25 -24.5l193 -246q8 -8 8 -21q0 -14 -18 -14h-176q-16 0 -21.5 3t-26.5 24l-243 254q-8 8 -8 16zM371 676h434v8q0 77 -27 134.5t-75.5 87.5t-112.5 30q-98 0 -158.5 -66.5t-60.5 -185.5v-8z" />
<glyph unicode="&#xe9;" horiz-adv-x="1176" d="M98 498v151q0 241 129.5 380.5t362.5 139.5q153 0 263.5 -66t167 -183t56.5 -271v-114q0 -52 -41 -52h-667v-6q0 -107 56 -183.5t189 -76.5q176 0 377 21h6q37 0 37 -31v-135q0 -27 -8.5 -37.5t-34.5 -16.5q-97 -18 -186 -26t-211 -8q-84 0 -169.5 26t-160.5 84.5 t-120.5 159t-45.5 244.5zM371 676h434v8q0 77 -27 134.5t-75.5 87.5t-112.5 30q-98 0 -158.5 -66.5t-60.5 -185.5v-8zM440 1298q0 13 8 21l195 246q15 19 24.5 24.5t28.5 5.5h215q22 0 22 -14q0 -8 -8 -16l-241 -254q-13 -14 -22.5 -20.5t-27.5 -6.5h-176q-18 0 -18 14z" />
<glyph unicode="&#xea;" horiz-adv-x="1176" d="M98 498v151q0 241 129.5 380.5t362.5 139.5q153 0 263.5 -66t167 -183t56.5 -271v-114q0 -52 -41 -52h-667v-6q0 -107 56 -183.5t189 -76.5q176 0 377 21h6q37 0 37 -31v-135q0 -27 -8.5 -37.5t-34.5 -16.5q-97 -18 -186 -26t-211 -8q-84 0 -169.5 26t-160.5 84.5 t-120.5 159t-45.5 244.5zM205 1298q0 13 8 21l189 246q15 19 24.5 24.5t28.5 5.5h266q19 0 28 -5.5t25 -24.5l187 -246q8 -8 8 -21q0 -14 -19 -14h-170q-11 0 -18.5 3t-14.5 10l-14 14l-145 166l-145 -166q-13 -14 -22.5 -20.5t-27.5 -6.5h-170q-18 0 -18 14zM371 676h434v8 q0 77 -27 134.5t-75.5 87.5t-112.5 30q-98 0 -158.5 -66.5t-60.5 -185.5v-8z" />
<glyph unicode="&#xeb;" horiz-adv-x="1176" d="M98 498v151q0 241 129.5 380.5t362.5 139.5q153 0 263.5 -66t167 -183t56.5 -271v-114q0 -52 -41 -52h-667v-6q0 -107 56 -183.5t189 -76.5q176 0 377 21h6q37 0 37 -31v-135q0 -27 -8.5 -37.5t-34.5 -16.5q-97 -18 -186 -26t-211 -8q-84 0 -169.5 26t-160.5 84.5 t-120.5 159t-45.5 244.5zM263 1350v180q0 16 13.5 28.5t29.5 12.5h148q16 0 29.5 -12.5t13.5 -28.5v-180q0 -18 -13.5 -29.5t-29.5 -11.5h-148q-16 0 -29.5 11.5t-13.5 29.5zM371 676h434v8q0 77 -27 134.5t-75.5 87.5t-112.5 30q-98 0 -158.5 -66.5t-60.5 -185.5v-8z M673 1350v180q0 16 13.5 28.5t29.5 12.5h148q16 0 29.5 -12.5t13.5 -28.5v-180q0 -18 -13.5 -29.5t-29.5 -11.5h-148q-16 0 -29.5 11.5t-13.5 29.5z" />
<glyph unicode="&#xec;" horiz-adv-x="549" d="M-59 1581q0 14 22 14h217q19 0 28 -5.5t25 -24.5l193 -246q8 -8 8 -21q0 -14 -18 -14h-176q-16 0 -21.5 3t-26.5 24l-243 254q-8 8 -8 16zM139 43v1071q0 17 12 29t29 12h189q17 0 29 -12t12 -29v-1071q0 -16 -12.5 -29.5t-28.5 -13.5h-189q-16 0 -28.5 13.5t-12.5 29.5z " />
<glyph unicode="&#xed;" horiz-adv-x="549" d="M124 1298q0 13 8 21l195 246q15 19 24.5 24.5t28.5 5.5h215q22 0 22 -14q0 -8 -8 -16l-241 -254q-13 -14 -22.5 -20.5t-27.5 -6.5h-176q-18 0 -18 14zM139 43v1071q0 17 12 29t29 12h189q17 0 29 -12t12 -29v-1071q0 -16 -12.5 -29.5t-28.5 -13.5h-189q-16 0 -28.5 13.5 t-12.5 29.5z" />
<glyph unicode="&#xee;" horiz-adv-x="549" d="M-107 1298q0 13 8 21l189 246q15 19 24.5 24.5t28.5 5.5h266q19 0 28 -5.5t25 -24.5l187 -246q8 -8 8 -21q0 -14 -19 -14h-170q-11 0 -18.5 3t-14.5 10l-14 14l-145 166l-145 -166q-13 -14 -22.5 -20.5t-27.5 -6.5h-170q-18 0 -18 14zM139 43v1071q0 17 12 29t29 12h189 q17 0 29 -12t12 -29v-1071q0 -16 -12.5 -29.5t-28.5 -13.5h-189q-16 0 -28.5 13.5t-12.5 29.5z" />
<glyph unicode="&#xef;" horiz-adv-x="549" d="M-46 1350v180q0 16 13.5 28.5t29.5 12.5h148q16 0 29.5 -12.5t13.5 -28.5v-180q0 -18 -13.5 -29.5t-29.5 -11.5h-148q-16 0 -29.5 11.5t-13.5 29.5zM139 43v1071q0 17 12 29t29 12h189q17 0 29 -12t12 -29v-1071q0 -16 -12.5 -29.5t-28.5 -13.5h-189q-16 0 -28.5 13.5 t-12.5 29.5zM364 1350v180q0 16 13.5 28.5t29.5 12.5h148q16 0 29.5 -12.5t13.5 -28.5v-180q0 -18 -13.5 -29.5t-29.5 -11.5h-148q-16 0 -29.5 11.5t-13.5 29.5z" />
<glyph unicode="&#xf0;" horiz-adv-x="1176" d="M98 518v82q0 173 56.5 292.5t166.5 180t267 60.5q95 0 149 -29q-65 101 -256 199l-155 -119q-18 -13 -27 -13q-8 0 -23 13l-59 65q-6 6 -6 17q0 19 20 32l93 70q-61 21 -105 31q-33 8 -33 31q0 6 2 10l43 119q9 22 29 22q10 0 16 -2q130 -32 230 -72l174 133q10 9 27 9 t24 -11l60 -63q8 -8 8 -16q0 -13 -21 -29l-121 -92q150 -83 243 -197t135 -270.5t42 -370.5v-82q0 -174 -55.5 -293.5t-165 -180t-266.5 -60.5q-249 0 -370.5 140.5t-121.5 393.5zM371 518q0 -156 51.5 -230.5t167.5 -74.5q113 0 164 73t51 232v82q0 158 -51 231.5 t-166 73.5q-76 0 -124 -33t-70.5 -100.5t-22.5 -171.5v-82z" />
<glyph unicode="&#xf1;" horiz-adv-x="1192" d="M123 43v709q0 190 106.5 303.5t302.5 113.5h127q130 0 222.5 -52t140 -146t47.5 -219v-709q0 -17 -11 -30t-28 -13h-192q-17 0 -28 13t-11 30v709q0 89 -29 140.5t-111 51.5h-127q-81 0 -110 -51.5t-29 -140.5v-709q0 -17 -11 -30t-28 -13h-192q-17 0 -28 13t-11 30z M210 1329v43q0 230 229 230q80 0 141 -46l90 -67q53 -41 86 -41q58 0 58 68v43q0 32 28 32h117q29 0 29 -32v-46q0 -229 -228 -229q-35 0 -73 12t-70 35l-90 68q-58 43 -86 43q-57 0 -57 -70v-43q0 -33 -29 -33h-117q-28 0 -28 33z" />
<glyph unicode="&#xf2;" horiz-adv-x="1176" d="M98 494v165q0 146 56.5 263t166.5 182t267 65q155 0 266 -65t167 -182t56 -263v-165q0 -146 -56 -263t-167 -182t-266 -65q-157 0 -267 65t-166.5 182t-56.5 263zM261 1581q0 14 22 14h217q19 0 28 -5.5t25 -24.5l193 -246q8 -8 8 -21q0 -14 -18 -14h-176q-16 0 -21.5 3 t-26.5 24l-243 254q-8 8 -8 16zM369 494q0 -127 56.5 -202t162.5 -75q105 0 162 74.5t57 202.5v165q0 128 -56.5 202.5t-162.5 74.5q-107 0 -163 -74.5t-56 -202.5v-165z" />
<glyph unicode="&#xf3;" horiz-adv-x="1176" d="M98 494v165q0 146 56.5 263t166.5 182t267 65q155 0 266 -65t167 -182t56 -263v-165q0 -146 -56 -263t-167 -182t-266 -65q-157 0 -267 65t-166.5 182t-56.5 263zM369 494q0 -127 56.5 -202t162.5 -75q105 0 162 74.5t57 202.5v165q0 128 -56.5 202.5t-162.5 74.5 q-107 0 -163 -74.5t-56 -202.5v-165zM410 1298q0 13 8 21l195 246q15 19 24.5 24.5t28.5 5.5h215q22 0 22 -14q0 -8 -8 -16l-241 -254q-13 -14 -22.5 -20.5t-27.5 -6.5h-176q-18 0 -18 14z" />
<glyph unicode="&#xf4;" horiz-adv-x="1176" d="M98 494v165q0 146 56.5 263t166.5 182t267 65q155 0 266 -65t167 -182t56 -263v-165q0 -146 -56 -263t-167 -182t-266 -65q-157 0 -267 65t-166.5 182t-56.5 263zM203 1298q0 13 8 21l189 246q15 19 24.5 24.5t28.5 5.5h266q19 0 28 -5.5t25 -24.5l187 -246q8 -8 8 -21 q0 -14 -19 -14h-170q-11 0 -18.5 3t-14.5 10l-14 14l-145 166l-145 -166q-13 -14 -22.5 -20.5t-27.5 -6.5h-170q-18 0 -18 14zM369 494q0 -127 56.5 -202t162.5 -75q105 0 162 74.5t57 202.5v165q0 128 -56.5 202.5t-162.5 74.5q-107 0 -163 -74.5t-56 -202.5v-165z" />
<glyph unicode="&#xf5;" horiz-adv-x="1176" d="M98 494v165q0 146 56.5 263t166.5 182t267 65q155 0 266 -65t167 -182t56 -263v-165q0 -146 -56 -263t-167 -182t-266 -65q-157 0 -267 65t-166.5 182t-56.5 263zM194 1329v43q0 230 229 230q80 0 141 -46l90 -67q53 -41 86 -41q58 0 58 68v43q0 32 28 32h117 q29 0 29 -32v-46q0 -229 -228 -229q-35 0 -73 12t-70 35l-90 68q-58 43 -86 43q-57 0 -57 -70v-43q0 -33 -29 -33h-117q-28 0 -28 33zM369 494q0 -127 56.5 -202t162.5 -75q105 0 162 74.5t57 202.5v165q0 128 -56.5 202.5t-162.5 74.5q-107 0 -163 -74.5t-56 -202.5v-165z " />
<glyph unicode="&#xf6;" horiz-adv-x="1176" d="M98 494v165q0 146 56.5 263t166.5 182t267 65q155 0 266 -65t167 -182t56 -263v-165q0 -146 -56 -263t-167 -182t-266 -65q-157 0 -267 65t-166.5 182t-56.5 263zM262 1350v180q0 16 13.5 28.5t29.5 12.5h148q16 0 29.5 -12.5t13.5 -28.5v-180q0 -18 -13.5 -29.5 t-29.5 -11.5h-148q-16 0 -29.5 11.5t-13.5 29.5zM369 494q0 -127 56.5 -202t162.5 -75q105 0 162 74.5t57 202.5v165q0 128 -56.5 202.5t-162.5 74.5q-107 0 -163 -74.5t-56 -202.5v-165zM672 1350v180q0 16 13.5 28.5t29.5 12.5h148q16 0 29.5 -12.5t13.5 -28.5v-180 q0 -18 -13.5 -29.5t-29.5 -11.5h-148q-16 0 -29.5 11.5t-13.5 29.5z" />
<glyph unicode="&#xf7;" d="M190 729v143q0 33 41 33h830q41 0 41 -33v-143q0 -15 -12.5 -24t-28.5 -9h-830q-16 0 -28.5 9t-12.5 24zM512 260v211q0 17 11.5 29t29.5 12h184q19 0 30 -11t11 -30v-211q0 -17 -11.5 -28t-29.5 -11h-184q-18 0 -29.5 11.5t-11.5 27.5zM512 1110v211q0 16 11.5 27.5 t29.5 11.5h184q18 0 29.5 -10.5t11.5 -28.5v-211q0 -18 -12 -29.5t-29 -11.5h-184q-17 0 -29 12t-12 29z" />
<glyph unicode="&#xf8;" horiz-adv-x="1176" d="M55 -55q0 11 8 22l136 189q-50 65 -75.5 150.5t-25.5 187.5v165q0 146 56.5 263t166.5 182t267 65q166 0 284 -77l80 110q17 21 33 21h115q16 0 16 -17q0 -11 -8 -22l-133 -185q50 -65 76 -152.5t26 -187.5v-165q0 -146 -56 -263t-167 -182t-266 -65q-85 0 -155.5 19.5 t-131.5 57.5l-82 -112q-15 -21 -33 -21h-114q-17 0 -17 17zM369 494q0 -52 8 -91l348 484q-55 49 -137 49q-107 0 -163 -74.5t-56 -202.5v-165zM449 266q50 -49 139 -49q105 0 162 74.5t57 202.5v165q0 56 -8 95z" />
<glyph unicode="&#xf9;" horiz-adv-x="1192" d="M123 479v633q0 17 11 30t28 13h192q17 0 28 -13t11 -30v-633q0 -100 23.5 -158.5t66 -81t107.5 -22.5h12q65 0 107.5 22.5t66 81t23.5 158.5v633q0 17 11 30t28 13h192q17 0 28 -13t11 -30v-633q0 -202 -84 -313t-188 -146.5t-195 -35.5h-12q-91 0 -195 35.5t-188 146.5 t-84 313zM285 1581q0 14 22 14h217q19 0 28 -5.5t25 -24.5l193 -246q8 -8 8 -21q0 -14 -18 -14h-176q-16 0 -21.5 3t-26.5 24l-243 254q-8 8 -8 16z" />
<glyph unicode="&#xfa;" horiz-adv-x="1192" d="M123 479v633q0 17 11 30t28 13h192q17 0 28 -13t11 -30v-633q0 -100 23.5 -158.5t66 -81t107.5 -22.5h12q65 0 107.5 22.5t66 81t23.5 158.5v633q0 17 11 30t28 13h192q17 0 28 -13t11 -30v-633q0 -202 -84 -313t-188 -146.5t-195 -35.5h-12q-91 0 -195 35.5t-188 146.5 t-84 313zM455 1298q0 13 8 21l195 246q15 19 24.5 24.5t28.5 5.5h215q22 0 22 -14q0 -8 -8 -16l-241 -254q-13 -14 -22.5 -20.5t-27.5 -6.5h-176q-18 0 -18 14z" />
<glyph unicode="&#xfb;" horiz-adv-x="1192" d="M123 479v633q0 17 11 30t28 13h192q17 0 28 -13t11 -30v-633q0 -100 23.5 -158.5t66 -81t107.5 -22.5h12q65 0 107.5 22.5t66 81t23.5 158.5v633q0 17 11 30t28 13h192q17 0 28 -13t11 -30v-633q0 -202 -84 -313t-188 -146.5t-195 -35.5h-12q-91 0 -195 35.5t-188 146.5 t-84 313zM221 1298q0 13 8 21l189 246q15 19 24.5 24.5t28.5 5.5h266q19 0 28 -5.5t25 -24.5l187 -246q8 -8 8 -21q0 -14 -19 -14h-170q-11 0 -18.5 3t-14.5 10l-14 14l-145 166l-145 -166q-13 -14 -22.5 -20.5t-27.5 -6.5h-170q-18 0 -18 14z" />
<glyph unicode="&#xfc;" horiz-adv-x="1192" d="M123 479v633q0 17 11 30t28 13h192q17 0 28 -13t11 -30v-633q0 -100 23.5 -158.5t66 -81t107.5 -22.5h12q65 0 107.5 22.5t66 81t23.5 158.5v633q0 17 11 30t28 13h192q17 0 28 -13t11 -30v-633q0 -202 -84 -313t-188 -146.5t-195 -35.5h-12q-91 0 -195 35.5t-188 146.5 t-84 313zM282 1350v180q0 16 13.5 28.5t29.5 12.5h148q16 0 29.5 -12.5t13.5 -28.5v-180q0 -18 -13.5 -29.5t-29.5 -11.5h-148q-16 0 -29.5 11.5t-13.5 29.5zM692 1350v180q0 16 13.5 28.5t29.5 12.5h148q16 0 29.5 -12.5t13.5 -28.5v-180q0 -18 -13.5 -29.5t-29.5 -11.5 h-148q-16 0 -29.5 11.5t-13.5 29.5z" />
<glyph unicode="&#xfd;" horiz-adv-x="1223" d="M133 498v616q0 17 12 29t29 12h188q19 0 30 -11t11 -30v-616q0 -139 48.5 -216t171.5 -77q82 0 196 16v893q0 17 12 29t29 12h189q17 0 29 -12t12 -29v-1110q0 -216 -112 -315t-349 -99q-231 0 -383 50q-41 11 -41 49v108q0 35 39 35h4q288 -25 381 -25q82 0 122.5 16 t54 54.5t13.5 112.5v16q-118 -22 -196 -22q-241 0 -365.5 135t-124.5 379zM471 1298q0 13 8 21l195 246q15 19 24.5 24.5t28.5 5.5h215q22 0 22 -14q0 -8 -8 -16l-241 -254q-13 -14 -22.5 -20.5t-27.5 -6.5h-176q-18 0 -18 14z" />
<glyph unicode="&#xfe;" horiz-adv-x="1182" d="M133 -362v1880q0 16 11.5 28.5t27.5 12.5h197q15 0 26 -12.5t11 -28.5v-363q103 14 202 14q116 0 207.5 -35t151.5 -101t91.5 -162t31.5 -222v-147q0 -120 -29.5 -215.5t-90.5 -163.5t-152.5 -103.5t-209.5 -35.5q-50 0 -107.5 3.5t-97.5 12.5v-362q0 -19 -10 -30 t-26 -11h-193q-15 0 -28 12t-13 29zM403 221q99 -16 181 -16q119 0 177 64.5t58 232.5v147q0 115 -28 181t-81 92t-132 26q-47 0 -175 -16v-711z" />
<glyph unicode="&#xff;" horiz-adv-x="1223" d="M133 498v616q0 17 12 29t29 12h188q19 0 30 -11t11 -30v-616q0 -139 48.5 -216t171.5 -77q82 0 196 16v893q0 17 12 29t29 12h189q17 0 29 -12t12 -29v-1110q0 -216 -112 -315t-349 -99q-231 0 -383 50q-41 11 -41 49v108q0 35 39 35h4q288 -25 381 -25q82 0 122.5 16 t54 54.5t13.5 112.5v16q-118 -22 -196 -22q-241 0 -365.5 135t-124.5 379zM295 1350v180q0 16 13.5 28.5t29.5 12.5h148q16 0 29.5 -12.5t13.5 -28.5v-180q0 -18 -13.5 -29.5t-29.5 -11.5h-148q-16 0 -29.5 11.5t-13.5 29.5zM705 1350v180q0 16 13.5 28.5t29.5 12.5h148 q16 0 29.5 -12.5t13.5 -28.5v-180q0 -18 -13.5 -29.5t-29.5 -11.5h-148q-16 0 -29.5 11.5t-13.5 29.5z" />
<glyph unicode="&#x152;" horiz-adv-x="2017" d="M113 623v276q0 217 73.5 360.5t205 211t304.5 67.5q243 0 385 -131q52 72 150.5 101.5t232.5 29.5q218 0 389 -29q24 -3 32.5 -12t8.5 -31v-131q0 -17 -12 -29t-29 -12h-417q-90 0 -126 -38t-36 -138v-221h555q17 0 29 -12t12 -29v-147q0 -17 -13 -29t-28 -12h-555v-265 q0 -99 36 -137.5t126 -38.5h417q19 0 30 -11t11 -30v-131q0 -38 -41 -43q-20 -2 -52.5 -8t-98.5 -11t-106.5 -7t-131.5 -2q-133 0 -228 27.5t-155 103.5q-75 -70 -169.5 -100.5t-215.5 -30.5q-173 0 -304.5 67.5t-205 211t-73.5 360.5zM399 623q0 -201 73 -296.5t224 -95.5 q295 0 295 342v375q0 342 -295 342q-151 0 -224 -94.5t-73 -296.5v-276z" />
<glyph unicode="&#x153;" horiz-adv-x="1896" d="M102 494v165q0 146 56.5 263t166.5 182t267 65q229 0 358 -151q64 75 153.5 113t203.5 38q153 0 263 -68.5t167 -186.5t57 -265v-114q0 -52 -41 -52h-672v-20q0 -113 56 -184.5t174 -71.5q182 0 397 20h6q37 0 37 -30v-125q0 -27 -8.5 -37.5t-34.5 -16.5 q-97 -18 -186 -26t-211 -8q-102 0 -199 34.5t-164 112.5q-128 -147 -356 -147q-157 0 -267 65t-166.5 182t-56.5 263zM373 494q0 -128 57 -202.5t162 -74.5t162 74.5t57 202.5v165q0 128 -56.5 202.5t-162.5 74.5t-162.5 -74.5t-56.5 -202.5v-165zM1081 676h445v18 q0 128 -59 188t-160 60q-100 0 -163 -63t-63 -185v-18z" />
<glyph unicode="&#x178;" horiz-adv-x="1274" d="M51 1495q0 12 10 19.5t23 7.5h233q21 0 37 -33l283 -602l283 602q17 33 38 33h232q13 0 23 -7.5t10 -19.5q0 -8 -6 -20l-437 -871v-563q0 -18 -11.5 -29.5t-27.5 -11.5h-211q-16 0 -26 12t-10 29v563l-437 871q-6 12 -6 20zM331 1677v180q0 16 13.5 28.5t29.5 12.5h148 q16 0 29.5 -12.5t13.5 -28.5v-180q0 -18 -13.5 -29.5t-29.5 -11.5h-148q-16 0 -29.5 11.5t-13.5 29.5zM741 1677v180q0 16 13.5 28.5t29.5 12.5h148q16 0 29.5 -12.5t13.5 -28.5v-180q0 -18 -13.5 -29.5t-29.5 -11.5h-148q-16 0 -29.5 11.5t-13.5 29.5z" />
<glyph unicode="&#x2c6;" horiz-adv-x="850" d="M43 1298q0 13 8 21l189 246q15 19 24.5 24.5t28.5 5.5h266q19 0 28 -5.5t25 -24.5l187 -246q8 -8 8 -21q0 -14 -19 -14h-170q-11 0 -18.5 3t-14.5 10l-14 14l-145 166l-145 -166q-13 -14 -22.5 -20.5t-27.5 -6.5h-170q-18 0 -18 14z" />
<glyph unicode="&#x2dc;" horiz-adv-x="1016" d="M109 1329v43q0 230 229 230q80 0 141 -46l90 -67q53 -41 86 -41q58 0 58 68v43q0 32 28 32h117q29 0 29 -32v-46q0 -229 -228 -229q-35 0 -73 12t-70 35l-90 68q-58 43 -86 43q-57 0 -57 -70v-43q0 -33 -29 -33h-117q-28 0 -28 33z" />
<glyph unicode="&#x2000;" horiz-adv-x="1023" />
<glyph unicode="&#x2001;" horiz-adv-x="2047" />
<glyph unicode="&#x2002;" horiz-adv-x="1023" />
<glyph unicode="&#x2003;" horiz-adv-x="2047" />
<glyph unicode="&#x2004;" horiz-adv-x="682" />
<glyph unicode="&#x2005;" horiz-adv-x="511" />
<glyph unicode="&#x2006;" horiz-adv-x="341" />
<glyph unicode="&#x2007;" horiz-adv-x="341" />
<glyph unicode="&#x2008;" horiz-adv-x="255" />
<glyph unicode="&#x2009;" horiz-adv-x="409" />
<glyph unicode="&#x200a;" horiz-adv-x="113" />
<glyph unicode="&#x2010;" horiz-adv-x="657" d="M88 565v129q0 16 11.5 27.5t29.5 11.5h401q17 0 28 -11t11 -28v-129q0 -16 -11.5 -26.5t-27.5 -10.5h-401q-17 0 -29 11t-12 26z" />
<glyph unicode="&#x2011;" horiz-adv-x="657" d="M88 565v129q0 16 11.5 27.5t29.5 11.5h401q17 0 28 -11t11 -28v-129q0 -16 -11.5 -26.5t-27.5 -10.5h-401q-17 0 -29 11t-12 26z" />
<glyph unicode="&#x2012;" horiz-adv-x="657" d="M88 565v129q0 16 11.5 27.5t29.5 11.5h401q17 0 28 -11t11 -28v-129q0 -16 -11.5 -26.5t-27.5 -10.5h-401q-17 0 -29 11t-12 26z" />
<glyph unicode="&#x2013;" horiz-adv-x="834" d="M70 524v129q0 17 11 28t28 11h616q17 0 28 -11t11 -28v-129q0 -16 -11.5 -26.5t-27.5 -10.5h-616q-16 0 -27.5 10.5t-11.5 26.5z" />
<glyph unicode="&#x2014;" horiz-adv-x="1100" d="M70 524v129q0 17 11 28t28 11h882q18 0 29.5 -10.5t11.5 -28.5v-129q0 -16 -12 -26.5t-29 -10.5h-882q-16 0 -27.5 10.5t-11.5 26.5z" />
<glyph unicode="&#x2018;" horiz-adv-x="440" d="M39 1079q0 11 2 17l139 424q11 39 39 39h164q18 0 18 -21q0 -12 -2 -18l-104 -424q-8 -39 -41 -39h-193q-22 0 -22 22z" />
<glyph unicode="&#x2019;" horiz-adv-x="440" d="M39 1077q0 13 2 19l104 424q10 39 41 39h193q22 0 22 -23q0 -10 -2 -16l-139 -424q-11 -39 -39 -39h-164q-18 0 -18 20z" />
<glyph unicode="&#x201a;" horiz-adv-x="440" d="M23 -170q0 8 2 12l125 430q12 39 40 39h197q13 0 21 -6.5t8 -17.5q0 -1 -4 -15l-179 -430q-9 -23 -16 -32t-22 -9h-142q-30 0 -30 29z" />
<glyph unicode="&#x201c;" horiz-adv-x="852" d="M39 1079q0 11 2 17l139 424q11 39 39 39h164q18 0 18 -21q0 -12 -2 -18l-104 -424q-8 -39 -41 -39h-193q-22 0 -22 22zM451 1079q0 11 2 17l139 424q11 39 39 39h164q18 0 18 -21q0 -12 -2 -18l-104 -424q-9 -39 -41 -39h-193q-22 0 -22 22z" />
<glyph unicode="&#x201d;" horiz-adv-x="852" d="M39 1077q0 13 2 19l104 424q10 39 41 39h193q22 0 22 -23q0 -10 -2 -16l-139 -424q-11 -39 -39 -39h-164q-18 0 -18 20zM451 1077q0 13 2 19l104 424q8 39 41 39h193q22 0 22 -23q0 -10 -2 -16l-139 -424q-11 -39 -39 -39h-164q-18 0 -18 20z" />
<glyph unicode="&#x201e;" horiz-adv-x="852" d="M23 -170q0 8 2 12l125 430q12 39 40 39h197q13 0 21 -6.5t8 -17.5q0 -1 -4 -15l-179 -430q-9 -23 -16 -32t-22 -9h-142q-30 0 -30 29zM453 -170q0 8 2 12l125 430q12 39 41 39h196q29 0 29 -24q0 -1 -4 -15l-178 -430q-7 -18 -15.5 -29.5t-23.5 -11.5h-142q-30 0 -30 29z " />
<glyph unicode="&#x2022;" horiz-adv-x="856" d="M92 752q0 67 26.5 129.5t72 108t106.5 71.5t131 26t132 -26.5t107 -71t71 -106t26 -131.5q0 -90 -45 -168t-121.5 -123t-169.5 -45q-140 0 -238 99t-98 237z" />
<glyph unicode="&#x2026;" horiz-adv-x="1440" d="M111 41v231q0 16 11.5 27.5t29.5 11.5h184q16 0 28.5 -11.5t12.5 -27.5v-231q0 -17 -13 -29t-28 -12h-184q-17 0 -29 12t-12 29zM588 41v231q0 16 11.5 27.5t29.5 11.5h184q18 0 29.5 -10.5t11.5 -28.5v-231q0 -18 -12 -29.5t-29 -11.5h-184q-17 0 -29 12t-12 29z M1065 41v231q0 16 11.5 27.5t29.5 11.5h184q18 0 29.5 -10.5t11.5 -28.5v-231q0 -18 -12 -29.5t-29 -11.5h-184q-17 0 -29 12t-12 29z" />
<glyph unicode="&#x202f;" horiz-adv-x="409" />
<glyph unicode="&#x2039;" horiz-adv-x="823" d="M82 578q0 34 16 51l332 364q16 16 27.5 21.5t34.5 5.5h194q31 0 31 -23q0 -8 -6 -14l-371 -405l371 -406q6 -6 6 -14q0 -23 -31 -23h-194q-23 0 -32 4t-30 23l-332 364q-16 17 -16 52z" />
<glyph unicode="&#x203a;" horiz-adv-x="823" d="M106 158q0 7 7 14l370 406l-370 405q-7 7 -7 14q0 23 31 23h195q24 0 35.5 -6t25.5 -21l332 -364q16 -17 16 -51q0 -35 -16 -52l-332 -364q-17 -17 -27 -22t-34 -5h-195q-31 0 -31 23z" />
<glyph unicode="&#x205f;" horiz-adv-x="511" />
<glyph unicode="&#x20ac;" d="M104 555v98q0 17 12 29t29 12h74v140h-74q-15 0 -28 12t-13 28v99q0 15 13 28t28 13h78q17 154 77 256t148 161t184 83t193 24q173 0 297 -33q45 -13 45 -47v-137q0 -43 -39 -43h-6q-192 16 -293 16q-123 0 -208 -67t-109 -213h504q13 0 23 -9t10 -22q0 -3 -0.5 -5 t-1.5 -5l-27 -99q-11 -40 -41 -40h-473v-140h422q14 0 23.5 -8.5t9.5 -21.5q0 -2 -1 -5l-2 -6l-26 -98q-11 -41 -41 -41h-381q23 -147 108 -217t209 -70q70 0 158.5 7t136.5 10h6q39 0 39 -43v-138q0 -32 -45 -47q-120 -32 -299 -32q-215 0 -394.5 124.5t-205.5 405.5h-78 q-15 0 -28 12t-13 29z" />
<glyph unicode="&#x2122;" horiz-adv-x="1667" d="M51 1403v90q0 12 8 20.5t21 8.5h543q14 0 22 -8t8 -21v-90q0 -12 -9.5 -19.5t-20.5 -7.5h-181v-655q0 -10 -8.5 -19.5t-19.5 -9.5h-121q-12 0 -20.5 9.5t-8.5 19.5v655h-184q-9 0 -19 8t-10 19zM721 713v739q0 31 10.5 42.5t36.5 14.5q218 21 383 21q163 0 253 -21 t134.5 -89.5t44.5 -205.5v-501q0 -21 -20 -21h-131q-21 0 -21 21v501q0 70 -10.5 102t-44.5 43t-117 11v-657q0 -10 -6 -15.5t-16 -5.5h-132q-20 0 -20 21v657q-78 0 -172 -8v-649q0 -21 -21 -21h-129q-22 0 -22 21z" />
<glyph unicode="&#xe000;" horiz-adv-x="1155" d="M0 0v1155h1155v-1155h-1155z" />
</font>
</defs>
</svg>
