<?xml version="1.0" standalone="no"?>
<!DOCTYPE svg PUBLIC "-//W3C//DTD SVG 1.1//EN" "http://www.w3.org/Graphics/SVG/1.1/DTD/svg11.dtd" >
<svg xmlns="http://www.w3.org/2000/svg">
<metadata>
Created by FontForge 20120702 at Tue Nov 27 14:16:15 2012

URW Software, Copyright 2003 by URW
</metadata>
<defs>
<font id="Tele-GroteskHal-Regular" horiz-adv-x="1024" vert-adv-y="2048" >
  <font-face 
    font-family="Tele-GroteskHal"
    font-weight="500"
    font-stretch="normal"
    units-per-em="2048"
    panose-1="0 0 0 0 0 0 0 0 0 0"
    ascent="1679"
    descent="-369"
    x-height="942"
    cap-height="1365"
    bbox="-154 -512 2550 1825"
    underline-thickness="132"
    underline-position="-109"
    unicode-range="U+0020-FFFD"
  />
<missing-glyph horiz-adv-x="393" vert-adv-y="1720" 
d="M39 0v1365h315v-1365h-315zM315 39v1287h-237v-1287h237z" />
    <glyph glyph-name=".notdef" horiz-adv-x="393" vert-adv-y="1720" 
d="M39 0v1365h315v-1365h-315zM315 39v1287h-237v-1287h237z" />
    <glyph glyph-name="glyph1" horiz-adv-x="0" vert-adv-y="0" 
 />
    <glyph glyph-name="glyph2" horiz-adv-x="393" vert-adv-y="1720" 
 />
    <glyph glyph-name="space" unicode=" " horiz-adv-x="393" vert-adv-y="1720" 
 />
    <glyph glyph-name="exclam" unicode="!" horiz-adv-x="543" vert-adv-y="1720" 
d="M361 1365v-418l-47 -607h-85l-46 607v418h178zM371 213v-213h-199v213h199z" />
    <glyph glyph-name="quotedbl" unicode="&#x22;" horiz-adv-x="614" vert-adv-y="1720" 
d="M219 845h-114l-23 520h160zM508 845h-113l-24 520h161z" />
    <glyph glyph-name="numbersign" unicode="#" horiz-adv-x="1229" vert-adv-y="1720" 
d="M134 450v119h201l35 250h-184v119h201l50 359h134l-51 -359h249l50 359h134l-50 -359h186v-119h-203l-35 -250h186v-119h-203l-54 -382h-133l53 382h-248l-54 -382h-134l54 382h-184zM752 819h-249l-34 -250h248z" />
    <glyph glyph-name="dollar" unicode="$" horiz-adv-x="1049" vert-adv-y="1720" 
d="M451 1447h127v-97q143 -20 237 -101q108 -96 118 -249h-172q-6 97 -66 155q-47 43 -117 60v-439q124 -38 191 -72q95 -49 155 -136q57 -81 57 -188q0 -126 -78 -219q-112 -135 -325 -151v-92h-127v97q-151 19 -252 114q-116 112 -124 295h161q7 -127 76 -199
q54 -56 139 -74v489q-114 39 -183 80q-176 105 -176 294q0 201 189 295q71 35 170 45v93zM578 144q92 11 148 51q89 64 89 168q0 122 -107 192q-36 24 -130 56v-467zM451 1220q-82 -14 -126 -50q-70 -57 -70 -149q0 -107 103 -173q29 -18 93 -43v415z" />
    <glyph glyph-name="percent" unicode="%" horiz-adv-x="1822" vert-adv-y="1720" 
d="M395 1384q147 0 240 -118q94 -119 94 -309q0 -169 -73 -284q-92 -147 -267 -147q-173 0 -267 148q-72 113 -72 281q0 197 94 311q96 118 251 118zM387 1268q-91 0 -149 -81q-60 -85 -60 -228q0 -135 51 -222q28 -48 79 -75q39 -21 83 -21q89 0 142 71q68 91 68 243
q0 141 -59 228q-57 85 -155 85zM683 0h-129l588 1365h126zM1439 838q147 0 239 -118q94 -119 94 -309q0 -168 -73 -284q-92 -146 -267 -146q-172 0 -266 148q-72 112 -72 280q0 197 94 311q96 118 251 118zM1430 722q-90 0 -148 -81q-60 -85 -60 -228q0 -134 51 -221
q28 -48 79 -75q38 -21 82 -21q89 0 142 71q68 90 68 242q0 141 -59 228q-57 85 -155 85z" />
    <glyph glyph-name="ampersand" unicode="&#x26;" horiz-adv-x="999" vert-adv-y="1720" 
d="M972 0h-170l-74 111q-144 -140 -324 -140q-151 0 -247 95q-106 104 -106 259q0 107 61 216q49 88 190 208q-13 19 -53 78q-99 144 -99 279q0 141 110 225q82 63 188 63q130 0 213 -82q78 -77 78 -195q0 -110 -78 -212q-53 -69 -182 -172l258 -382q33 98 37 216h143
q-19 -202 -99 -338zM371 646q-166 -154 -166 -326q0 -106 66 -168q61 -58 152 -58q135 0 238 117zM409 837q68 59 97 94q77 94 77 189q0 60 -36 104q-39 47 -102 47q-55 0 -94 -39q-50 -49 -50 -130q0 -90 64 -196q10 -19 44 -69z" />
    <glyph glyph-name="quotesingle" unicode="'" horiz-adv-x="324" vert-adv-y="1720" 
d="M219 845h-114l-23 520h161z" />
    <glyph glyph-name="parenleft" unicode="(" horiz-adv-x="555" vert-adv-y="1720" 
d="M331 1365h121q-74 -126 -131 -318q-79 -267 -79 -547q0 -289 84 -553q57 -177 126 -302h-121q-6 12 -58 110q-191 361 -191 738q0 284 91 541q69 193 158 331z" />
    <glyph glyph-name="parenright" unicode=")" horiz-adv-x="555" vert-adv-y="1720" 
d="M102 1365h121q91 -142 158 -331q91 -257 91 -538q0 -250 -86 -500q-41 -118 -105 -241q-52 -98 -58 -110h-121q210 393 210 854q0 293 -86 572q-51 165 -124 294z" />
    <glyph glyph-name="asterisk" unicode="*" horiz-adv-x="819" vert-adv-y="1720" 
d="M707 1120l-227 -75l142 -188l-72 -55l-142 193l-144 -193l-73 55l147 188l-226 75l29 84l222 -78v239h93l-3 -239l224 78z" />
    <glyph glyph-name="plus" unicode="+" vert-adv-y="1720" 
d="M68 756h374v347h140v-347h373v-132h-373v-348h-140v348h-374v132z" />
    <glyph glyph-name="comma" unicode="," horiz-adv-x="486" vert-adv-y="1720" 
d="M342 213v-131q0 -123 -17 -184q-42 -148 -182 -185v101q91 29 96 168v18h-96v213h199z" />
    <glyph glyph-name="hyphen" unicode="-" horiz-adv-x="399" vert-adv-y="1720" 
d="M399 591v-164h-399v164h399z" />
    <glyph glyph-name="period" unicode="." horiz-adv-x="486" vert-adv-y="1720" 
d="M342 213v-213h-199v213h199z" />
    <glyph glyph-name="slash" unicode="/" horiz-adv-x="741" vert-adv-y="1720" 
d="M88 -355h-130l577 1720h126z" />
    <glyph glyph-name="zero" unicode="0" horiz-adv-x="966" vert-adv-y="1720" 
d="M485 1394q201 0 300 -184q85 -157 85 -540q0 -256 -36 -390q-83 -309 -347 -309q-213 0 -312 187q-42 80 -60 191q-20 122 -20 335q0 270 36 404q82 306 354 306zM478 1256q-124 0 -178 -147q-43 -119 -43 -435q0 -313 52 -433q58 -132 176 -132q122 0 179 154
q44 119 44 425q0 319 -56 442q-57 126 -174 126z" />
    <glyph glyph-name="one" unicode="1" horiz-adv-x="966" vert-adv-y="1720" 
d="M452 0v1066q-46 -44 -107 -63q-43 -12 -131 -12v127q144 2 210 75q45 50 69 172h120v-1365h-161z" />
    <glyph glyph-name="two" unicode="2" horiz-adv-x="966" vert-adv-y="1720" 
d="M843 140v-140h-761q-3 230 95 373q55 83 153 162q33 26 158 113q215 151 215 347q0 103 -55 174q-65 84 -175 84q-128 0 -184 -110q-29 -56 -29 -160h-178q4 137 67 242q55 90 151 135q80 36 174 36q186 0 300 -124q100 -109 100 -273q0 -177 -114 -307
q-66 -74 -217 -173q-107 -70 -152 -107t-79 -83q-63 -87 -65 -189h596z" />
    <glyph glyph-name="three" unicode="3" horiz-adv-x="966" vert-adv-y="1720" 
d="M255 1019h-152q4 138 63 231q90 144 291 144q156 0 253 -88q105 -97 105 -265q0 -208 -163 -301q73 -24 124 -79q89 -95 89 -259q0 -185 -103 -305q-107 -126 -297 -126q-269 0 -359 226q-28 70 -28 181h154q7 -123 55 -186q62 -83 179 -83q113 0 176 86q61 83 61 203
q0 151 -98 215q-62 40 -163 40h-60v140h49q106 0 164 66q59 69 59 176q0 105 -61 167q-54 54 -139 54q-118 0 -168 -102q-27 -54 -31 -135z" />
    <glyph glyph-name="four" unicode="4" horiz-adv-x="966" vert-adv-y="1720" 
d="M575 0v345h-495v150l514 870h126v-888h151v-132h-151v-345h-145zM575 477v630l-369 -630h369z" />
    <glyph glyph-name="five" unicode="5" horiz-adv-x="966" vert-adv-y="1720" 
d="M123 640l104 725h576v-143h-460l-61 -404q82 89 217 89q154 0 253 -112q117 -131 117 -347q0 -209 -113 -343q-115 -134 -300 -134q-209 0 -310 161q-53 86 -56 198h157q8 -86 52 -143q59 -78 158 -78t166 79q84 99 84 250q0 145 -73 247q-60 84 -168 84
q-138 0 -213 -138z" />
    <glyph glyph-name="six" unicode="6" horiz-adv-x="966" vert-adv-y="1720" 
d="M851 1057h-157q-28 199 -179 199q-149 0 -213 -192q-39 -117 -51 -329q103 153 271 153q169 0 269 -135q91 -123 91 -315q0 -209 -107 -337q-109 -130 -274 -130q-145 0 -246 97q-87 84 -123 226q-35 134 -35 339q0 314 73 491q111 270 349 270q171 0 259 -121
q63 -85 73 -216zM496 750q-112 0 -173 -114q-46 -88 -46 -205q0 -124 52 -215q60 -107 172 -107q107 0 167 101q52 87 52 210q0 135 -51 226q-58 104 -173 104z" />
    <glyph glyph-name="seven" unicode="7" horiz-adv-x="966" vert-adv-y="1720" 
d="M440 0h-166q9 157 52 348q111 474 387 859h-584v158h743v-142q-367 -506 -432 -1223z" />
    <glyph glyph-name="eight" unicode="8" horiz-adv-x="966" vert-adv-y="1720" 
d="M299 743q-163 86 -163 300q0 162 103 259q97 92 245 92q166 0 264 -114q79 -93 79 -232q0 -207 -162 -305q208 -99 208 -359q0 -170 -84 -278q-106 -135 -309 -135q-172 0 -277 104q-110 109 -110 296q0 270 206 372zM479 1256q-73 0 -121 -50q-60 -63 -60 -174
q0 -91 45 -157q51 -73 140 -73q83 0 129 61q53 69 53 172q0 99 -47 157q-51 64 -139 64zM479 674q-91 0 -153 -72q-71 -82 -71 -218q0 -113 57 -188q65 -87 172 -87q101 0 161 73q66 81 66 204q0 128 -67 211q-61 77 -165 77z" />
    <glyph glyph-name="nine" unicode="9" horiz-adv-x="966" vert-adv-y="1720" 
d="M127 307h158q27 -198 179 -198q148 0 212 191q40 118 51 329q-103 -153 -271 -153t-268 135q-91 122 -91 315q0 210 106 337q110 131 275 131q145 0 246 -98q87 -83 123 -225q35 -135 35 -341q0 -312 -73 -489q-111 -270 -350 -270q-172 0 -259 120q-62 85 -73 216z
M475 1248q-104 0 -164 -98q-52 -86 -52 -209q0 -130 51 -223q57 -104 170 -104q115 0 176 114q46 88 46 203q0 126 -52 212q-62 105 -175 105z" />
    <glyph glyph-name="colon" unicode=":" horiz-adv-x="486" vert-adv-y="1720" 
d="M342 942v-213h-199v213h199zM342 213v-213h-199v213h199z" />
    <glyph glyph-name="semicolon" unicode=";" horiz-adv-x="486" vert-adv-y="1720" 
d="M342 942v-213h-199v213h199zM342 213v-131q0 -123 -17 -184q-42 -148 -182 -185v101q91 29 96 168v18h-96v213h199z" />
    <glyph glyph-name="less" unicode="&#x3c;" vert-adv-y="1720" 
d="M955 1176v-166l-710 -327l710 -327v-166l-887 421v144z" />
    <glyph glyph-name="equal" unicode="=" vert-adv-y="1720" 
d="M68 906h887v-132h-887v132zM68 606h887v-132h-887v132z" />
    <glyph glyph-name="greater" unicode="&#x3e;" vert-adv-y="1720" 
d="M69 1176l887 -421v-144l-887 -421v166l709 327l-709 327v166z" />
    <glyph glyph-name="question" unicode="?" horiz-adv-x="907" vert-adv-y="1720" 
d="M103 965q3 146 49 240q94 192 313 192q171 0 271 -117q84 -98 84 -245q0 -142 -80 -256q-24 -34 -115 -139q-72 -85 -83 -194q-5 -43 -5 -109h-148q-1 30 -1 42q0 119 29 198q21 57 54 101q26 36 69 87q70 84 92 142q22 57 22 119q0 101 -55 166q-52 62 -139 62
q-139 0 -188 -151q-15 -45 -20 -138h-149zM562 213v-213h-199v213h199z" />
    <glyph glyph-name="at" unicode="@" horiz-adv-x="1502" vert-adv-y="1720" 
d="M982 973h128l-76 -391q-11 -77 -11 -85q0 -49 42 -49q76 0 148 76q121 127 121 322q0 204 -144 328q-137 118 -341 118q-257 0 -438 -192q-190 -201 -190 -507q0 -231 126 -372q136 -150 391 -150q204 0 374 74q17 7 78 37l33 -103q-230 -112 -492 -112q-306 0 -469 171
q-166 174 -166 451q0 230 115 433q108 190 298 289q162 85 339 85q243 0 410 -142q183 -157 183 -406q0 -171 -91 -311q-71 -110 -172 -159q-66 -33 -133 -33q-101 0 -129 99q-82 -110 -203 -110q-111 0 -176 85q-59 78 -59 197q0 156 91 271q86 108 215 108q124 0 180 -118
zM790 886q-46 0 -91 -34q-51 -38 -78 -111q-21 -58 -21 -119q0 -74 30 -126q32 -56 97 -56q93 0 147 99q43 78 43 184q0 74 -32 117q-34 46 -95 46z" />
    <glyph glyph-name="A" unicode="A" horiz-adv-x="1133" vert-adv-y="1720" 
d="M475 1365h185l444 -1365h-182l-127 419h-463l-129 -419h-174zM375 560h377l-187 619z" />
    <glyph glyph-name="B" unicode="B" horiz-adv-x="1140" vert-adv-y="1720" 
d="M152 0v1365h433q186 0 270 -54q145 -94 145 -282q0 -122 -67 -205q-40 -50 -120 -92q237 -69 237 -342q0 -149 -73 -249q-102 -141 -322 -141h-503zM319 784h229q151 0 203 36q81 57 81 179q0 154 -101 201q-42 20 -168 20h-244v-436zM319 145h259q162 0 215 36
q89 60 89 212q0 169 -121 228q-49 24 -209 24h-233v-500z" />
    <glyph glyph-name="C" unicode="C" horiz-adv-x="1213" vert-adv-y="1720" 
d="M964 515h170q-16 -192 -97 -325q-136 -223 -400 -223q-259 0 -399 194q-144 201 -144 517q0 306 140 503q152 215 413 215q247 0 383 -188q81 -112 94 -252h-171q-19 107 -72 177q-90 120 -240 120q-180 0 -276 -163q-98 -166 -98 -410q0 -257 106 -423q93 -147 264 -147
q196 0 282 202q34 81 45 203z" />
    <glyph glyph-name="D" unicode="D" horiz-adv-x="1201" vert-adv-y="1720" 
d="M154 0v1365h376q154 0 255 -40q175 -69 260 -268q64 -150 64 -356q0 -346 -162 -537q-94 -110 -223 -146q-65 -18 -177 -18h-393zM320 145h198q123 0 181 21q112 40 178 186q59 129 59 345q0 282 -124 416q-60 64 -136 89q-57 18 -143 18h-213v-1075z" />
    <glyph glyph-name="E" unicode="E" horiz-adv-x="1041" vert-adv-y="1720" 
d="M152 0v1365h789v-145h-622v-447h580v-141h-580v-487h630v-145h-797z" />
    <glyph glyph-name="F" unicode="F" horiz-adv-x="961" vert-adv-y="1720" 
d="M152 0v1365h755v-145h-588v-446h516v-141h-516v-633h-167z" />
    <glyph glyph-name="G" unicode="G" horiz-adv-x="1282" vert-adv-y="1720" 
d="M1155 0h-141v174q-134 -207 -371 -207q-209 0 -349 140q-90 90 -135 207q-65 168 -65 359q0 360 196 572q142 152 368 152q273 0 408 -213q65 -104 78 -238h-167q-12 90 -55 162q-88 146 -263 146q-192 0 -296 -172q-96 -158 -96 -403q0 -261 109 -419q103 -149 278 -149
q144 0 237 104q109 120 114 363h-358v143h508v-721z" />
    <glyph glyph-name="H" unicode="H" horiz-adv-x="1220" vert-adv-y="1720" 
d="M152 0v1365h167v-574h583v574h167v-1365h-167v646h-583v-646h-167z" />
    <glyph glyph-name="I" unicode="I" horiz-adv-x="470" vert-adv-y="1720" 
d="M152 0v1365h167v-1365h-167z" />
    <glyph glyph-name="J" unicode="J" horiz-adv-x="602" vert-adv-y="1720" 
d="M0 -19v147q46 -18 94 -18q134 0 182 124q20 51 23 137q1 42 1 124v870h167v-898q0 -168 -16 -238q-30 -137 -138 -208q-83 -54 -208 -54q-48 0 -105 14z" />
    <glyph glyph-name="K" unicode="K" horiz-adv-x="1105" vert-adv-y="1720" 
d="M152 0v1365h167v-633l551 633h206l-506 -569l517 -796h-193l-434 673l-141 -158v-515h-167z" />
    <glyph glyph-name="L" unicode="L" horiz-adv-x="968" vert-adv-y="1720" 
d="M152 0v1365h167v-1220h594v-145h-761z" />
    <glyph glyph-name="M" unicode="M" horiz-adv-x="1457" vert-adv-y="1720" 
d="M152 0v1365h221l361 -1152l347 1152h224v-1365h-153v1164l-337 -1164h-166l-348 1141v-1141h-149z" />
    <glyph glyph-name="N" unicode="N" horiz-adv-x="1229" vert-adv-y="1720" 
d="M152 0v1365h178l595 -1117v1117h153v-1365h-181l-592 1105v-1105h-153z" />
    <glyph glyph-name="O" unicode="O" horiz-adv-x="1297" vert-adv-y="1720" 
d="M657 1396q162 0 291 -96q138 -103 205 -294q49 -142 49 -321q0 -282 -120 -476q-72 -116 -189 -181q-111 -61 -246 -61q-194 0 -332 123q-221 195 -221 591q0 329 154 520q157 195 409 195zM643 1250q-165 0 -269 -150q-108 -155 -108 -412q0 -243 90 -400
q52 -89 144 -140q70 -38 150 -38q103 0 191 65q97 72 148 228q40 124 40 277q0 255 -105 414q-103 156 -281 156z" />
    <glyph glyph-name="P" unicode="P" horiz-adv-x="1066" vert-adv-y="1720" 
d="M152 0v1365h414q118 0 185 -20q104 -31 174 -123q73 -97 73 -254q0 -237 -154 -343q-67 -46 -157 -58q-37 -5 -115 -5h-253v-562h-167zM319 707h233q133 0 192 49q81 68 81 209q0 161 -108 224q-54 31 -187 31h-211v-513z" />
    <glyph glyph-name="Q" unicode="Q" horiz-adv-x="1297" vert-adv-y="1720" 
d="M1176 -18l-100 -98l-153 162q-129 -79 -275 -79q-282 0 -436 245q-118 188 -118 472q0 322 154 517t402 195q249 0 398 -195q154 -200 154 -517q0 -346 -173 -546zM774 406l144 -151q111 167 111 427q0 250 -105 412q-101 156 -276 156q-169 0 -273 -150
q-108 -155 -108 -412q0 -244 90 -400q52 -89 144 -140q70 -38 150 -38q82 0 165 48l-143 151z" />
    <glyph glyph-name="R" unicode="R" horiz-adv-x="1178" vert-adv-y="1720" 
d="M152 0v1365h481q116 0 184 -27q99 -39 158 -131q57 -89 57 -213q0 -167 -104 -265q-48 -45 -119 -70q110 -21 161 -136q20 -50 28 -129q2 -26 13 -157q15 -191 63 -237h-189q-19 28 -26 74q-4 27 -12 168q-10 161 -33 220q-36 94 -120 117q-49 13 -133 13h-242v-592h-167
zM319 735h228q108 0 158 13q154 41 154 231q0 139 -86 202q-54 39 -187 39h-267v-485z" />
    <glyph glyph-name="S" unicode="S" horiz-adv-x="1063" vert-adv-y="1720" 
d="M82 424h165q8 -118 49 -184q79 -125 245 -125q139 0 211 89q52 64 52 154q0 124 -103 191q-44 28 -223 89q-178 61 -259 130q-114 98 -114 257q0 154 101 257q114 115 300 115q158 0 271 -83q103 -75 140 -194q14 -46 20 -120h-174q-6 95 -44 149q-71 102 -212 102
q-101 0 -163 -59q-65 -62 -65 -161q0 -110 100 -176q52 -34 196 -80q127 -41 162 -57q244 -112 244 -345q0 -170 -117 -285q-121 -120 -322 -120q-271 0 -394 208q-57 96 -66 248z" />
    <glyph glyph-name="T" unicode="T" horiz-adv-x="1020" vert-adv-y="1720" 
d="M427 0v1220h-380v145h926v-145h-379v-1220h-167z" />
    <glyph glyph-name="U" unicode="U" horiz-adv-x="1202" vert-adv-y="1720" 
d="M135 1365h165v-771q0 -141 8 -201q22 -158 106 -225q72 -58 195 -58q197 0 258 170q33 89 33 314v771h167v-769q0 -205 -25 -297q-90 -332 -431 -332q-188 0 -295 83q-117 91 -158 258q-23 95 -23 291v766z" />
    <glyph glyph-name="V" unicode="V" horiz-adv-x="1057" vert-adv-y="1720" 
d="M435 0l-406 1365h182l323 -1182l323 1182h171l-406 -1365h-187z" />
    <glyph glyph-name="W" unicode="W" horiz-adv-x="1534" vert-adv-y="1720" 
d="M332 0l-295 1365h168l219 -1132l249 1132h189l248 -1134l225 1134h162l-303 -1365h-174l-255 1154l-257 -1154h-176z" />
    <glyph glyph-name="X" unicode="X" horiz-adv-x="1043" vert-adv-y="1720" 
d="M25 0l401 699l-376 666h194l279 -528l290 528h184l-378 -657l400 -708h-197l-301 560l-309 -560h-187z" />
    <glyph glyph-name="Y" unicode="Y" horiz-adv-x="1055" vert-adv-y="1720" 
d="M446 0v560l-442 805h195l335 -643l330 643h187l-438 -805v-560h-167z" />
    <glyph glyph-name="Z" unicode="Z" horiz-adv-x="1041" vert-adv-y="1720" 
d="M66 0v151l704 1069h-646v145h835v-147l-704 -1073h719v-145h-908z" />
    <glyph glyph-name="bracketleft" unicode="[" horiz-adv-x="557" vert-adv-y="1720" 
d="M456 1365v-127h-171v-1465h171v-128h-313v1720h313z" />
    <glyph glyph-name="backslash" unicode="\" horiz-adv-x="741" vert-adv-y="1720" 
d="M653 -355l-573 1720h126l577 -1720h-130z" />
    <glyph glyph-name="bracketright" unicode="]" horiz-adv-x="557" vert-adv-y="1720" 
d="M100 -355v127h171v1465h-171v128h313v-1720h-313z" />
    <glyph glyph-name="asciicircum" unicode="^" vert-adv-y="1720" 
d="M219 764h-156l355 605h189l354 -605h-157l-293 491z" />
    <glyph glyph-name="underscore" unicode="_" vert-adv-y="1720" 
d="M68 -110h887v-132h-887v132z" />
    <glyph glyph-name="grave" unicode="`" vert-adv-y="1720" 
d="M441 1365l163 -273h-131l-178 273h146z" />
    <glyph glyph-name="a" unicode="a" horiz-adv-x="935" vert-adv-y="1720" 
d="M877 128v-118q-45 -28 -97 -28q-61 0 -95 37q-34 36 -34 98v27q-113 -173 -288 -173q-109 0 -185 64q-92 77 -92 209q0 146 111 228q83 62 237 78q69 7 207 11v87q0 199 -184 199q-110 0 -158 -76q-25 -41 -32 -119h-149q7 148 92 231q91 88 256 88q182 0 267 -111
q42 -55 51 -145q4 -35 4 -140v-356q1 -74 6 -86q10 -20 34 -20q22 0 49 15zM641 458q-143 -6 -224 -24q-84 -19 -126 -63q-51 -52 -51 -124q0 -65 43 -110q41 -43 106 -43q80 0 145 56q62 54 88 141q19 63 19 115v52z" />
    <glyph glyph-name="b" unicode="b" horiz-adv-x="1026" vert-adv-y="1720" 
d="M143 0v1365h153v-532q96 138 265 138t273 -133q106 -134 106 -362q0 -237 -112 -376q-104 -129 -276 -129q-178 0 -266 143v-114h-143zM537 848q-105 0 -171 -91q-74 -102 -74 -286q0 -173 65 -275q66 -102 183 -102q112 0 176 102q69 110 69 275q0 176 -70 281
q-64 96 -178 96z" />
    <glyph glyph-name="c" unicode="c" horiz-adv-x="919" vert-adv-y="1720" 
d="M699 336h154q-2 -110 -66 -207q-103 -158 -297 -158q-197 0 -303 146q-101 139 -101 354q0 208 95 345q108 155 305 155q175 0 279 -125q63 -76 84 -202h-157q-14 77 -46 123q-59 81 -158 81q-113 0 -178 -100q-70 -107 -70 -276q0 -172 67 -277q65 -101 183 -101
q112 0 171 110q29 53 38 132z" />
    <glyph glyph-name="d" unicode="d" horiz-adv-x="1026" vert-adv-y="1720" 
d="M882 0h-142v114q-92 -143 -267 -143q-172 0 -276 129q-112 139 -112 376q0 229 106 362q104 133 273 133t265 -138v532h153v-1365zM481 848q-70 0 -129 -49q-57 -46 -86 -138q-27 -85 -27 -188q0 -167 69 -277q64 -102 176 -102q75 0 136 50q113 92 113 325
q0 186 -74 288q-67 91 -178 91z" />
    <glyph glyph-name="e" unicode="e" horiz-adv-x="948" vert-adv-y="1720" 
d="M862 431h-621q2 -95 27 -166q60 -171 219 -171q125 0 180 107q20 39 37 100h148q-21 -115 -77 -190q-102 -140 -286 -140q-205 0 -310 156q-93 138 -93 347q0 217 107 358q106 139 285 139q148 0 246 -92q106 -101 129 -300q7 -59 9 -148zM706 554q-7 101 -37 167
q-58 127 -189 127q-124 0 -186 -115q-38 -71 -51 -179h463z" />
    <glyph glyph-name="f" unicode="f" horiz-adv-x="519" vert-adv-y="1720" 
d="M179 0v815h-136v127h136v91q0 190 35 254q60 109 195 109q44 0 100 -14v-139q-44 18 -74 18q-71 0 -91 -60q-12 -36 -12 -119v-140h155v-127h-155v-815h-153z" />
    <glyph glyph-name="g" unicode="g" horiz-adv-x="1003" vert-adv-y="1720" 
d="M114 -76h155q14 -66 54 -102q59 -54 154 -54q230 0 230 309v62q-75 -152 -252 -152q-168 0 -267 129q-102 134 -102 351q0 229 109 370q55 72 138 108q62 26 130 26q97 0 171 -52q43 -31 83 -94v117h142v-809q0 -207 -60 -312q-54 -93 -155 -140q-77 -36 -171 -36
q-201 0 -299 128q-50 67 -60 151zM471 848q-114 0 -177 -116q-53 -99 -53 -257q0 -200 83 -294q63 -71 151 -71q72 0 122 45q114 103 114 339q0 186 -80 281q-62 73 -160 73z" />
    <glyph glyph-name="h" unicode="h" horiz-adv-x="980" vert-adv-y="1720" 
d="M143 0v1365h153v-537q95 143 265 143t242 -123q42 -71 42 -236v-612h-153v594q0 125 -24 172q-42 82 -146 82q-140 0 -198 -141q-28 -69 -28 -262v-445h-153z" />
    <glyph glyph-name="i" unicode="i" horiz-adv-x="447" vert-adv-y="1720" 
d="M147 1157v208h153v-208h-153zM147 0v942h153v-942h-153z" />
    <glyph glyph-name="j" unicode="j" horiz-adv-x="444" vert-adv-y="1720" 
d="M8 -349v131q31 -8 57 -8q50 0 65 31q13 29 13 211v926h153v-925q0 -202 -21 -257q-44 -115 -195 -115q-32 0 -72 6zM144 1157v208h152v-208h-152z" />
    <glyph glyph-name="k" unicode="k" horiz-adv-x="907" vert-adv-y="1720" 
d="M143 0v1365h153v-801l363 378h195l-343 -350l365 -592h-180l-295 479l-105 -107v-372h-153z" />
    <glyph glyph-name="l" unicode="l" horiz-adv-x="447" vert-adv-y="1720" 
d="M147 0v1365h153v-1365h-153z" />
    <glyph glyph-name="m" unicode="m" horiz-adv-x="1454" vert-adv-y="1720" 
d="M143 0v942h143v-119q45 65 87 96q71 52 165 52q176 0 240 -156q100 156 273 156q94 0 164 -50q78 -57 96 -165q7 -39 7 -105v-651h-153v594q0 115 -14 158q-32 96 -142 96q-135 0 -184 -144q-18 -52 -18 -204v-500h-153v606q0 135 -30 184q-37 58 -115 58q-81 0 -138 -61
q-57 -59 -69 -162q-6 -49 -6 -126v-499h-153z" />
    <glyph glyph-name="n" unicode="n" horiz-adv-x="980" vert-adv-y="1720" 
d="M143 0v942h143v-127q104 156 280 156q104 0 177 -56q76 -58 94 -168q8 -45 8 -138v-609h-153v555q0 128 -15 183q-14 50 -55 80t-99 30q-103 0 -165 -82q-42 -56 -54 -146q-8 -56 -8 -163v-457h-153z" />
    <glyph glyph-name="o" unicode="o" horiz-adv-x="986" vert-adv-y="1720" 
d="M500 971q182 0 293 -137q107 -132 107 -362q0 -255 -127 -391q-103 -110 -275 -110q-200 0 -307 142q-105 140 -105 358q0 210 94 343q112 157 320 157zM491 848q-108 0 -174 -92q-76 -107 -76 -284q0 -180 74 -285q66 -93 182 -93q104 0 165 79q83 108 83 298
q0 181 -73 283q-66 94 -181 94z" />
    <glyph glyph-name="p" unicode="p" horiz-adv-x="1027" vert-adv-y="1720" 
d="M144 -355v1297h143v-114q89 143 266 143q172 0 276 -129q112 -139 112 -376q0 -229 -106 -362q-104 -133 -273 -133t-265 138v-464h-153zM537 848q-71 0 -132 -50q-112 -92 -112 -327q0 -183 74 -285q66 -92 174 -92q113 0 175 96q70 107 70 277q0 171 -69 279
q-65 102 -180 102z" />
    <glyph glyph-name="q" unicode="q" horiz-adv-x="1025" vert-adv-y="1720" 
d="M882 -355h-153v464q-95 -138 -265 -138q-169 0 -273 133q-106 133 -106 362q0 237 112 376q104 129 276 129q174 0 267 -143v114h142v-1297zM481 848q-108 0 -172 -102q-69 -109 -69 -277q0 -172 69 -279q63 -96 176 -96q109 0 174 92q74 103 74 283q0 176 -66 277
q-66 102 -186 102z" />
    <glyph glyph-name="r" unicode="r" horiz-adv-x="612" vert-adv-y="1720" 
d="M143 0v942h143v-177q92 214 307 206v-171q-36 4 -50 4q-107 0 -173 -89q-55 -74 -68 -200q-6 -67 -6 -178v-337h-153z" />
    <glyph glyph-name="s" unicode="s" horiz-adv-x="801" vert-adv-y="1720" 
d="M65 266h157q6 -168 184 -168q86 0 129 43q36 36 36 95q0 79 -82 129q-31 19 -149 65q-127 50 -180 107q-66 72 -66 174q0 121 86 195q77 65 205 65q183 0 261 -124q38 -59 46 -148h-152q-4 62 -35 100q-43 51 -122 51q-72 0 -110 -42q-30 -34 -30 -87q0 -58 40 -93
q39 -34 154 -77q150 -55 209 -105q90 -76 90 -194q0 -128 -88 -207q-82 -74 -229 -74q-218 0 -304 138q-45 71 -50 157z" />
    <glyph glyph-name="t" unicode="t" horiz-adv-x="524" vert-adv-y="1720" 
d="M23 815v127h136v141l125 166h28v-307h161v-127h-161v-557q0 -90 11 -111q22 -41 77 -41q29 0 73 13v-126q-60 -13 -105 -13q-137 0 -183 75q-19 32 -23 98q-3 43 -3 123v539h-136z" />
    <glyph glyph-name="u" unicode="u" horiz-adv-x="980" vert-adv-y="1720" 
d="M837 0h-143v127q-104 -156 -276 -156q-170 0 -240 123q-33 57 -39 127q-4 49 -4 112v609h153v-555q0 -128 15 -183q14 -50 55 -80t99 -30q103 0 165 83q42 55 54 145q8 56 8 164v456h153v-942z" />
    <glyph glyph-name="v" unicode="v" horiz-adv-x="809" vert-adv-y="1720" 
d="M327 0l-307 942h166l226 -758l220 758h156l-300 -942h-161z" />
    <glyph glyph-name="w" unicode="w" horiz-adv-x="1221" vert-adv-y="1720" 
d="M289 0l-264 942h158l183 -745l168 745h157l173 -743l183 743h150l-263 -942h-156l-168 718l-162 -718h-159z" />
    <glyph glyph-name="x" unicode="x" horiz-adv-x="825" vert-adv-y="1720" 
d="M12 0l310 496l-287 446h180l195 -328l198 328h170l-284 -433l319 -509h-180l-228 381l-222 -381h-171z" />
    <glyph glyph-name="y" unicode="y" horiz-adv-x="828" vert-adv-y="1720" 
d="M100 -340v132q15 -5 19 -7q36 -14 65 -14q53 0 76 35q27 41 86 217l-326 919h167l237 -731l224 731h159l-304 -896q-80 -235 -115 -296q-61 -105 -190 -105q-41 0 -98 15z" />
    <glyph glyph-name="z" unicode="z" horiz-adv-x="806" vert-adv-y="1720" 
d="M57 0v113l502 702h-468v127h658v-101l-506 -714h524v-127h-710z" />
    <glyph glyph-name="braceleft" unicode="{" horiz-adv-x="558" vert-adv-y="1720" 
d="M169 503q68 -36 97 -102q19 -45 19 -132v-323q3 -93 14 -109q24 -44 67 -56q34 -8 89 -8h23v-128h-37q-162 -6 -232 62q-65 60 -66 230v328q0 99 -33 138q-33 38 -83 48v114q53 12 85 51q29 35 31 126v351q-1 151 75 213q47 41 119 53q33 6 104 6h37v-127h-23
q-97 0 -140 -44q-28 -30 -30 -125v-336q0 -106 -32 -157q-26 -41 -84 -73z" />
    <glyph glyph-name="bar" unicode="|" vert-adv-y="1720" 
d="M429 1365h166v-1706h-166v1706z" />
    <glyph glyph-name="braceright" unicode="}" horiz-adv-x="558" vert-adv-y="1720" 
d="M389 503q-64 34 -89 83q-27 53 -27 147v336q-2 95 -30 125q-43 44 -140 44h-23v127h37q93 0 142 -15q106 -34 138 -128q18 -54 18 -129v-351q2 -92 31 -126q32 -39 85 -51v-114q-50 -11 -83 -48q-33 -38 -33 -138v-328q-1 -170 -66 -230q-70 -68 -232 -62h-37v128h23
q93 -3 130 29q32 32 35 75q5 44 5 69v323q1 95 23 141q29 59 93 93z" />
    <glyph glyph-name="asciitilde" unicode="~" horiz-adv-x="1365" vert-adv-y="1720" 
d="M282 1186l-89 70q39 81 82 132q81 99 195 99q78 0 235 -78q89 -45 118 -55q43 -14 77 -14q67 0 118 56q33 35 68 96l88 -70q-42 -87 -84 -137q-82 -96 -193 -96q-51 0 -123 30q-38 15 -111 51q-81 39 -112 50q-48 17 -87 17q-67 0 -119 -59q-30 -34 -63 -92z" />
    <glyph glyph-name="Adieresis" unicode="&#xc4;" horiz-adv-x="1133" vert-adv-y="1720" 
d="M475 1365h185l444 -1365h-182l-127 419h-463l-129 -419h-174zM375 560h377l-187 619zM765 1655v-194h-143v194h143zM509 1655v-194h-143v194h143z" />
    <glyph glyph-name="Aring" unicode="&#xc5;" horiz-adv-x="1133" vert-adv-y="1720" 
d="M475 1365h185l444 -1365h-182l-127 419h-463l-129 -419h-174zM375 560h377l-187 619zM567 1733q-42 0 -71 -30q-30 -31 -30 -76q0 -44 29 -75t70 -31q42 0 71 32q29 31 29 74q0 44 -29 75t-69 31zM566 1825q78 0 136 -57q57 -58 57 -139q0 -80 -56 -137q-58 -59 -140 -59
t-139 57q-57 58 -57 139q0 83 59 140q58 56 140 56z" />
    <glyph glyph-name="Ccedilla" unicode="&#xc7;" horiz-adv-x="1213" vert-adv-y="1720" 
d="M964 515h170q-15 -238 -148 -396q-128 -148 -341 -152l-28 -73q27 11 50 11q59 0 100 -29q60 -42 60 -121q0 -73 -45 -119q-48 -50 -134 -50q-90 0 -134 57q-19 24 -23 54h103q9 -34 54 -34q70 0 70 81q0 39 -19 62q-19 22 -51 22q-43 0 -54 -29h-100l66 173
q-161 25 -264 123q-102 98 -155 260q-47 143 -47 323q0 306 140 503q152 215 413 215q247 0 383 -188q81 -112 94 -252h-171q-19 107 -72 177q-90 120 -240 120q-180 0 -276 -163q-98 -166 -98 -410q0 -256 106 -422q93 -147 264 -147q196 0 282 201q33 81 45 203z" />
    <glyph glyph-name="Eacute" unicode="&#xc9;" horiz-adv-x="1041" vert-adv-y="1720" 
d="M152 0v1365h789v-145h-622v-447h580v-141h-580v-487h630v-145h-797zM759 1734l-199 -255h-130l177 255h152z" />
    <glyph glyph-name="Ntilde" unicode="&#xd1;" horiz-adv-x="1229" vert-adv-y="1720" 
d="M152 0v1365h178l595 -1117v1117h153v-1365h-181l-592 1105v-1105h-153zM903 1686q-10 -72 -39 -124q-49 -88 -139 -88q-55 0 -127 57q-54 43 -90 43q-60 0 -78 -93h-103q34 212 179 212q57 0 127 -54q56 -42 85 -42q60 0 80 89h105z" />
    <glyph glyph-name="Odieresis" unicode="&#xd6;" horiz-adv-x="1297" vert-adv-y="1720" 
d="M657 1396q162 0 291 -96q138 -103 205 -294q49 -142 49 -321q0 -282 -120 -476q-72 -116 -189 -181q-111 -61 -246 -61q-194 0 -332 123q-221 195 -221 591q0 329 154 520q157 195 409 195zM643 1250q-165 0 -269 -150q-108 -155 -108 -412q0 -243 90 -400
q52 -89 144 -140q70 -38 150 -38q103 0 191 65q97 72 148 228q40 124 40 277q0 255 -105 414q-103 156 -281 156zM871 1655v-194h-143v194h143zM587 1655v-194h-143v194h143z" />
    <glyph glyph-name="Udieresis" unicode="&#xdc;" horiz-adv-x="1202" vert-adv-y="1720" 
d="M135 1365h165v-771q0 -141 8 -201q22 -158 106 -225q72 -58 195 -58q197 0 258 170q33 89 33 314v771h167v-769q0 -205 -25 -297q-90 -332 -431 -332q-188 0 -295 83q-117 91 -158 258q-23 95 -23 291v766zM815 1655v-194h-143v194h143zM531 1655v-194h-143v194h143z" />
    <glyph glyph-name="aacute" unicode="&#xe1;" horiz-adv-x="935" vert-adv-y="1720" 
d="M877 128v-118q-45 -28 -97 -28q-61 0 -95 37q-34 36 -34 98v27q-113 -173 -288 -173q-109 0 -185 64q-92 77 -92 209q0 146 111 228q83 62 237 78q69 7 207 11v87q0 199 -184 199q-110 0 -158 -76q-25 -41 -32 -119h-149q7 148 92 231q91 88 256 88q182 0 267 -111
q42 -55 51 -145q4 -35 4 -140v-356q1 -74 6 -86q10 -20 34 -20q22 0 49 15zM641 458q-143 -6 -224 -24q-84 -19 -126 -63q-51 -52 -51 -124q0 -65 43 -110q41 -43 106 -43q80 0 145 56q62 54 88 141q19 63 19 115v52zM685 1365l-179 -273h-130l163 273h146z" />
    <glyph glyph-name="agrave" unicode="&#xe0;" horiz-adv-x="935" vert-adv-y="1720" 
d="M877 128v-118q-45 -28 -97 -28q-61 0 -95 37q-34 36 -34 98v27q-113 -173 -288 -173q-109 0 -185 64q-92 77 -92 209q0 146 111 228q83 62 237 78q69 7 207 11v87q0 199 -184 199q-110 0 -158 -76q-25 -41 -32 -119h-149q7 148 92 231q91 88 256 88q182 0 267 -111
q42 -55 51 -145q4 -35 4 -140v-356q1 -74 6 -86q10 -20 34 -20q22 0 49 15zM641 458q-143 -6 -224 -24q-84 -19 -126 -63q-51 -52 -51 -124q0 -65 43 -110q41 -43 106 -43q80 0 145 56q62 54 88 141q19 63 19 115v52zM397 1365l163 -273h-131l-178 273h146z" />
    <glyph glyph-name="acircumflex" unicode="&#xe2;" horiz-adv-x="935" vert-adv-y="1720" 
d="M877 128v-118q-45 -28 -97 -28q-61 0 -95 37q-34 36 -34 98v27q-113 -173 -288 -173q-109 0 -185 64q-92 77 -92 209q0 146 111 228q83 62 237 78q69 7 207 11v87q0 199 -184 199q-110 0 -158 -76q-25 -41 -32 -119h-149q7 148 92 231q91 88 256 88q182 0 267 -111
q42 -55 51 -145q4 -35 4 -140v-356q1 -74 6 -86q10 -20 34 -20q22 0 49 15zM641 458q-143 -6 -224 -24q-84 -19 -126 -63q-51 -52 -51 -124q0 -65 43 -110q41 -43 106 -43q80 0 145 56q62 54 88 141q19 63 19 115v52zM731 1092h-143l-124 197l-126 -197h-132l179 273h164z
" />
    <glyph glyph-name="adieresis" unicode="&#xe4;" horiz-adv-x="935" vert-adv-y="1720" 
d="M877 128v-118q-45 -28 -97 -28q-61 0 -95 37q-34 36 -34 98v27q-113 -173 -288 -173q-109 0 -185 64q-92 77 -92 209q0 146 111 228q83 62 237 78q69 7 207 11v87q0 199 -184 199q-110 0 -158 -76q-25 -41 -32 -119h-149q7 148 92 231q91 88 256 88q182 0 267 -111
q42 -55 51 -145q4 -35 4 -140v-356q1 -74 6 -86q10 -20 34 -20q22 0 49 15zM641 458q-143 -6 -224 -24q-84 -19 -126 -63q-51 -52 -51 -124q0 -65 43 -110q41 -43 106 -43q80 0 145 56q62 54 88 141q19 63 19 115v52zM681 1297v-191h-143v191h143zM397 1297v-191h-143v191
h143z" />
    <glyph glyph-name="atilde" unicode="&#xe3;" horiz-adv-x="935" vert-adv-y="1720" 
d="M877 128v-118q-45 -28 -97 -28q-61 0 -95 37q-34 36 -34 98v27q-113 -173 -288 -173q-109 0 -185 64q-92 77 -92 209q0 146 111 228q83 62 237 78q69 7 207 11v87q0 199 -184 199q-110 0 -158 -76q-25 -41 -32 -119h-149q7 148 92 231q91 88 256 88q182 0 267 -111
q42 -55 51 -145q4 -35 4 -140v-356q1 -74 6 -86q10 -20 34 -20q22 0 49 15zM641 458q-143 -6 -224 -24q-84 -19 -126 -63q-51 -52 -51 -124q0 -65 43 -110q41 -43 106 -43q80 0 145 56q62 54 88 141q19 63 19 115v52zM749 1317q-13 -77 -38 -123q-48 -88 -128 -88
q-48 0 -132 56q-64 43 -94 43q-50 0 -70 -92h-101q9 67 31 111q49 100 140 100q49 0 128 -56q63 -44 87 -44q55 0 74 93h103z" />
    <glyph glyph-name="aring" unicode="&#xe5;" horiz-adv-x="935" vert-adv-y="1720" 
d="M877 128v-118q-45 -28 -97 -28q-61 0 -95 37q-34 36 -34 98v27q-113 -173 -288 -173q-109 0 -185 64q-92 77 -92 209q0 146 111 228q83 62 237 78q69 7 207 11v87q0 199 -184 199q-110 0 -158 -76q-25 -41 -32 -119h-149q7 148 92 231q91 88 256 88q182 0 267 -111
q42 -55 51 -145q4 -35 4 -140v-356q1 -74 6 -86q10 -20 34 -20q22 0 49 15zM641 458q-143 -6 -224 -24q-84 -19 -126 -63q-51 -52 -51 -124q0 -65 43 -110q41 -43 106 -43q80 0 145 56q62 54 88 141q19 63 19 115v52zM465 1356q-39 0 -68 -30t-29 -74q0 -42 29 -73
q28 -30 68 -30q42 0 70 31q28 30 28 72q0 44 -29 74q-28 30 -69 30zM466 1445q76 0 131 -55q56 -56 56 -136q0 -77 -54 -132q-56 -57 -136 -57t-134 55q-56 57 -56 134q0 82 57 137q56 54 136 54z" />
    <glyph glyph-name="ccedilla" unicode="&#xe7;" horiz-adv-x="919" vert-adv-y="1720" 
d="M483 -29l-29 -79q21 9 43 9q53 0 97 -30q58 -41 58 -120q0 -70 -44 -114q-47 -47 -129 -47q-83 0 -122 56q-16 24 -20 53h91q9 -34 56 -34q71 0 71 80q0 38 -20 61q-19 22 -51 22q-41 0 -52 -29h-92l66 180q-99 21 -169 83q-151 134 -151 409q0 208 95 345
q108 155 305 155q175 0 279 -125q63 -76 84 -202h-157q-14 77 -46 123q-59 81 -158 81q-113 0 -178 -100q-70 -107 -70 -276q0 -172 67 -277q65 -101 183 -101q112 0 171 110q29 53 38 132h154q0 -56 -21 -115q-61 -171 -205 -226q-61 -24 -144 -24z" />
    <glyph glyph-name="eacute" unicode="&#xe9;" horiz-adv-x="948" vert-adv-y="1720" 
d="M862 431h-621q2 -95 27 -166q60 -171 219 -171q125 0 180 107q20 39 37 100h148q-21 -115 -77 -190q-102 -140 -286 -140q-205 0 -310 156q-93 138 -93 347q0 217 107 358q106 139 285 139q148 0 246 -92q106 -101 129 -300q7 -59 9 -148zM706 554q-7 101 -37 167
q-58 127 -189 127q-124 0 -186 -115q-38 -71 -51 -179h463zM691 1365l-179 -273h-130l163 273h146z" />
    <glyph glyph-name="egrave" unicode="&#xe8;" horiz-adv-x="948" vert-adv-y="1720" 
d="M862 431h-621q2 -95 27 -166q60 -171 219 -171q125 0 180 107q20 39 37 100h148q-21 -115 -77 -190q-102 -140 -286 -140q-205 0 -310 156q-93 138 -93 347q0 217 107 358q106 139 285 139q148 0 246 -92q106 -101 129 -300q7 -59 9 -148zM706 554q-7 101 -37 167
q-58 127 -189 127q-124 0 -186 -115q-38 -71 -51 -179h463zM403 1365l163 -273h-131l-178 273h146z" />
    <glyph glyph-name="ecircumflex" unicode="&#xea;" horiz-adv-x="948" vert-adv-y="1720" 
d="M862 431h-621q2 -95 27 -166q60 -171 219 -171q125 0 180 107q20 39 37 100h148q-21 -115 -77 -190q-102 -140 -286 -140q-205 0 -310 156q-93 138 -93 347q0 217 107 358q106 139 285 139q148 0 246 -92q106 -101 129 -300q7 -59 9 -148zM706 554q-7 101 -37 167
q-58 127 -189 127q-124 0 -186 -115q-38 -71 -51 -179h463zM737 1092h-143l-124 197l-126 -197h-132l179 273h164z" />
    <glyph glyph-name="edieresis" unicode="&#xeb;" horiz-adv-x="948" vert-adv-y="1720" 
d="M862 431h-621q2 -95 27 -166q60 -171 219 -171q125 0 180 107q20 39 37 100h148q-21 -115 -77 -190q-102 -140 -286 -140q-205 0 -310 156q-93 138 -93 347q0 217 107 358q106 139 285 139q148 0 246 -92q106 -101 129 -300q7 -59 9 -148zM706 554q-7 101 -37 167
q-58 127 -189 127q-124 0 -186 -115q-38 -71 -51 -179h463zM688 1297v-191h-143v191h143zM404 1297v-191h-143v191h143z" />
    <glyph glyph-name="iacute" unicode="&#xed;" horiz-adv-x="464" vert-adv-y="1720" 
d="M162 0v942h153v-942h-153zM456 1365l-179 -273h-130l163 273h146z" />
    <glyph glyph-name="igrave" unicode="&#xec;" horiz-adv-x="464" vert-adv-y="1720" 
d="M149 0v942h153v-942h-153zM154 1365l163 -273h-131l-178 273h146z" />
    <glyph glyph-name="icircumflex" unicode="&#xee;" horiz-adv-x="505" vert-adv-y="1720" 
d="M176 0v942h153v-942h-153zM515 1092h-143l-124 197l-126 -197h-132l179 273h164z" />
    <glyph glyph-name="idieresis" unicode="&#xef;" horiz-adv-x="451" vert-adv-y="1720" 
d="M150 0v942h153v-942h-153zM419 1297v-191h-143v191h143zM176 1297v-191h-143v191h143z" />
    <glyph glyph-name="ntilde" unicode="&#xf1;" horiz-adv-x="980" vert-adv-y="1720" 
d="M143 0v942h143v-127q104 156 280 156q104 0 177 -56q76 -58 94 -168q8 -45 8 -138v-609h-153v555q0 128 -15 183q-14 50 -55 80t-99 30q-103 0 -165 -82q-42 -56 -54 -146q-8 -56 -8 -163v-457h-153zM772 1317q-13 -77 -38 -123q-48 -88 -128 -88q-48 0 -132 56
q-64 43 -94 43q-50 0 -70 -92h-101q9 67 31 111q49 100 140 100q49 0 128 -56q63 -44 87 -44q55 0 74 93h103z" />
    <glyph glyph-name="oacute" unicode="&#xf3;" horiz-adv-x="986" vert-adv-y="1720" 
d="M500 971q182 0 293 -137q107 -132 107 -362q0 -255 -127 -391q-103 -110 -275 -110q-200 0 -307 142q-105 140 -105 358q0 210 94 343q112 157 320 157zM491 848q-108 0 -174 -92q-76 -107 -76 -284q0 -180 74 -285q66 -93 182 -93q104 0 165 79q83 108 83 298
q0 181 -73 283q-66 94 -181 94zM711 1365l-179 -273h-130l163 273h146z" />
    <glyph glyph-name="ograve" unicode="&#xf2;" horiz-adv-x="986" vert-adv-y="1720" 
d="M500 971q182 0 293 -137q107 -132 107 -362q0 -255 -127 -391q-103 -110 -275 -110q-200 0 -307 142q-105 140 -105 358q0 210 94 343q112 157 320 157zM491 848q-108 0 -174 -92q-76 -107 -76 -284q0 -180 74 -285q66 -93 182 -93q104 0 165 79q83 108 83 298
q0 181 -73 283q-66 94 -181 94zM422 1365l163 -273h-131l-178 273h146z" />
    <glyph glyph-name="ocircumflex" unicode="&#xf4;" horiz-adv-x="986" vert-adv-y="1720" 
d="M500 971q182 0 293 -137q107 -132 107 -362q0 -255 -127 -391q-103 -110 -275 -110q-200 0 -307 142q-105 140 -105 358q0 210 94 343q112 157 320 157zM491 848q-108 0 -174 -92q-76 -107 -76 -284q0 -180 74 -285q66 -93 182 -93q104 0 165 79q83 108 83 298
q0 181 -73 283q-66 94 -181 94zM756 1092h-143l-124 197l-126 -197h-132l179 273h164z" />
    <glyph glyph-name="odieresis" unicode="&#xf6;" horiz-adv-x="986" vert-adv-y="1720" 
d="M500 971q182 0 293 -137q107 -132 107 -362q0 -255 -127 -391q-103 -110 -275 -110q-200 0 -307 142q-105 140 -105 358q0 210 94 343q112 157 320 157zM491 848q-108 0 -174 -92q-76 -107 -76 -284q0 -180 74 -285q66 -93 182 -93q104 0 165 79q83 108 83 298
q0 181 -73 283q-66 94 -181 94zM707 1297v-191h-143v191h143zM423 1297v-191h-143v191h143z" />
    <glyph glyph-name="otilde" unicode="&#xf5;" horiz-adv-x="986" vert-adv-y="1720" 
d="M500 971q182 0 293 -137q107 -132 107 -362q0 -255 -127 -391q-103 -110 -275 -110q-200 0 -307 142q-105 140 -105 358q0 210 94 343q112 157 320 157zM491 848q-108 0 -174 -92q-76 -107 -76 -284q0 -180 74 -285q66 -93 182 -93q104 0 165 79q83 108 83 298
q0 181 -73 283q-66 94 -181 94zM775 1317q-13 -77 -38 -123q-48 -88 -128 -88q-48 0 -132 56q-64 43 -94 43q-50 0 -70 -92h-101q9 67 31 111q49 100 140 100q49 0 128 -56q63 -44 87 -44q55 0 74 93h103z" />
    <glyph glyph-name="uacute" unicode="&#xfa;" horiz-adv-x="980" vert-adv-y="1720" 
d="M837 0h-143v127q-104 -156 -276 -156q-170 0 -240 123q-33 57 -39 127q-4 49 -4 112v609h153v-555q0 -128 15 -183q14 -50 55 -80t99 -30q103 0 165 83q42 55 54 145q8 56 8 164v456h153v-942zM708 1365l-179 -273h-130l163 273h146z" />
    <glyph glyph-name="ugrave" unicode="&#xf9;" horiz-adv-x="980" vert-adv-y="1720" 
d="M837 0h-143v127q-104 -156 -276 -156q-170 0 -240 123q-33 57 -39 127q-4 49 -4 112v609h153v-555q0 -128 15 -183q14 -50 55 -80t99 -30q103 0 165 83q42 55 54 145q8 56 8 164v456h153v-942zM419 1365l163 -273h-131l-178 273h146z" />
    <glyph glyph-name="ucircumflex" unicode="&#xfb;" horiz-adv-x="980" vert-adv-y="1720" 
d="M837 0h-143v127q-104 -156 -276 -156q-170 0 -240 123q-33 57 -39 127q-4 49 -4 112v609h153v-555q0 -128 15 -183q14 -50 55 -80t99 -30q103 0 165 83q42 55 54 145q8 56 8 164v456h153v-942zM753 1092h-143l-124 197l-126 -197h-132l179 273h164z" />
    <glyph glyph-name="udieresis" unicode="&#xfc;" horiz-adv-x="980" vert-adv-y="1720" 
d="M837 0h-143v127q-104 -156 -276 -156q-170 0 -240 123q-33 57 -39 127q-4 49 -4 112v609h153v-555q0 -128 15 -183q14 -50 55 -80t99 -30q103 0 165 83q42 55 54 145q8 56 8 164v456h153v-942zM704 1297v-191h-143v191h143zM420 1297v-191h-143v191h143z" />
    <glyph glyph-name="dagger" unicode="&#x2020;" horiz-adv-x="966" vert-adv-y="1720" 
d="M865 971v-142h-315v-1214h-142v1214h-309v142h309v394h142v-394h315z" />
    <glyph glyph-name="degree" unicode="&#xb0;" vert-adv-y="1720" 
d="M515 1365q116 0 201 -83q85 -82 85 -199t-84 -200q-85 -84 -205 -84q-121 0 -206 84q-84 83 -84 199q0 119 85 200q86 83 208 83zM509 1265q-72 0 -125 -54q-52 -53 -52 -128q0 -76 52 -129q53 -54 127 -54q75 0 128 54q52 53 52 128q0 78 -52 129q-55 54 -130 54z" />
    <glyph glyph-name="cent" unicode="&#xa2;" horiz-adv-x="919" vert-adv-y="1720" 
d="M406 1324h141v-139q103 -14 182 -76q109 -91 133 -246h-156q-26 162 -159 200v-748q75 21 125 105q32 57 41 135h154q-1 -56 -22 -115q-61 -168 -213 -227q-38 -14 -85 -20v-152h-141v156q-106 21 -178 83q-78 68 -119 182q-37 102 -37 228q0 291 177 424q68 51 157 68
v142zM406 1056q-71 -29 -111 -87q-75 -107 -75 -278q0 -174 73 -280q41 -61 113 -89v734z" />
    <glyph glyph-name="sterling" unicode="&#xa3;" horiz-adv-x="833" vert-adv-y="1720" 
d="M54 559v147h105q-15 27 -42 74q-77 133 -77 259q0 163 114 265q98 88 255 88q254 0 350 -181q46 -85 48 -198h-164q-3 86 -36 146q-58 102 -195 102q-100 0 -152 -59q-55 -64 -55 -155q0 -67 26 -129q19 -46 49 -102q39 -73 57 -110h332v-147h-286q4 -33 4 -60
q0 -68 -22 -129q-30 -85 -138 -203q107 63 162 63q43 0 99 -40q53 -38 85 -38q55 0 81 60q12 27 16 71h155q-8 -138 -61 -216q-65 -96 -185 -96q-52 0 -92 16q-28 11 -74 36q-80 44 -127 44q-60 0 -141 -56q-19 -13 -52 -38l-86 104q85 67 142 152q78 118 78 245
q0 38 -13 85h-160z" />
    <glyph glyph-name="section" unicode="&#xa7;" horiz-adv-x="966" vert-adv-y="1720" 
d="M795 1069h-149q-12 193 -161 193q-61 0 -101 -37q-48 -43 -48 -119q0 -79 68 -142q25 -23 208 -147q157 -108 210 -174q63 -77 63 -190q0 -196 -177 -291q34 -35 51 -61q43 -66 43 -164q0 -129 -91 -222q-82 -84 -219 -84q-140 0 -228 84q-95 90 -101 257h152
q14 -206 179 -206q78 0 120 56q35 46 35 106q0 72 -50 126q-51 55 -205 160q-127 87 -160 114q-91 73 -124 147q-28 65 -28 148q0 151 106 234q34 26 73 39q-77 93 -77 198q0 147 102 233q80 69 203 69q183 0 263 -140q43 -76 43 -187zM339 813q-109 -62 -109 -180
q0 -82 64 -144q40 -39 202 -149q56 -39 128 -97q110 61 110 183q0 87 -82 159q-56 49 -251 180q-44 30 -62 48z" />
    <glyph glyph-name="bullet" unicode="&#x2022;" horiz-adv-x="1365" vert-adv-y="1720" 
d="M689 978q113 0 196 -83q84 -83 84 -201t-84 -201q-83 -83 -200 -83t-200 83q-84 83 -84 200q0 121 84 202q85 83 204 83z" />
    <glyph glyph-name="paragraph" unicode="&#xb6;" horiz-adv-x="1186" vert-adv-y="1720" 
d="M449 -202v846q-105 1 -171 23q-113 38 -173 126q-62 90 -62 206q0 123 67 217q106 149 384 149h547v-116h-122v-1451h-127v1451h-216v-1451h-127z" />
    <glyph glyph-name="germandbls" unicode="&#xdf;" horiz-adv-x="953" vert-adv-y="1720" 
d="M289 0h-148v815h-141v127h141q2 149 21 217q36 131 141 192q76 45 175 45q135 0 223 -80q85 -78 85 -191q0 -70 -40 -135q-16 -25 -76 -98q-55 -67 -55 -116q0 -38 26 -81q16 -27 71 -82q73 -74 105 -123q54 -84 54 -185q0 -164 -131 -258q-91 -67 -228 -67
q-64 0 -120 20v135q59 -27 120 -27q89 0 143 49q61 56 61 149q0 70 -40 138q-19 34 -90 114q-61 68 -85 110q-27 49 -27 96q0 37 17.5 74t65.5 99q44 59 53 77q23 45 23 93q0 65 -41 113q-45 53 -122 53q-105 0 -153 -100q-28 -58 -28 -236v-937z" />
    <glyph glyph-name="registered" unicode="&#xae;" horiz-adv-x="1412" vert-adv-y="1720" 
d="M702 1282q-143 0 -272 -88q-123 -85 -191 -231q-62 -133 -62 -281q0 -169 80 -317q80 -147 215 -222q109 -60 233 -60q224 0 379 179q151 175 151 417q0 252 -155 428q-153 175 -378 175zM716 1386q180 0 337 -113q144 -104 222 -273q68 -151 68 -319q0 -285 -183 -491
q-186 -210 -456 -210q-265 0 -449 205q-85 94 -134 218q-53 135 -53 277q0 204 99 379q92 162 249 250q138 77 300 77zM433 273v823h298q115 0 175 -53q75 -66 75 -177q0 -140 -118 -197q52 -17 80 -79q13 -30 17 -78q2 -15 8 -92q8 -99 40 -147h-133q-14 26 -19 52
q-2 15 -7 95q-7 138 -51 174q-30 23 -114 24h-131v-345h-120zM553 723h126q100 0 135 28q43 33 43 107q0 75 -48 110q-29 22 -106 22h-150v-267z" />
    <glyph glyph-name="copyright" unicode="&#xa9;" horiz-adv-x="1412" vert-adv-y="1720" 
d="M902 591h126q-9 -123 -60 -204q-85 -136 -249 -136q-160 0 -247 118q-89 121 -89 311q0 184 86 303q94 131 256 131q153 0 238 -115q52 -70 60 -162h-123q-12 66 -43 105q-50 67 -136 67q-102 0 -157 -92q-57 -95 -57 -236q0 -147 61 -243q53 -82 150 -82q162 0 184 235z
M702 1282q-143 0 -272 -88q-123 -85 -191 -230q-62 -134 -62 -281q0 -170 80 -317t215 -222q109 -60 233 -60q224 0 379 179q151 175 151 417q0 251 -155 427q-153 175 -378 175zM716 1386q180 0 337 -113q144 -104 222 -273q68 -151 68 -319q0 -285 -183 -491
q-186 -210 -456 -210q-265 0 -449 205q-85 94 -134 218q-53 135 -53 277q0 204 99 379q92 162 249 250q138 77 300 77z" />
    <glyph glyph-name="trademark" unicode="&#x2122;" horiz-adv-x="1486" vert-adv-y="1720" 
d="M245 546v713h-224v106h569v-106h-225v-713h-120zM689 546v819h158l205 -664l196 664h160v-819h-112v647l-184 -647h-123l-190 635v-635h-110z" />
    <glyph glyph-name="acute" unicode="&#xb4;" vert-adv-y="1720" 
d="M730 1365l-179 -273h-130l163 273h146z" />
    <glyph glyph-name="dieresis" unicode="&#xa8;" vert-adv-y="1720" 
d="M726 1297v-191h-143v191h143zM442 1297v-191h-143v191h143z" />
    <glyph glyph-name="notequal" unicode="&#x2260;" vert-adv-y="1720" 
d="M68 474v132h319l96 168h-415v132h492l116 201l115 -66l-78 -135h242v-132h-319l-97 -168h416v-132h-492l-116 -201l-115 66l78 135h-242z" />
    <glyph glyph-name="AE" unicode="&#xc6;" horiz-adv-x="1567" vert-adv-y="1720" 
d="M747 419h-377l-170 -419h-183l579 1365h872v-145h-554v-447h512v-141h-512v-487h562v-145h-729v419zM747 560v652h-54l-265 -652h319z" />
    <glyph glyph-name="Oslash" unicode="&#xd8;" horiz-adv-x="1297" vert-adv-y="1720" 
d="M288 -33h-138l109 181q-165 200 -165 535q0 324 154 518q154 196 401 196q168 0 303 -99l59 99h135l-109 -182q165 -206 165 -529q0 -283 -120 -476q-72 -117 -189 -181q-111 -62 -245 -62q-167 0 -302 97zM861 1169q-94 81 -213 81q-169 0 -273 -150
q-108 -154 -108 -413q0 -239 89 -398zM437 193q100 -82 214 -82q102 0 190 65q98 72 148 227q40 125 40 281q0 226 -90 387z" />
    <glyph glyph-name="infinity" unicode="&#x221e;" horiz-adv-x="1365" vert-adv-y="1720" 
d="M685 617q-52 -74 -95 -118q-106 -112 -251 -112q-140 0 -225 98q-75 86 -75 216q0 131 80 214q87 91 221 91q186 0 341 -229q50 72 94 117q110 112 252 112q144 0 229 -102q71 -84 71 -209q0 -135 -83 -220q-86 -87 -218 -87q-134 0 -245 110q-46 46 -96 119zM747 697
q5 -8 8 -13q119 -188 259 -188q81 0 135 56t54 146q0 95 -63 151q-54 48 -128 48q-111 0 -206 -116q-21 -26 -41 -57q-19 -27 -18 -27zM620 696q-6 9 -9 13q-119 188 -261 188q-81 0 -133 -55q-54 -57 -54 -146q0 -97 63 -153q54 -47 128 -47q113 0 206 116q21 27 41 57z
" />
    <glyph glyph-name="plusminus" unicode="&#xb1;" vert-adv-y="1720" 
d="M68 756h374v347h140v-347h373v-132h-373v-348h-140v348h-374v132zM68 132h887v-132h-887v132z" />
    <glyph glyph-name="lessequal" unicode="&#x2264;" vert-adv-y="1720" 
d="M955 1221v-157l-705 -274l705 -274v-157l-887 359v144zM955 299v-146h-887v146h887z" />
    <glyph glyph-name="greaterequal" unicode="&#x2265;" vert-adv-y="1720" 
d="M68 1221l887 -359v-144l-887 -359v157l705 274l-705 274v157zM68 299h887v-146h-887v146z" />
    <glyph glyph-name="yen" unicode="&#xa5;" horiz-adv-x="1055" vert-adv-y="1720" 
d="M609 0h-161v299h-264v118h264v128h-264v118h264l-388 702h192l282 -540l277 540h184l-386 -702h261v-118h-261v-128h261v-118h-261v-299z" />
    <glyph glyph-name="mu" unicode="&#xb5;" horiz-adv-x="980" vert-adv-y="1720" 
d="M135 -355v1297h153v-555q0 -128 15 -183q14 -50 55 -80t99 -30q103 0 165 83q42 55 54 145q8 56 8 164v456h153v-942h-143v127q-104 -156 -267 -156q-76 0 -139 37v-363h-153z" />
    <glyph glyph-name="partialdiff" unicode="&#x2202;" horiz-adv-x="986" vert-adv-y="1720" 
d="M622 929q-84 133 -147 203q-94 101 -199 171l58 91q167 -79 307 -241q103 -120 175 -287q84 -194 84 -399q0 -250 -127 -386q-103 -110 -275 -110q-200 0 -307 142q-105 140 -105 359q0 209 94 342q56 79 143 121q75 36 157 36q76 0 142 -42zM491 848q-108 0 -174 -92
q-76 -107 -76 -284q0 -180 74 -285q66 -93 182 -93q104 0 165 79q83 108 83 298q0 181 -73 283q-66 94 -181 94z" />
    <glyph glyph-name="summation" unicode="&#x2211;" horiz-adv-x="1365" vert-adv-y="1720" 
d="M1224 1536v-470h-145l-14 323h-819l510 -837l-509 -919h836l9 326h151v-471h-1173v169l499 894l-499 819v166h1154z" />
    <glyph glyph-name="product" unicode="&#x220f;" horiz-adv-x="1365" vert-adv-y="1720" 
d="M55 1536h1256v-129h-151v-1790h151v-129h-450v129h155v1790h-666v-1790h153v-129h-448v129h152v1790h-152v129z" />
    <glyph glyph-name="glyph155" horiz-adv-x="393" vert-adv-y="1720" 
 />
    <glyph glyph-name="integral" unicode="&#x222b;" vert-adv-y="1720" 
d="M198 -490l33 148q44 -21 80 -21q80 0 104 60q13 34 13 194v1214q0 208 18 270q22 79 100 125q60 36 148 36q47 0 132 -22l-32 -148q-47 21 -83 21q-73 0 -98 -54q-17 -37 -17 -156v-1297q0 -145 -11 -202q-19 -105 -121 -153q-80 -37 -169 -37q-32 0 -73 14q-16 5 -24 8z
" />
    <glyph glyph-name="ordfeminine" unicode="&#xaa;" horiz-adv-x="561" vert-adv-y="1720" 
d="M534 639v-85q-32 -19 -65 -19q-72 0 -85 80q-66 -86 -166 -86q-68 0 -115 39q-58 48 -58 129q0 89 69 140q52 37 146 47q42 4 118 6v45q0 110 -103 110q-63 0 -89 -41q-15 -23 -19 -74h-103q9 202 216 202q111 0 165 -68q27 -33 33 -89q2 -22 2 -83v-210q1 -41 3 -47
q4 -9 15 -9q12 0 36 13zM378 816q-78 -4 -126 -14q-101 -23 -101 -104q0 -35 24 -60q23 -23 59 -23q74 0 116 72q28 47 28 105v24z" />
    <glyph glyph-name="ordmasculine" unicode="&#xba;" horiz-adv-x="592" vert-adv-y="1720" 
d="M301 1133q112 0 180 -83q66 -80 66 -218q0 -154 -78 -236q-64 -67 -170 -67q-122 0 -190 87q-64 83 -64 215q0 127 58 207q69 95 198 95zM295 1047q-62 0 -99 -52q-45 -61 -45 -164q0 -104 44 -164q37 -52 103 -52q60 0 94 44q49 62 49 172q0 105 -43 163q-38 53 -103 53
z" />
    <glyph glyph-name="Omega" unicode="&#x2126;" horiz-adv-x="1297" vert-adv-y="1720" 
d="M105 0v139h291q-302 217 -302 601q0 302 190 500q151 156 363 156q217 0 373 -162q183 -190 183 -495q0 -385 -302 -600h291v-139h-452v130q108 78 170 175q117 183 117 412q0 241 -126 402q-103 132 -251 132q-152 0 -257 -132q-127 -159 -127 -403q0 -379 290 -586
v-130h-451z" />
    <glyph glyph-name="ae" unicode="&#xe6;" horiz-adv-x="1458" vert-adv-y="1720" 
d="M1372 438h-607q2 -97 26 -170q59 -174 213 -174q121 0 174 107q20 39 36 100h148q-20 -114 -75 -190q-100 -140 -280 -140q-232 0 -327 224q-118 -224 -321 -224q-109 0 -183 64q-90 77 -90 209q0 145 108 226q83 63 232 76q63 6 202 8v53q0 240 -186 240
q-159 0 -175 -195h-148q7 148 87 230q87 89 243 89q96 0 171 -42q63 -35 104 -117q16 45 53 78q92 81 225 81q138 0 234 -91q106 -99 128 -295q6 -58 8 -147zM628 445q-156 -3 -216 -16q-81 -17 -123 -61q-49 -49 -49 -121q0 -65 41 -110q39 -43 103 -43q76 0 139 56
q61 54 87 141q18 62 18 115v39zM1216 554q-6 101 -36 168q-56 126 -182 126q-121 0 -182 -115q-37 -71 -49 -179h449z" />
    <glyph glyph-name="oslash" unicode="&#xf8;" horiz-adv-x="986" vert-adv-y="1720" 
d="M266 -29h-131l72 123q-121 145 -121 378q0 208 94 342q111 157 314 157q109 0 199 -51l30 51h128l-71 -122q120 -137 120 -376q0 -256 -127 -391q-103 -111 -273 -111q-114 0 -204 50zM617 810q-61 38 -121 38q-113 0 -179 -92q-76 -107 -76 -283q0 -149 52 -251z
M372 131q59 -37 125 -37q104 0 165 79q83 107 83 300q0 147 -51 247z" />
    <glyph glyph-name="questiondown" unicode="&#xbf;" horiz-adv-x="907" vert-adv-y="1720" 
d="M820 56q-3 -143 -49 -236q-94 -189 -315 -189q-170 0 -269 110q-84 93 -84 229q0 131 80 235q24 31 115 126q71 76 83 175q4 40 5 99h148q0 -126 -16 -181q-15 -54 -41.5 -94t-93.5 -114q-70 -76 -92 -128t-22 -108q0 -92 55 -150q53 -56 138 -56q140 0 189 148
q15 43 20 134h149zM559 942v-213h-199v213h199z" />
    <glyph glyph-name="exclamdown" unicode="&#xa1;" horiz-adv-x="543" vert-adv-y="1720" 
d="M182 -355v418l47 539h85l46 -539v-418h-178zM371 942v-213h-199v213h199z" />
    <glyph glyph-name="logicalnot" unicode="&#xac;" vert-adv-y="1720" 
d="M793 0v423h-725v146h887v-569h-162z" />
    <glyph glyph-name="radical" unicode="&#x221a;" horiz-adv-x="1365" vert-adv-y="1720" 
d="M1365 1693v-133h-394l-461 -1560h-173l-173 600h-164v133h258l86 -285q9 -31 60 -244l7 -34h8q10 40 47 183l55 210l100 337l234 793h510z" />
    <glyph glyph-name="florin" unicode="&#x192;" horiz-adv-x="519" vert-adv-y="1720" 
d="M163 -218h-152l145 1033h-128v127h146l13 91q27 190 71 254q75 109 213 109q43 0 95 -14l-19 -139q-40 18 -71 18q-72 0 -100 -60q-18 -35 -30 -119l-19 -140h146v-127h-164z" />
    <glyph glyph-name="approxequal" unicode="&#x2248;" vert-adv-y="1720" 
d="M110 712l-89 61q41 84 81 132q83 100 196 100q76 0 232 -78q90 -45 121 -56q43 -14 78 -14q67 0 117 51q33 34 68 93l88 -61q-42 -88 -86 -139q-80 -94 -190 -94q-52 0 -124 30q-37 15 -109 50q-139 68 -202 68q-65 0 -117 -54q-30 -32 -64 -89zM110 359l-89 61
q41 84 81 132q83 100 197 100q76 0 231 -77q90 -45 121 -56q43 -14 78 -14q67 0 117 50q32 34 68 92l88 -60q-42 -88 -86 -139q-80 -94 -190 -94q-52 0 -124 30q-39 15 -109 50q-138 68 -202 68q-65 0 -117 -54q-30 -33 -64 -89z" />
    <glyph glyph-name="Delta" unicode="&#x2206;" horiz-adv-x="1133" vert-adv-y="1720" 
d="M475 1365h185l444 -1365h-1075zM565 1179l-319 -1038h633z" />
    <glyph glyph-name="guillemotleft" unicode="&#xab;" horiz-adv-x="796" vert-adv-y="1720" 
d="M673 832v-173l-163 -148l163 -151v-171l-256 240v164zM362 832v-171l-167 -148l167 -151v-176l-260 246v161z" />
    <glyph glyph-name="guillemotright" unicode="&#xbb;" horiz-adv-x="796" vert-adv-y="1720" 
d="M434 833l260 -248v-160l-260 -239v170l165 148l-165 152v177zM123 829l254 -241v-161l-254 -239v172l161 146l-161 150v173z" />
    <glyph glyph-name="ellipsis" unicode="&#x2026;" horiz-adv-x="1450" vert-adv-y="1720" 
d="M342 213v-213h-199v213h199zM824 213v-213h-199v213h199zM1306 213v-213h-199v213h199z" />
    <glyph glyph-name="glyph172" horiz-adv-x="966" vert-adv-y="966" 
 />
    <glyph glyph-name="Agrave" unicode="&#xc0;" horiz-adv-x="1133" vert-adv-y="1720" 
d="M475 1365h185l444 -1365h-182l-127 419h-463l-129 -419h-174zM375 560h377l-187 619zM329 1734h152l177 -255h-130z" />
    <glyph glyph-name="Atilde" unicode="&#xc3;" horiz-adv-x="1133" vert-adv-y="1720" 
d="M475 1365h185l444 -1365h-182l-127 419h-463l-129 -419h-174zM375 560h377l-187 619zM855 1686q-10 -72 -39 -124q-49 -88 -139 -88q-55 0 -127 57q-54 43 -90 43q-60 0 -78 -93h-103q34 212 179 212q57 0 127 -54q56 -42 85 -42q60 0 80 89h105z" />
    <glyph glyph-name="Otilde" unicode="&#xd5;" horiz-adv-x="1297" vert-adv-y="1720" 
d="M657 1396q162 0 291 -96q138 -103 205 -294q49 -142 49 -321q0 -282 -120 -476q-72 -116 -189 -181q-111 -61 -246 -61q-194 0 -332 123q-221 195 -221 591q0 329 154 520q157 195 409 195zM643 1250q-165 0 -269 -150q-108 -155 -108 -412q0 -243 90 -400
q52 -89 144 -140q70 -38 150 -38q103 0 191 65q97 72 148 228q40 124 40 277q0 255 -105 414q-103 156 -281 156zM936 1686q-10 -72 -39 -124q-49 -88 -139 -88q-55 0 -127 57q-54 43 -90 43q-60 0 -78 -93h-103q34 212 179 212q57 0 127 -54q56 -42 85 -42q60 0 80 89h105z
" />
    <glyph glyph-name="OE" unicode="&#x152;" horiz-adv-x="1788" vert-adv-y="1720" 
d="M1688 1365v-145h-602v-447h560v-141h-560v-487h610v-145h-777v115q-122 -148 -311 -148q-170 0 -304 124q-210 194 -210 593q0 323 146 517q72 97 175 148q94 47 197 47q186 0 307 -148v117h769zM919 1010q-97 240 -298 240q-158 0 -254 -150q-100 -155 -100 -411
q0 -243 84 -401q47 -89 133 -140q64 -38 139 -38q145 0 239 132q32 45 57 108v660z" />
    <glyph glyph-name="oe" unicode="&#x153;" horiz-adv-x="1502" vert-adv-y="1720" 
d="M1416 431h-594q3 -96 26 -166q56 -171 205 -171q117 0 170 107q19 39 35 100h149q-22 -116 -75 -190q-100 -140 -276 -140q-198 0 -297 170q-102 -170 -290 -170q-185 0 -285 142q-98 140 -98 359q0 207 88 342q102 157 292 157q188 0 293 -173q105 173 287 173
q141 0 236 -92q104 -101 126 -300q7 -58 8 -148zM464 848q-96 0 -155 -92q-68 -107 -68 -285q0 -179 66 -284q59 -93 163 -93q93 0 147 79q74 108 74 298q0 181 -65 283q-60 94 -162 94zM1260 554q-6 100 -35 167q-55 127 -179 127q-189 0 -221 -294h435z" />
    <glyph glyph-name="endash" unicode="&#x2013;" horiz-adv-x="967" vert-adv-y="1720" 
d="M831 591v-164h-694v164h694z" />
    <glyph glyph-name="emdash" unicode="&#x2014;" horiz-adv-x="1454" vert-adv-y="1720" 
d="M1318 591v-164h-1175v164h1175z" />
    <glyph glyph-name="quotedblleft" unicode="&#x201c;" horiz-adv-x="774" vert-adv-y="1720" 
d="M143 916v131q0 114 17 170q42 137 182 170v-101q-91 -23 -96 -139v-18h96v-213h-199zM431 916v131q0 113 17 170q42 137 182 170v-101q-91 -23 -96 -139v-18h96v-213h-199z" />
    <glyph glyph-name="quotedblright" unicode="&#x201d;" horiz-adv-x="774" vert-adv-y="1720" 
d="M342 1365v-130q0 -114 -17 -171q-42 -136 -182 -170v101q91 23 96 139v18h-96v213h199zM630 1365v-130q0 -114 -17 -171q-42 -136 -182 -170v101q90 23 96 139v18h-96v213h199z" />
    <glyph glyph-name="quoteleft" unicode="&#x2018;" horiz-adv-x="486" vert-adv-y="1720" 
d="M143 916v131q0 114 17 170q42 137 182 170v-101q-91 -23 -96 -139v-18h96v-213h-199z" />
    <glyph glyph-name="quoteright" unicode="&#x2019;" horiz-adv-x="486" vert-adv-y="1720" 
d="M342 1365v-130q0 -114 -17 -171q-42 -136 -182 -170v101q91 23 96 139v18h-96v213h199z" />
    <glyph glyph-name="divide" unicode="&#xf7;" vert-adv-y="1720" 
d="M68 756h887v-132h-887v132zM585 1104v-201h-146v201h146zM585 476v-201h-146v201h146z" />
    <glyph glyph-name="lozenge" unicode="&#x25ca;" horiz-adv-x="1365" vert-adv-y="1720" 
d="M683 1419l532 -736l-532 -736l-532 736zM683 1237l-404 -554l404 -555l403 555z" />
    <glyph glyph-name="ydieresis" unicode="&#xff;" horiz-adv-x="828" vert-adv-y="1720" 
d="M100 -340v132q15 -5 19 -7q36 -14 65 -14q53 0 76 35q27 41 86 217l-326 919h167l237 -731l224 731h159l-304 -896q-80 -235 -115 -296q-61 -105 -190 -105q-41 0 -98 15zM627 1297v-191h-143v191h143zM343 1297v-191h-143v191h143z" />
    <glyph glyph-name="Ydieresis" unicode="&#x178;" horiz-adv-x="1055" vert-adv-y="1720" 
d="M446 0v560l-442 805h195l335 -643l330 643h187l-438 -805v-560h-167zM731 1655v-194h-143v194h143zM475 1655v-194h-143v194h143z" />
    <glyph glyph-name="fraction" unicode="&#x2044;" horiz-adv-x="402" vert-adv-y="1720" 
d="M-30 0h-124l588 1365h121z" />
    <glyph glyph-name="currency" unicode="&#xa4;" horiz-adv-x="1365" vert-adv-y="1720" 
d="M115 251l191 194q-104 135 -104 292q0 149 104 289l-196 194l83 83l194 -194q144 106 296 106q153 0 293 -104l194 192l83 -83l-193 -193q104 -142 104 -292t-102 -289l194 -194l-82 -84l-195 194q-137 -104 -293 -104q-147 0 -296 104l-193 -193zM679 1083
q-139 0 -240 -102q-100 -102 -100 -245t101 -244q101 -102 243 -102t244 102q100 100 100 243q0 147 -100 246q-103 102 -248 102z" />
    <glyph glyph-name="guilsinglleft" unicode="&#x2039;" horiz-adv-x="480" vert-adv-y="1720" 
d="M356 831v-174l-162 -150l162 -146v-173l-254 235v165z" />
    <glyph glyph-name="guilsinglright" unicode="&#x203a;" horiz-adv-x="480" vert-adv-y="1720" 
d="M123 831l254 -242v-165l-254 -236v172l162 147l-162 149v175z" />
    <glyph glyph-name="fi" unicode="&#xf001;" horiz-adv-x="966" vert-adv-y="1720" 
d="M179 0v815h-136v127h136v91q0 190 35 254q60 109 195 109q44 0 100 -14v-139q-44 18 -74 18q-71 0 -91 -60q-12 -36 -12 -119v-140h155v-127h-155v-815h-153zM666 1157v208h153v-208h-153zM666 0v942h153v-942h-153z" />
    <glyph glyph-name="fl" unicode="&#xf002;" horiz-adv-x="966" vert-adv-y="1720" 
d="M179 0v815h-136v127h136v91q0 190 35 254q60 109 195 109q44 0 100 -14v-139q-44 18 -74 18q-71 0 -91 -60q-12 -36 -12 -119v-140h155v-127h-155v-815h-153zM666 0v1365h153v-1365h-153z" />
    <glyph glyph-name="daggerdbl" unicode="&#x2021;" horiz-adv-x="966" vert-adv-y="1720" 
d="M865 969v-142h-315v-650h315v-142h-315v-420h-142v420h-309v142h309v650h-309v142h309v396h142v-396h315z" />
    <glyph glyph-name="periodcentered" unicode="&#x2219;" horiz-adv-x="486" vert-adv-y="1720" 
d="M342 598v-213h-199v213h199z" />
    <glyph glyph-name="quotesinglbase" unicode="&#x201a;" horiz-adv-x="486" vert-adv-y="1720" 
d="M342 213v-131q0 -123 -17 -184q-42 -148 -182 -185v101q91 29 96 168v18h-96v213h199z" />
    <glyph glyph-name="quotedblbase" unicode="&#x201e;" horiz-adv-x="774" vert-adv-y="1720" 
d="M342 213v-131q0 -123 -17 -184q-42 -148 -182 -185v101q91 29 96 168v18h-96v213h199zM630 213v-131q0 -123 -17 -184q-42 -148 -182 -185v101q90 28 96 168v18h-96v213h199z" />
    <glyph glyph-name="perthousand" unicode="&#x2030;" horiz-adv-x="2600" vert-adv-y="1720" 
d="M2217 838q146 0 239 -118q94 -119 94 -309q0 -168 -73 -284q-92 -146 -266 -146q-173 0 -267 148q-72 112 -72 280q0 197 94 311q96 118 251 118zM2208 722q-90 0 -148 -81q-60 -85 -60 -228q0 -134 51 -221q28 -48 79 -75q38 -21 82 -21q89 0 142 71q68 90 68 242
q0 141 -59 228q-57 85 -155 85zM395 1384q147 0 240 -118q94 -119 94 -309q0 -169 -73 -284q-92 -147 -267 -147q-173 0 -267 148q-72 113 -72 281q0 197 94 311q96 118 251 118zM387 1268q-91 0 -149 -81q-60 -85 -60 -228q0 -135 51 -222q28 -48 79 -75q39 -21 83 -21
q89 0 142 71q68 91 68 243q0 141 -59 228q-57 85 -155 85zM683 0h-129l588 1365h126zM1439 838q147 0 239 -118q94 -119 94 -309q0 -168 -73 -284q-92 -146 -267 -146q-172 0 -266 148q-72 112 -72 280q0 197 94 311q96 118 251 118zM1430 722q-90 0 -148 -81
q-60 -85 -60 -228q0 -134 51 -221q28 -48 79 -75q38 -21 82 -21q89 0 142 71q68 90 68 242q0 141 -59 228q-57 85 -155 85z" />
    <glyph glyph-name="Acircumflex" unicode="&#xc2;" horiz-adv-x="1133" vert-adv-y="1720" 
d="M475 1365h185l444 -1365h-182l-127 419h-463l-129 -419h-174zM375 560h377l-187 619zM847 1475h-158l-126 185l-128 -185h-148l183 259h192z" />
    <glyph glyph-name="Ecircumflex" unicode="&#xca;" horiz-adv-x="1041" vert-adv-y="1720" 
d="M152 0v1365h789v-145h-622v-447h580v-141h-580v-487h630v-145h-797zM801 1475h-158l-126 185l-128 -185h-148l183 259h192z" />
    <glyph glyph-name="Aacute" unicode="&#xc1;" horiz-adv-x="1133" vert-adv-y="1720" 
d="M475 1365h185l444 -1365h-182l-127 419h-463l-129 -419h-174zM375 560h377l-187 619zM804 1734l-199 -255h-130l177 255h152z" />
    <glyph glyph-name="Edieresis" unicode="&#xcb;" horiz-adv-x="1041" vert-adv-y="1720" 
d="M152 0v1365h789v-145h-622v-447h580v-141h-580v-487h630v-145h-797zM735 1655v-194h-143v194h143zM451 1655v-194h-143v194h143z" />
    <glyph glyph-name="Egrave" unicode="&#xc8;" horiz-adv-x="1041" vert-adv-y="1720" 
d="M152 0v1365h789v-145h-622v-447h580v-141h-580v-487h630v-145h-797zM284 1734h152l177 -255h-130z" />
    <glyph glyph-name="Iacute" unicode="&#xcd;" horiz-adv-x="480" vert-adv-y="1720" 
d="M160 0v1365h167v-1365h-167zM481 1734l-199 -255h-130l177 255h152z" />
    <glyph glyph-name="Icircumflex" unicode="&#xce;" horiz-adv-x="514" vert-adv-y="1720" 
d="M174 0v1365h167v-1365h-167zM537 1475h-158l-126 185l-128 -185h-148l183 259h192z" />
    <glyph glyph-name="Idieresis" unicode="&#xcf;" horiz-adv-x="473" vert-adv-y="1720" 
d="M153 0v1365h167v-1365h-167zM436 1655v-194h-143v194h143zM180 1655v-194h-143v194h143z" />
    <glyph glyph-name="Igrave" unicode="&#xcc;" horiz-adv-x="480" vert-adv-y="1720" 
d="M153 0v1365h167v-1365h-167zM-1 1734h152l177 -255h-130z" />
    <glyph glyph-name="Oacute" unicode="&#xd3;" horiz-adv-x="1297" vert-adv-y="1720" 
d="M657 1396q162 0 291 -96q138 -103 205 -294q49 -142 49 -321q0 -282 -120 -476q-72 -116 -189 -181q-111 -61 -246 -61q-194 0 -332 123q-221 195 -221 591q0 329 154 520q157 195 409 195zM643 1250q-165 0 -269 -150q-108 -155 -108 -412q0 -243 90 -400
q52 -89 144 -140q70 -38 150 -38q103 0 191 65q97 72 148 228q40 124 40 277q0 255 -105 414q-103 156 -281 156zM886 1734l-199 -255h-130l177 255h152z" />
    <glyph glyph-name="Ocircumflex" unicode="&#xd4;" horiz-adv-x="1297" vert-adv-y="1720" 
d="M657 1396q162 0 291 -96q138 -103 205 -294q49 -142 49 -321q0 -282 -120 -476q-72 -116 -189 -181q-111 -61 -246 -61q-194 0 -332 123q-221 195 -221 591q0 329 154 520q157 195 409 195zM643 1250q-165 0 -269 -150q-108 -155 -108 -412q0 -243 90 -400
q52 -89 144 -140q70 -38 150 -38q103 0 191 65q97 72 148 228q40 124 40 277q0 255 -105 414q-103 156 -281 156zM928 1475h-158l-126 185l-128 -185h-148l183 259h192z" />
    <glyph glyph-name="Euro" unicode="&#x20ac;" horiz-adv-x="1147" vert-adv-y="1720" 
d="M333 504q17 -103 52 -180q99 -215 304 -215q124 0 208 76q37 34 88 115l107 -97q-143 -232 -407 -232q-333 0 -467 335q-33 83 -49 198h-146l48 118h87q-1 31 -1 54q0 27 1 65h-135l48 118h98q9 58 24 113q57 197 195 315q123 106 304 106q148 0 264 -69q50 -30 123 -99
l-62 -145q-58 59 -105 96q-100 80 -217 80q-287 0 -362 -397h597l-48 -118h-561q-2 -32 -2 -60q0 -27 2 -59h514l-48 -118h-454z" />
    <glyph glyph-name="Ograve" unicode="&#xd2;" horiz-adv-x="1297" vert-adv-y="1720" 
d="M657 1396q162 0 291 -96q138 -103 205 -294q49 -142 49 -321q0 -282 -120 -476q-72 -116 -189 -181q-111 -61 -246 -61q-194 0 -332 123q-221 195 -221 591q0 329 154 520q157 195 409 195zM643 1250q-165 0 -269 -150q-108 -155 -108 -412q0 -243 90 -400
q52 -89 144 -140q70 -38 150 -38q103 0 191 65q97 72 148 228q40 124 40 277q0 255 -105 414q-103 156 -281 156zM411 1734h152l177 -255h-130z" />
    <glyph glyph-name="Uacute" unicode="&#xda;" horiz-adv-x="1202" vert-adv-y="1720" 
d="M135 1365h165v-771q0 -141 8 -201q22 -158 106 -225q72 -58 195 -58q197 0 258 170q33 89 33 314v771h167v-769q0 -205 -25 -297q-90 -332 -431 -332q-188 0 -295 83q-117 91 -158 258q-23 95 -23 291v766zM838 1734l-199 -255h-130l177 255h152z" />
    <glyph glyph-name="Ucircumflex" unicode="&#xdb;" horiz-adv-x="1202" vert-adv-y="1720" 
d="M135 1365h165v-771q0 -141 8 -201q22 -158 106 -225q72 -58 195 -58q197 0 258 170q33 89 33 314v771h167v-769q0 -205 -25 -297q-90 -332 -431 -332q-188 0 -295 83q-117 91 -158 258q-23 95 -23 291v766zM881 1475h-158l-126 185l-128 -185h-148l183 259h192z" />
    <glyph glyph-name="Ugrave" unicode="&#xd9;" horiz-adv-x="1202" vert-adv-y="1720" 
d="M135 1365h165v-771q0 -141 8 -201q22 -158 106 -225q72 -58 195 -58q197 0 258 170q33 89 33 314v771h167v-769q0 -205 -25 -297q-90 -332 -431 -332q-188 0 -295 83q-117 91 -158 258q-23 95 -23 291v766zM363 1734h152l177 -255h-130z" />
    <glyph glyph-name="dotlessi" unicode="&#x131;" horiz-adv-x="447" vert-adv-y="1720" 
d="M147 0v942h153v-942h-153z" />
    <glyph glyph-name="circumflex" unicode="&#x2c6;" vert-adv-y="1720" 
d="M775 1092h-143l-124 197l-126 -197h-132l179 273h164z" />
    <glyph glyph-name="tilde" unicode="&#x2dc;" vert-adv-y="1720" 
d="M794 1317q-13 -77 -38 -123q-48 -88 -128 -88q-48 0 -132 56q-64 43 -94 43q-50 0 -70 -92h-101q9 67 31 111q49 100 140 100q49 0 128 -56q63 -44 87 -44q55 0 74 93h103z" />
    <glyph glyph-name="macron" unicode="&#x2c9;" vert-adv-y="1720" 
d="M763 1252v-112h-502v112h502z" />
    <glyph glyph-name="breve" unicode="&#x2d8;" vert-adv-y="1720" 
d="M755 1365q-32 -273 -243 -273q-210 0 -242 273h102q24 -165 140 -165t141 165h102z" />
    <glyph glyph-name="dotaccent" unicode="&#x2d9;" vert-adv-y="1720" 
d="M583 1297v-191h-143v191h143z" />
    <glyph glyph-name="ring" unicode="&#x2da;" vert-adv-y="1720" 
d="M510 1356q-39 0 -68 -30t-29 -74q0 -42 29 -73q28 -30 68 -30q42 0 70 31q28 30 28 72q0 44 -29 74q-28 30 -69 30zM511 1445q76 0 131 -55q56 -56 56 -136q0 -77 -54 -132q-56 -57 -136 -57t-134 55q-56 57 -56 134q0 82 57 137q56 54 136 54z" />
    <glyph glyph-name="cedilla" unicode="&#xb8;" vert-adv-y="1720" 
d="M506 0h82l-40 -108q20 9 43 9q54 0 98 -30q60 -41 60 -120q0 -70 -45 -114q-47 -47 -131 -47q-85 0 -124 56q-17 24 -21 53h93q9 -34 56 -34q72 0 72 80q0 38 -20 61q-19 22 -52 22q-41 0 -52 -29h-94z" />
    <glyph glyph-name="hungarumlaut" unicode="&#x2dd;" vert-adv-y="1720" 
d="M593 1365l-179 -273h-130l163 273h146zM866 1365l-179 -273h-130l163 273h146z" />
    <glyph glyph-name="ogonek" unicode="&#x2db;" vert-adv-y="1720" 
d="M662 0q-95 -84 -95 -166q0 -54 43 -82q27 -17 64 -17q27 0 78 18v-91l-6 -2q-53 -20 -100 -20q-117 0 -168 78q-28 42 -28 101q0 27 10 49q6 14 60 86q34 46 46 46h96z" />
    <glyph glyph-name="caron" unicode="&#x2c7;" vert-adv-y="1720" 
d="M250 1365h143l123 -197l126 197h133l-180 -273h-164z" />
    <glyph glyph-name="uni00A0" unicode="&#xa0;" horiz-adv-x="393" vert-adv-y="1720" 
 />
    <glyph glyph-name="brokenbar" unicode="&#xa6;" vert-adv-y="1720" 
d="M429 1365h166v-686h-166v686zM429 314h166v-655h-166v655z" />
    <glyph glyph-name="sfthyphen" unicode="&#xad;" horiz-adv-x="399" vert-adv-y="1720" 
d="M399 591v-164h-399v164h399z" />
    <glyph glyph-name="macron" unicode="&#xaf;" vert-adv-y="1720" 
d="M68 1607h887v-132h-887v132z" />
    <glyph glyph-name="twosuperior" unicode="&#xb2;" horiz-adv-x="563" vert-adv-y="1720" 
d="M506 649v-103h-477q8 15 8 36q-1 44 16 105q23 88 99 159q36 33 126 95q124 87 124 199q0 56 -30 94q-35 45 -94 45q-115 0 -115 -153h-128q4 96 41 154q69 104 202 104q114 0 185 -75q62 -67 62 -166q0 -106 -69 -183q-39 -44 -129 -103q-101 -65 -135 -108
q-35 -49 -37 -100h351z" />
    <glyph glyph-name="threesuperior" unicode="&#xb3;" horiz-adv-x="593" vert-adv-y="1720" 
d="M166 1147h-105q3 91 39 147q58 88 182 88q98 0 160 -54q67 -59 67 -161q0 -118 -95 -175q125 -48 125 -202q0 -112 -65 -184q-70 -77 -188 -77q-140 0 -203 100q-37 59 -37 131q0 8 1 23h105q9 -152 134 -152q64 0 100 46q35 45 35 112q0 143 -149 143h-43v96h36
q61 0 93 36q34 40 34 98q0 57 -35 90q-30 28 -78 28q-107 0 -113 -133z" />
    <glyph glyph-name="periodcentered" unicode="&#xb7;" horiz-adv-x="486" vert-adv-y="1720" 
d="M342 598v-213h-199v213h199z" />
    <glyph glyph-name="onesuperior" unicode="&#xb9;" horiz-adv-x="379" vert-adv-y="1720" 
d="M164 546v621q-47 -37 -123 -37h-20v89h9q100 0 135 66q15 29 25 80h84v-819h-110z" />
    <glyph glyph-name="onequarter" unicode="&#xbc;" horiz-adv-x="1276" vert-adv-y="1720" 
d="M164 546v621q-47 -37 -123 -37h-20v89h9q100 0 135 66q15 29 25 80h84v-819h-110zM367 0h-125l588 1365h122zM1036 0v204h-298v98l312 517h86v-523h90v-92h-90v-204h-100zM1036 296v333l-199 -333h199z" />
    <glyph glyph-name="onehalf" unicode="&#xbd;" horiz-adv-x="1345" vert-adv-y="1720" 
d="M164 546v621q-47 -37 -123 -37h-20v89h9q100 0 135 66q15 29 25 80h84v-819h-110zM374 0h-125l588 1365h121zM1287 103v-103h-477q8 15 8 36q-1 44 16 105q23 87 99 159q36 33 126 95q124 87 124 199q0 56 -30 94q-35 45 -94 45q-115 0 -115 -153h-128q3 95 42 154
q67 104 201 104q114 0 185 -75q62 -67 62 -166q0 -105 -69 -183q-39 -45 -129 -103q-100 -64 -135 -109q-35 -48 -37 -99h351z" />
    <glyph glyph-name="threequarters" unicode="&#xbe;" horiz-adv-x="1481" vert-adv-y="1720" 
d="M166 1147h-105q3 91 39 147q58 88 182 88q98 0 160 -54q67 -59 67 -161q0 -118 -95 -175q125 -48 125 -202q0 -112 -65 -184q-70 -77 -188 -77q-140 0 -203 100q-37 59 -37 131q0 8 1 23h105q9 -152 134 -152q64 0 100 46q35 45 35 112q0 143 -149 143h-43v96h36
q61 0 93 36q34 40 34 98q0 57 -35 90q-30 28 -78 28q-107 0 -113 -133zM1240 0v204h-298v98l312 517h86v-523h90v-92h-90v-204h-100zM1240 296v333l-199 -333h199zM544 0h-124l588 1365h121z" />
    <glyph glyph-name="Eth" unicode="&#xd0;" horiz-adv-x="1201" vert-adv-y="1720" 
d="M0 632v141h154v592h376q154 0 255 -40q175 -69 260 -268q64 -149 64 -355q0 -346 -162 -538q-94 -110 -223 -146q-65 -18 -177 -18h-393v632h-154zM320 145h198q123 0 181 21q112 40 178 186q59 129 59 346q0 281 -124 415q-59 64 -136 89q-57 18 -143 18h-212v-447h302
v-141h-303v-487z" />
    <glyph glyph-name="multiply" unicode="&#xd7;" vert-adv-y="1720" 
d="M780 1050l93 -94l-267 -267l267 -267l-93 -93l-268 267l-266 -267l-94 93l267 267l-267 267l94 94l267 -267z" />
    <glyph glyph-name="Yacute" unicode="&#xdd;" horiz-adv-x="1055" vert-adv-y="1720" 
d="M446 0v560l-442 805h195l335 -643l330 643h187l-438 -805v-560h-167zM764 1734l-199 -255h-130l177 255h152z" />
    <glyph glyph-name="Thorn" unicode="&#xde;" horiz-adv-x="1050" vert-adv-y="1720" 
d="M152 0v1365h167v-273h206q118 0 185 -20q104 -31 174 -124q73 -97 73 -254q0 -237 -154 -343q-67 -46 -157 -58q-37 -5 -115 -5h-212v-288h-167zM319 433h192q133 0 192 49q81 68 81 209q0 162 -108 225q-54 31 -186 31h-171v-514z" />
    <glyph glyph-name="eth" unicode="&#xf0;" horiz-adv-x="986" vert-adv-y="1720" 
d="M467 1140l-162 -94l-58 99l136 78q-47 39 -107 80l58 91q79 -37 164 -104l180 104l58 -99l-148 -86q87 -86 152 -193q160 -267 160 -549q0 -250 -127 -386q-103 -110 -275 -110q-200 0 -307 142q-105 140 -105 359q0 209 94 342q56 79 143 121q75 36 157 36q76 0 142 -42
q-61 96 -84 128q-29 38 -71 83zM491 848q-108 0 -174 -92q-76 -107 -76 -284q0 -180 74 -285q66 -93 182 -93q104 0 165 79q83 108 83 298q0 181 -73 283q-66 94 -181 94z" />
    <glyph glyph-name="yacute" unicode="&#xfd;" horiz-adv-x="828" vert-adv-y="1720" 
d="M100 -340v132q15 -5 19 -7q36 -14 65 -14q53 0 76 35q27 41 86 217l-326 919h167l237 -731l224 731h159l-304 -896q-80 -235 -115 -296q-61 -105 -190 -105q-41 0 -98 15zM631 1365l-179 -273h-130l163 273h146z" />
    <glyph glyph-name="thorn" unicode="&#xfe;" horiz-adv-x="1027" vert-adv-y="1720" 
d="M144 -355v1720h153v-537q84 143 257 143q171 0 275 -129q112 -139 112 -376q0 -229 -106 -362q-104 -133 -273 -133t-265 138v-464h-153zM537 848q-71 0 -132 -50q-112 -92 -112 -327q0 -183 74 -285q66 -92 174 -92q113 0 175 96q70 107 70 277q0 171 -69 279
q-65 102 -180 102z" />
    <glyph glyph-name="Amacron" unicode="&#x100;" horiz-adv-x="1133" vert-adv-y="1720" 
d="M475 1365h185l444 -1365h-182l-127 419h-463l-129 -419h-174zM375 560h377l-187 619zM847 1603v-117h-560v117h560z" />
    <glyph glyph-name="amacron" unicode="&#x101;" horiz-adv-x="935" vert-adv-y="1720" 
d="M877 128v-118q-45 -28 -97 -28q-61 0 -95 37q-34 36 -34 98v27q-113 -173 -288 -173q-109 0 -185 64q-92 77 -92 209q0 146 111 228q83 62 237 78q69 7 207 11v87q0 199 -184 199q-110 0 -158 -76q-25 -41 -32 -119h-149q7 148 92 231q91 88 256 88q182 0 267 -111
q42 -55 51 -145q4 -35 4 -140v-356q1 -74 6 -86q10 -20 34 -20q22 0 49 15zM641 458q-143 -6 -224 -24q-84 -19 -126 -63q-51 -52 -51 -124q0 -65 43 -110q41 -43 106 -43q80 0 145 56q62 54 88 141q19 63 19 115v52zM719 1252v-112h-502v112h502z" />
    <glyph glyph-name="Abreve" unicode="&#x102;" horiz-adv-x="1133" vert-adv-y="1720" 
d="M475 1365h185l444 -1365h-182l-127 419h-463l-129 -419h-174zM375 560h377l-187 619zM827 1748q-34 -273 -260 -273t-260 273h106q27 -161 154 -161t154 161h106z" />
    <glyph glyph-name="abreve" unicode="&#x103;" horiz-adv-x="935" vert-adv-y="1720" 
d="M877 128v-118q-45 -28 -97 -28q-61 0 -95 37q-34 36 -34 98v27q-113 -173 -288 -173q-109 0 -185 64q-92 77 -92 209q0 146 111 228q83 62 237 78q69 7 207 11v87q0 199 -184 199q-110 0 -158 -76q-25 -41 -32 -119h-149q7 148 92 231q91 88 256 88q182 0 267 -111
q42 -55 51 -145q4 -35 4 -140v-356q1 -74 6 -86q10 -20 34 -20q22 0 49 15zM641 458q-143 -6 -224 -24q-84 -19 -126 -63q-51 -52 -51 -124q0 -65 43 -110q41 -43 106 -43q80 0 145 56q62 54 88 141q19 63 19 115v52zM711 1365q-32 -273 -243 -273q-210 0 -242 273h102
q24 -165 140 -165t141 165h102z" />
    <glyph glyph-name="Aogonek" unicode="&#x104;" horiz-adv-x="1133" vert-adv-y="1720" 
d="M1101 0q-95 -81 -95 -167q0 -53 43 -81q27 -17 65 -17q26 0 77 18v-91l-5 -2q-53 -20 -101 -20q-88 0 -141 50q-49 47 -49 118q0 96 111 192h-84l-127 419h-463l-129 -419h-174l446 1365h185l444 -1365h-3zM375 560h377l-187 619z" />
    <glyph glyph-name="aogonek" unicode="&#x105;" horiz-adv-x="935" vert-adv-y="1720" 
d="M854 -3l-8 -7q-83 -74 -83 -156q0 -53 43 -82q26 -17 64 -17q26 0 78 18v-91l-6 -2q-53 -20 -101 -20q-89 0 -144 50q-50 46 -50 117q0 95 98 179q-92 19 -95 131v27q-110 -173 -287 -173q-109 0 -185 64q-92 77 -92 209q0 146 111 228q83 62 237 78q68 7 207 11v87
q0 199 -185 199q-109 0 -157 -76q-25 -41 -32 -119h-149q7 148 92 230q92 89 257 89q104 0 185 -44q98 -53 123 -155q13 -57 13 -197v-356q1 -74 7 -86q9 -20 33 -20q21 0 49 15v-118q-12 -8 -23 -13zM641 458q-143 -6 -223 -24q-85 -19 -127 -63q-51 -52 -51 -124
q0 -64 43 -110q41 -43 106 -43q80 0 145 56q63 54 88 141q19 63 19 115v52z" />
    <glyph glyph-name="Cacute" unicode="&#x106;" horiz-adv-x="1213" vert-adv-y="1720" 
d="M964 515h170q-16 -192 -97 -325q-136 -223 -400 -223q-259 0 -399 194q-144 201 -144 517q0 306 140 503q152 215 413 215q247 0 383 -188q81 -112 94 -252h-171q-19 107 -72 177q-90 120 -240 120q-180 0 -276 -163q-98 -166 -98 -410q0 -257 106 -423q93 -147 264 -147
q196 0 282 202q34 81 45 203zM844 1734l-199 -255h-130l177 255h152z" />
    <glyph glyph-name="cacute" unicode="&#x107;" horiz-adv-x="919" vert-adv-y="1720" 
d="M699 336h154q-2 -110 -66 -207q-103 -158 -297 -158q-197 0 -303 146q-101 139 -101 354q0 208 95 345q108 155 305 155q175 0 279 -125q63 -76 84 -202h-157q-14 77 -46 123q-59 81 -158 81q-113 0 -178 -100q-70 -107 -70 -276q0 -172 67 -277q65 -101 183 -101
q112 0 171 110q29 53 38 132zM677 1365l-179 -273h-130l163 273h146z" />
    <glyph glyph-name="Ccircumflex" unicode="&#x108;" horiz-adv-x="1213" vert-adv-y="1720" 
d="M964 515h170q-16 -192 -97 -325q-136 -223 -400 -223q-259 0 -399 194q-144 201 -144 517q0 306 140 503q152 215 413 215q247 0 383 -188q81 -112 94 -252h-171q-19 107 -72 177q-90 120 -240 120q-180 0 -276 -163q-98 -166 -98 -410q0 -257 106 -423q93 -147 264 -147
q196 0 282 202q34 81 45 203zM912 1475h-158l-126 185l-128 -185h-148l183 259h192z" />
    <glyph glyph-name="Cdotaccent" unicode="&#x10a;" horiz-adv-x="1213" vert-adv-y="1720" 
d="M964 515h170q-16 -192 -97 -325q-136 -223 -400 -223q-259 0 -399 194q-144 201 -144 517q0 306 140 503q152 215 413 215q247 0 383 -188q81 -112 94 -252h-171q-19 107 -72 177q-90 120 -240 120q-180 0 -276 -163q-98 -166 -98 -410q0 -257 106 -423q93 -147 264 -147
q196 0 282 202q34 81 45 203zM703 1655v-194h-143v194h143z" />
    <glyph glyph-name="cdotaccent" unicode="&#x10b;" horiz-adv-x="919" vert-adv-y="1720" 
d="M699 336h154q-2 -110 -66 -207q-103 -158 -297 -158q-197 0 -303 146q-101 139 -101 354q0 208 95 345q108 155 305 155q175 0 279 -125q63 -76 84 -202h-157q-14 77 -46 123q-59 81 -158 81q-113 0 -178 -100q-70 -107 -70 -276q0 -172 67 -277q65 -101 183 -101
q112 0 171 110q29 53 38 132zM563 1297v-191h-143v191h143z" />
    <glyph glyph-name="Ccaron" unicode="&#x10c;" horiz-adv-x="1213" vert-adv-y="1720" 
d="M964 515h170q-16 -192 -97 -325q-136 -223 -400 -223q-259 0 -399 194q-144 201 -144 517q0 306 140 503q152 215 413 215q247 0 383 -188q81 -112 94 -252h-171q-19 107 -72 177q-90 120 -240 120q-180 0 -276 -163q-98 -166 -98 -410q0 -257 106 -423q93 -147 264 -147
q196 0 282 202q34 81 45 203zM337 1734h158l126 -185l128 185h148l-183 -259h-191z" />
    <glyph glyph-name="ccaron" unicode="&#x10d;" horiz-adv-x="919" vert-adv-y="1720" 
d="M699 336h154q-2 -110 -66 -207q-103 -158 -297 -158q-197 0 -303 146q-101 139 -101 354q0 208 95 345q108 155 305 155q175 0 279 -125q63 -76 84 -202h-157q-14 77 -46 123q-59 81 -158 81q-113 0 -178 -100q-70 -107 -70 -276q0 -172 67 -277q65 -101 183 -101
q112 0 171 110q29 53 38 132zM218 1365h143l123 -197l126 197h133l-180 -273h-164z" />
    <glyph glyph-name="Dcaron" unicode="&#x10e;" horiz-adv-x="1201" vert-adv-y="1720" 
d="M154 0v1365h376q154 0 255 -40q175 -69 260 -268q64 -150 64 -356q0 -346 -162 -537q-94 -110 -223 -146q-65 -18 -177 -18h-393zM320 145h198q123 0 181 21q112 40 178 186q59 129 59 345q0 282 -124 416q-60 64 -136 89q-57 18 -143 18h-213v-1075zM322 1734h158
l126 -185l128 185h148l-183 -259h-191z" />
    <glyph glyph-name="dcaron" unicode="&#x10f;" horiz-adv-x="1026" vert-adv-y="1720" 
d="M882 0h-142v114q-92 -143 -267 -143q-172 0 -276 129q-112 139 -112 376q0 229 106 362q104 133 273 133t265 -138v532h153v-1365zM481 848q-70 0 -129 -49q-57 -46 -86 -138q-27 -85 -27 -188q0 -167 69 -277q64 -102 176 -102q75 0 136 50q113 92 113 325
q0 186 -74 288q-67 91 -178 91zM1183 1363v-132q2 -215 -160 -232v69l6 1q65 20 72 125h-78v169h160z" />
    <glyph glyph-name="Dcroat" unicode="&#x110;" horiz-adv-x="1201" vert-adv-y="1720" 
d="M0 632v141h154v592h376q154 0 255 -40q175 -69 260 -268q64 -149 64 -355q0 -346 -162 -538q-94 -110 -223 -146q-65 -18 -177 -18h-393v632h-154zM320 145h198q123 0 181 21q112 40 178 186q59 129 59 346q0 281 -124 415q-59 64 -136 89q-57 18 -143 18h-212v-447h302
v-141h-303v-487z" />
    <glyph glyph-name="dcroat" unicode="&#x111;" horiz-adv-x="1026" vert-adv-y="1720" 
d="M882 0h-143v114q-88 -143 -265 -143q-172 0 -276 129q-112 139 -112 376q0 228 106 362q104 133 273 133t264 -138v255h-245v112h245v165h153v-165h112v-112h-112v-1088zM482 848q-70 0 -129 -49q-56 -46 -86 -138q-27 -85 -27 -188q0 -167 69 -277q65 -102 177 -102
q74 0 135 50q112 92 112 325q0 187 -73 288q-67 91 -178 91z" />
    <glyph glyph-name="Emacron" unicode="&#x112;" horiz-adv-x="1041" vert-adv-y="1720" 
d="M152 0v1365h789v-145h-622v-447h580v-141h-580v-487h630v-145h-797zM801 1603v-117h-560v117h560z" />
    <glyph glyph-name="emacron" unicode="&#x113;" horiz-adv-x="948" vert-adv-y="1720" 
d="M862 431h-621q2 -95 27 -166q60 -171 219 -171q125 0 180 107q20 39 37 100h148q-21 -115 -77 -190q-102 -140 -286 -140q-205 0 -310 156q-93 138 -93 347q0 217 107 358q106 139 285 139q148 0 246 -92q106 -101 129 -300q7 -59 9 -148zM706 554q-7 101 -37 167
q-58 127 -189 127q-124 0 -186 -115q-38 -71 -51 -179h463zM725 1252v-112h-502v112h502z" />
    <glyph glyph-name="Ebreve" unicode="&#x114;" horiz-adv-x="1041" vert-adv-y="1720" 
d="M152 0v1365h789v-145h-622v-447h580v-141h-580v-487h630v-145h-797zM801 1748q-34 -273 -260 -273t-260 273h106q27 -161 154 -161t154 161h106z" />
    <glyph glyph-name="ebreve" unicode="&#x115;" horiz-adv-x="948" vert-adv-y="1720" 
d="M862 431h-621q2 -95 27 -166q60 -171 219 -171q125 0 180 107q20 39 37 100h148q-21 -115 -77 -190q-102 -140 -286 -140q-205 0 -310 156q-93 138 -93 347q0 217 107 358q106 139 285 139q148 0 246 -92q106 -101 129 -300q7 -59 9 -148zM706 554q-7 101 -37 167
q-58 127 -189 127q-124 0 -186 -115q-38 -71 -51 -179h463zM717 1365q-32 -273 -243 -273q-210 0 -242 273h102q24 -165 140 -165t141 165h102z" />
    <glyph glyph-name="Edotaccent" unicode="&#x116;" horiz-adv-x="1041" vert-adv-y="1720" 
d="M152 0v1365h789v-145h-622v-447h580v-141h-580v-487h630v-145h-797zM613 1655v-194h-143v194h143z" />
    <glyph glyph-name="edotaccent" unicode="&#x117;" horiz-adv-x="948" vert-adv-y="1720" 
d="M862 431h-621q2 -95 27 -166q60 -171 219 -171q125 0 180 107q20 39 37 100h148q-21 -115 -77 -190q-102 -140 -286 -140q-205 0 -310 156q-93 138 -93 347q0 217 107 358q106 139 285 139q148 0 246 -92q106 -101 129 -300q7 -59 9 -148zM706 554q-7 101 -37 167
q-58 127 -189 127q-124 0 -186 -115q-38 -71 -51 -179h463zM545 1297v-191h-143v191h143z" />
    <glyph glyph-name="Eogonek" unicode="&#x118;" horiz-adv-x="1041" vert-adv-y="1720" 
d="M947 0q-95 -81 -95 -167q0 -52 43 -81q26 -17 65 -17q26 0 76 18l1 -91l-6 -2q-53 -20 -100 -20q-88 0 -141 50q-49 47 -49 118q0 96 111 192h-700v1365h789v-145h-622v-447h580v-141h-580v-487h630v-145h-2z" />
    <glyph glyph-name="eogonek" unicode="&#x119;" horiz-adv-x="948" vert-adv-y="1720" 
d="M621 -8q-87 -74 -87 -158q0 -53 43 -82q27 -17 66 -17q26 0 77 17v-90l-6 -2q-53 -20 -101 -20q-89 0 -144 50q-50 46 -50 117q0 91 82 164h-7h-10q-126 0 -222 71q-95 69 -141 205q-35 104 -35 227q0 216 107 358q106 139 286 139q147 0 245 -92q107 -101 130 -300
q7 -59 8 -148h-621q3 -95 28 -166q60 -171 219 -171q124 0 179 107q20 39 37 100h149q-25 -140 -110 -229q-55 -56 -122 -80zM706 554q-7 101 -37 167q-58 127 -188 127q-124 0 -187 -115q-38 -71 -50 -179h462z" />
    <glyph glyph-name="Ecaron" unicode="&#x11a;" horiz-adv-x="1041" vert-adv-y="1720" 
d="M152 0v1365h789v-145h-622v-447h580v-141h-580v-487h630v-145h-797zM241 1734h158l126 -185l128 185h148l-183 -259h-191z" />
    <glyph glyph-name="ecaron" unicode="&#x11b;" horiz-adv-x="948" vert-adv-y="1720" 
d="M862 431h-621q2 -95 27 -166q60 -171 219 -171q125 0 180 107q20 39 37 100h148q-21 -115 -77 -190q-102 -140 -286 -140q-205 0 -310 156q-93 138 -93 347q0 217 107 358q106 139 285 139q148 0 246 -92q106 -101 129 -300q7 -59 9 -148zM706 554q-7 101 -37 167
q-58 127 -189 127q-124 0 -186 -115q-38 -71 -51 -179h463zM212 1365h143l123 -197l126 197h133l-180 -273h-164z" />
    <glyph glyph-name="Gcircumflex" unicode="&#x11c;" horiz-adv-x="1282" vert-adv-y="1720" 
d="M1155 0h-141v174q-134 -207 -371 -207q-209 0 -349 140q-90 90 -135 207q-65 168 -65 359q0 360 196 572q142 152 368 152q273 0 408 -213q65 -104 78 -238h-167q-12 90 -55 162q-88 146 -263 146q-192 0 -296 -172q-96 -158 -96 -403q0 -261 109 -419q103 -149 278 -149
q144 0 237 104q109 120 114 363h-358v143h508v-721zM932 1475h-158l-126 185l-128 -185h-148l183 259h192z" />
    <glyph glyph-name="gcircumflex" unicode="&#x11d;" horiz-adv-x="1003" vert-adv-y="1720" 
d="M114 -76h155q14 -66 54 -102q59 -54 154 -54q230 0 230 309v62q-75 -152 -252 -152q-168 0 -267 129q-102 134 -102 351q0 229 109 370q55 72 138 108q62 26 130 26q97 0 171 -52q43 -31 83 -94v117h142v-809q0 -207 -60 -312q-54 -93 -155 -140q-77 -36 -171 -36
q-201 0 -299 128q-50 67 -60 151zM471 848q-114 0 -177 -116q-53 -99 -53 -257q0 -200 83 -294q63 -71 151 -71q72 0 122 45q114 103 114 339q0 186 -80 281q-62 73 -160 73zM764 1092h-143l-124 197l-126 -197h-132l179 273h164z" />
    <glyph glyph-name="Gbreve" unicode="&#x11e;" horiz-adv-x="1282" vert-adv-y="1720" 
d="M1155 0h-141v174q-134 -207 -371 -207q-209 0 -349 140q-90 90 -135 207q-65 168 -65 359q0 360 196 572q142 152 368 152q273 0 408 -213q65 -104 78 -238h-167q-12 90 -55 162q-88 146 -263 146q-192 0 -296 -172q-96 -158 -96 -403q0 -261 109 -419q103 -149 278 -149
q144 0 237 104q109 120 114 363h-358v143h508v-721zM901 1748q-34 -273 -260 -273t-260 273h106q27 -161 154 -161t154 161h106z" />
    <glyph glyph-name="gbreve" unicode="&#x11f;" horiz-adv-x="1003" vert-adv-y="1720" 
d="M114 -76h155q14 -66 54 -102q59 -54 154 -54q230 0 230 309v62q-75 -152 -252 -152q-168 0 -267 129q-102 134 -102 351q0 229 109 370q55 72 138 108q62 26 130 26q97 0 171 -52q43 -31 83 -94v117h142v-809q0 -207 -60 -312q-54 -93 -155 -140q-77 -36 -171 -36
q-201 0 -299 128q-50 67 -60 151zM471 848q-114 0 -177 -116q-53 -99 -53 -257q0 -200 83 -294q63 -71 151 -71q72 0 122 45q114 103 114 339q0 186 -80 281q-62 73 -160 73zM744 1365q-32 -273 -243 -273q-210 0 -242 273h102q24 -165 140 -165t141 165h102z" />
    <glyph glyph-name="Gdotaccent" unicode="&#x120;" horiz-adv-x="1282" vert-adv-y="1720" 
d="M1155 0h-141v174q-134 -207 -371 -207q-209 0 -349 140q-90 90 -135 207q-65 168 -65 359q0 360 196 572q142 152 368 152q273 0 408 -213q65 -104 78 -238h-167q-12 90 -55 162q-88 146 -263 146q-192 0 -296 -172q-96 -158 -96 -403q0 -261 109 -419q103 -149 278 -149
q144 0 237 104q109 120 114 363h-358v143h508v-721zM728 1655v-194h-143v194h143z" />
    <glyph glyph-name="gdotaccent" unicode="&#x121;" horiz-adv-x="1003" vert-adv-y="1720" 
d="M114 -76h155q14 -66 54 -102q59 -54 154 -54q230 0 230 309v62q-75 -152 -252 -152q-168 0 -267 129q-102 134 -102 351q0 229 109 370q55 72 138 108q62 26 130 26q97 0 171 -52q43 -31 83 -94v117h142v-809q0 -207 -60 -312q-54 -93 -155 -140q-77 -36 -171 -36
q-201 0 -299 128q-50 67 -60 151zM471 848q-114 0 -177 -116q-53 -99 -53 -257q0 -200 83 -294q63 -71 151 -71q72 0 122 45q114 103 114 339q0 186 -80 281q-62 73 -160 73zM555 1297v-191h-143v191h143z" />
    <glyph glyph-name="Gcommaaccent" unicode="&#x122;" horiz-adv-x="1282" vert-adv-y="1720" 
d="M1155 0h-141v174q-134 -207 -371 -207q-209 0 -349 140q-90 90 -135 207q-65 168 -65 359q0 360 196 572q142 152 368 152q273 0 408 -213q65 -104 78 -238h-167q-12 90 -55 162q-88 146 -263 146q-192 0 -296 -172q-96 -158 -96 -403q0 -261 109 -419q103 -149 278 -149
q144 0 237 104q109 120 114 363h-358v143h508v-721zM727 -84v-132q2 -215 -160 -232v69l6 1q65 20 72 125h-78v169h160z" />
    <glyph glyph-name="gcommaaccent" unicode="&#x123;" horiz-adv-x="1003" vert-adv-y="1720" 
d="M114 -76h155q14 -66 54 -102q59 -54 154 -54q230 0 230 309v62q-75 -152 -252 -152q-168 0 -267 129q-102 134 -102 351q0 229 109 370q55 72 138 108q62 26 130 26q97 0 171 -52q43 -31 83 -94v117h142v-809q0 -207 -60 -312q-54 -93 -155 -140q-77 -36 -171 -36
q-201 0 -299 128q-50 67 -60 151zM471 848q-114 0 -177 -116q-53 -99 -53 -257q0 -200 83 -294q63 -71 151 -71q72 0 122 45q114 103 114 339q0 186 -80 281q-62 73 -160 73zM396 1093v132q-2 215 160 232v-69l-6 -1q-65 -21 -72 -125h78v-169h-160z" />
    <glyph glyph-name="Hcircumflex" unicode="&#x124;" horiz-adv-x="1220" vert-adv-y="1720" 
d="M152 0v1365h167v-574h583v574h167v-1365h-167v646h-583v-646h-167zM892 1475h-158l-126 185l-128 -185h-148l183 259h192z" />
    <glyph glyph-name="Imacron" unicode="&#x12a;" horiz-adv-x="560" vert-adv-y="1720" 
d="M197 0v1365h167v-1365h-167zM560 1603v-117h-560v117h560z" />
    <glyph glyph-name="imacron" unicode="&#x12b;" horiz-adv-x="502" vert-adv-y="1720" 
d="M175 0v942h153v-942h-153zM502 1252v-112h-502v112h502z" />
    <glyph glyph-name="ibreve" unicode="&#x12d;" horiz-adv-x="451" vert-adv-y="1720" 
d="M175 0v942h153v-942h-153zM494 1365q-32 -273 -243 -273q-210 0 -242 273h102q24 -165 140 -165t141 165h102z" />
    <glyph glyph-name="Iogonek" unicode="&#x12e;" horiz-adv-x="470" vert-adv-y="1720" 
d="M317 0q-95 -82 -95 -167q0 -53 43 -81q27 -17 66 -17q25 0 76 18l1 -91l-6 -2q-53 -20 -100 -20q-89 0 -142 50q-49 46 -49 118q0 96 111 192h-71v1365h167v-1365h-1z" />
    <glyph glyph-name="iogonek" unicode="&#x12f;" horiz-adv-x="447" vert-adv-y="1720" 
d="M298 0q-5 -5 -11 -10q-83 -74 -83 -156q0 -53 43 -82q26 -17 65 -17q26 0 77 17v-90l-6 -2q-53 -20 -101 -20q-89 0 -143 50q-50 46 -50 118q0 98 114 192h-55v942h152v-942h-2zM148 1157v208h153v-208h-153z" />
    <glyph glyph-name="Idot" unicode="&#x130;" horiz-adv-x="470" vert-adv-y="1720" 
d="M152 0v1365h167v-1365h-167zM307 1655v-194h-143v194h143z" />
    <glyph glyph-name="Kcommaaccent" unicode="&#x136;" horiz-adv-x="1105" vert-adv-y="1720" 
d="M152 0v1365h167v-633l551 633h206l-506 -569l517 -796h-193l-434 673l-141 -158v-515h-167zM657 -84v-132q2 -215 -160 -232v69l6 1q65 20 72 125h-78v169h160z" />
    <glyph glyph-name="kcommaaccent" unicode="&#x137;" horiz-adv-x="907" vert-adv-y="1720" 
d="M143 0v1365h153v-801l363 378h195l-343 -350l365 -592h-180l-295 479l-105 -107v-372h-153zM544 -84v-132q2 -215 -160 -232v69l6 1q65 20 72 125h-78v169h160z" />
    <glyph glyph-name="Lacute" unicode="&#x139;" horiz-adv-x="968" vert-adv-y="1720" 
d="M152 0v1365h167v-1220h594v-145h-761zM723 1734l-199 -255h-130l177 255h152z" />
    <glyph glyph-name="lacute" unicode="&#x13a;" horiz-adv-x="464" vert-adv-y="1720" 
d="M147 0v1365h153v-1365h-153zM510 1734l-199 -255h-130l177 255h152z" />
    <glyph glyph-name="Lcommaaccent" unicode="&#x13b;" horiz-adv-x="968" vert-adv-y="1720" 
d="M152 0v1365h167v-1220h594v-145h-761zM601 -84v-132q2 -215 -160 -232v69l6 1q65 20 72 125h-78v169h160z" />
    <glyph glyph-name="lcommaaccent" unicode="&#x13c;" horiz-adv-x="448" vert-adv-y="1720" 
d="M148 0v1365h153v-1365h-153zM304 -84v-132q2 -215 -160 -232v69l6 1q65 20 72 125h-78v169h160z" />
    <glyph glyph-name="Lcaron" unicode="&#x13d;" horiz-adv-x="968" vert-adv-y="1720" 
d="M152 0v1365h167v-1220h594v-145h-761zM749 1371v-132q2 -215 -160 -232v69l6 1q65 20 72 125h-78v169h160z" />
    <glyph glyph-name="lcaron" unicode="&#x13e;" horiz-adv-x="448" vert-adv-y="1720" 
d="M148 0v1365h153v-1365h-153zM604 1359v-132q2 -215 -160 -232v69l6 1q65 20 72 125h-78v169h160z" />
    <glyph glyph-name="Lslash" unicode="&#x141;" horiz-adv-x="968" vert-adv-y="1720" 
d="M0 426v152l152 112v675h167v-569l275 201v-152l-275 -201v-499h594v-145h-761v538z" />
    <glyph glyph-name="lslash" unicode="&#x142;" horiz-adv-x="447" vert-adv-y="1720" 
d="M0 471v143l147 130v621h153v-502l147 130v-143l-147 -130v-720h-153v601z" />
    <glyph glyph-name="Nacute" unicode="&#x143;" horiz-adv-x="1229" vert-adv-y="1720" 
d="M152 0v1365h178l595 -1117v1117h153v-1365h-181l-592 1105v-1105h-153zM853 1734l-199 -255h-130l177 255h152z" />
    <glyph glyph-name="nacute" unicode="&#x144;" horiz-adv-x="980" vert-adv-y="1720" 
d="M143 0v942h143v-127q104 156 280 156q104 0 177 -56q76 -58 94 -168q8 -45 8 -138v-609h-153v555q0 128 -15 183q-14 50 -55 80t-99 30q-103 0 -165 -82q-42 -56 -54 -146q-8 -56 -8 -163v-457h-153zM707 1365l-179 -273h-130l163 273h146z" />
    <glyph glyph-name="Ncommaaccent" unicode="&#x145;" horiz-adv-x="1229" vert-adv-y="1720" 
d="M152 0v1365h178l595 -1117v1117h153v-1365h-181l-592 1105v-1105h-153zM684 -84v-132q2 -215 -160 -232v69l6 1q65 20 72 125h-78v169h160z" />
    <glyph glyph-name="ncommaaccent" unicode="&#x146;" horiz-adv-x="980" vert-adv-y="1720" 
d="M143 0v942h143v-127q104 156 280 156q104 0 177 -56q76 -58 94 -168q8 -45 8 -138v-609h-153v555q0 128 -15 183q-14 50 -55 80t-99 30q-103 0 -165 -82q-42 -56 -54 -146q-8 -56 -8 -163v-457h-153zM563 -84v-132q2 -215 -160 -232v69l6 1q65 20 72 125h-78v169h160z
" />
    <glyph glyph-name="Ncaron" unicode="&#x147;" horiz-adv-x="1229" vert-adv-y="1720" 
d="M152 0v1365h178l595 -1117v1117h153v-1365h-181l-592 1105v-1105h-153zM335 1734h158l126 -185l128 185h148l-183 -259h-191z" />
    <glyph glyph-name="ncaron" unicode="&#x148;" horiz-adv-x="980" vert-adv-y="1720" 
d="M143 0v942h143v-127q104 156 280 156q104 0 177 -56q76 -58 94 -168q8 -45 8 -138v-609h-153v555q0 128 -15 183q-14 50 -55 80t-99 30q-103 0 -165 -82q-42 -56 -54 -146q-8 -56 -8 -163v-457h-153zM228 1365h143l123 -197l126 197h133l-180 -273h-164z" />
    <glyph glyph-name="Omacron" unicode="&#x14c;" horiz-adv-x="1297" vert-adv-y="1720" 
d="M657 1396q162 0 291 -96q138 -103 205 -294q49 -142 49 -321q0 -282 -120 -476q-72 -116 -189 -181q-111 -61 -246 -61q-194 0 -332 123q-221 195 -221 591q0 329 154 520q157 195 409 195zM643 1250q-165 0 -269 -150q-108 -155 -108 -412q0 -243 90 -400
q52 -89 144 -140q70 -38 150 -38q103 0 191 65q97 72 148 228q40 124 40 277q0 255 -105 414q-103 156 -281 156zM928 1603v-117h-560v117h560z" />
    <glyph glyph-name="omacron" unicode="&#x14d;" horiz-adv-x="986" vert-adv-y="1720" 
d="M500 971q182 0 293 -137q107 -132 107 -362q0 -255 -127 -391q-103 -110 -275 -110q-200 0 -307 142q-105 140 -105 358q0 210 94 343q112 157 320 157zM491 848q-108 0 -174 -92q-76 -107 -76 -284q0 -180 74 -285q66 -93 182 -93q104 0 165 79q83 108 83 298
q0 181 -73 283q-66 94 -181 94zM744 1252v-112h-502v112h502z" />
    <glyph glyph-name="Ohungarumlaut" unicode="&#x150;" horiz-adv-x="1297" vert-adv-y="1720" 
d="M657 1396q162 0 291 -96q138 -103 205 -294q49 -142 49 -321q0 -282 -120 -476q-72 -116 -189 -181q-111 -61 -246 -61q-194 0 -332 123q-221 195 -221 591q0 329 154 520q157 195 409 195zM643 1250q-165 0 -269 -150q-108 -155 -108 -412q0 -243 90 -400
q52 -89 144 -140q70 -38 150 -38q103 0 191 65q97 72 148 228q40 124 40 277q0 255 -105 414q-103 156 -281 156zM749 1734l-199 -255h-130l177 255h152zM1022 1734l-199 -255h-130l177 255h152z" />
    <glyph glyph-name="ohungarumlaut" unicode="&#x151;" horiz-adv-x="986" vert-adv-y="1720" 
d="M500 971q182 0 293 -137q107 -132 107 -362q0 -255 -127 -391q-103 -110 -275 -110q-200 0 -307 142q-105 140 -105 358q0 210 94 343q112 157 320 157zM491 848q-108 0 -174 -92q-76 -107 -76 -284q0 -180 74 -285q66 -93 182 -93q104 0 165 79q83 108 83 298
q0 181 -73 283q-66 94 -181 94zM574 1365l-179 -273h-130l163 273h146zM847 1365l-179 -273h-130l163 273h146z" />
    <glyph glyph-name="Racute" unicode="&#x154;" horiz-adv-x="1178" vert-adv-y="1720" 
d="M152 0v1365h481q116 0 184 -27q99 -39 158 -131q57 -89 57 -213q0 -167 -104 -265q-48 -45 -119 -70q110 -21 161 -136q20 -50 28 -129q2 -26 13 -157q15 -191 63 -237h-189q-19 28 -26 74q-4 27 -12 168q-10 161 -33 220q-36 94 -120 117q-49 13 -133 13h-242v-592h-167
zM319 735h228q108 0 158 13q154 41 154 231q0 139 -86 202q-54 39 -187 39h-267v-485zM827 1734l-199 -255h-130l177 255h152z" />
    <glyph glyph-name="racute" unicode="&#x155;" horiz-adv-x="612" vert-adv-y="1720" 
d="M143 0v942h143v-177q92 214 307 206v-171q-36 4 -50 4q-107 0 -173 -89q-55 -74 -68 -200q-6 -67 -6 -178v-337h-153zM524 1365l-179 -273h-130l163 273h146z" />
    <glyph glyph-name="Rcommaaccent" unicode="&#x156;" horiz-adv-x="1178" vert-adv-y="1720" 
d="M152 0v1365h481q116 0 184 -27q99 -39 158 -131q57 -89 57 -213q0 -167 -104 -265q-48 -45 -119 -70q110 -21 161 -136q20 -50 28 -129q2 -26 13 -157q15 -191 63 -237h-189q-19 28 -26 74q-4 27 -12 168q-10 161 -33 220q-36 94 -120 117q-49 13 -133 13h-242v-592h-167
zM319 735h228q108 0 158 13q154 41 154 231q0 139 -86 202q-54 39 -187 39h-267v-485zM670 -84v-132q2 -215 -160 -232v69l6 1q65 20 72 125h-78v169h160z" />
    <glyph glyph-name="rcommaaccent" unicode="&#x157;" horiz-adv-x="612" vert-adv-y="1720" 
d="M143 0v942h143v-177q92 214 307 206v-171q-36 4 -50 4q-107 0 -173 -89q-55 -74 -68 -200q-6 -67 -6 -178v-337h-153zM299 -84v-132q2 -215 -160 -232v69l6 1q65 20 72 125h-78v169h160z" />
    <glyph glyph-name="Rcaron" unicode="&#x158;" horiz-adv-x="1178" vert-adv-y="1720" 
d="M152 0v1365h481q116 0 184 -27q99 -39 158 -131q57 -89 57 -213q0 -167 -104 -265q-48 -45 -119 -70q110 -21 161 -136q20 -50 28 -129q2 -26 13 -157q15 -191 63 -237h-189q-19 28 -26 74q-4 27 -12 168q-10 161 -33 220q-36 94 -120 117q-49 13 -133 13h-242v-592h-167
zM319 735h228q108 0 158 13q154 41 154 231q0 139 -86 202q-54 39 -187 39h-267v-485zM310 1734h158l126 -185l128 185h148l-183 -259h-191z" />
    <glyph glyph-name="rcaron" unicode="&#x159;" horiz-adv-x="645" vert-adv-y="1720" 
d="M202 0v942h143v-177q92 214 307 206v-171q-36 4 -50 4q-107 0 -173 -89q-55 -74 -68 -200q-6 -67 -6 -178v-337h-153zM103 1365h143l123 -197l126 197h133l-180 -273h-164z" />
    <glyph glyph-name="Sacute" unicode="&#x15a;" horiz-adv-x="1063" vert-adv-y="1720" 
d="M82 424h165q8 -118 49 -184q79 -125 245 -125q139 0 211 89q52 64 52 154q0 124 -103 191q-44 28 -223 89q-178 61 -259 130q-114 98 -114 257q0 154 101 257q114 115 300 115q158 0 271 -83q103 -75 140 -194q14 -46 20 -120h-174q-6 95 -44 149q-71 102 -212 102
q-101 0 -163 -59q-65 -62 -65 -161q0 -110 100 -176q52 -34 196 -80q127 -41 162 -57q244 -112 244 -345q0 -170 -117 -285q-121 -120 -322 -120q-271 0 -394 208q-57 96 -66 248zM769 1734l-199 -255h-130l177 255h152z" />
    <glyph glyph-name="sacute" unicode="&#x15b;" horiz-adv-x="805" vert-adv-y="1720" 
d="M67 266h157q6 -168 184 -168q86 0 129 43q36 36 36 95q0 79 -82 129q-31 19 -149 65q-127 50 -180 107q-66 72 -66 174q0 121 86 195q77 65 205 65q183 0 261 -124q38 -59 46 -148h-152q-4 62 -35 100q-43 51 -122 51q-72 0 -110 -42q-30 -34 -30 -87q0 -58 40 -93
q39 -34 154 -77q150 -55 209 -105q90 -76 90 -194q0 -128 -88 -207q-82 -74 -229 -74q-218 0 -304 138q-45 71 -50 157zM623 1365l-179 -273h-130l163 273h146z" />
    <glyph glyph-name="Scircumflex" unicode="&#x15c;" horiz-adv-x="1063" vert-adv-y="1720" 
d="M82 424h165q8 -118 49 -184q79 -125 245 -125q139 0 211 89q52 64 52 154q0 124 -103 191q-44 28 -223 89q-178 61 -259 130q-114 98 -114 257q0 154 101 257q114 115 300 115q158 0 271 -83q103 -75 140 -194q14 -46 20 -120h-174q-6 95 -44 149q-71 102 -212 102
q-101 0 -163 -59q-65 -62 -65 -161q0 -110 100 -176q52 -34 196 -80q127 -41 162 -57q244 -112 244 -345q0 -170 -117 -285q-121 -120 -322 -120q-271 0 -394 208q-57 96 -66 248zM792 1475h-158l-126 185l-128 -185h-148l183 259h192z" />
    <glyph glyph-name="scircumflex" unicode="&#x15d;" horiz-adv-x="805" vert-adv-y="1720" 
d="M67 266h157q6 -168 184 -168q86 0 129 43q36 36 36 95q0 79 -82 129q-31 19 -149 65q-127 50 -180 107q-66 72 -66 174q0 121 86 195q77 65 205 65q183 0 261 -124q38 -59 46 -148h-152q-4 62 -35 100q-43 51 -122 51q-72 0 -110 -42q-30 -34 -30 -87q0 -58 40 -93
q39 -34 154 -77q150 -55 209 -105q90 -76 90 -194q0 -128 -88 -207q-82 -74 -229 -74q-218 0 -304 138q-45 71 -50 157zM668 1092h-143l-124 197l-126 -197h-132l179 273h164z" />
    <glyph glyph-name="Scedilla" unicode="&#x15e;" horiz-adv-x="1063" vert-adv-y="1720" 
d="M82 424h165q7 -117 49 -184q78 -125 245 -125q139 0 211 89q52 64 52 154q0 124 -103 191q-45 28 -224 89q-176 60 -258 130q-114 98 -114 257q0 154 102 257q114 115 299 115q158 0 271 -83q102 -74 140 -194q14 -46 20 -120h-174q-6 95 -44 149q-71 102 -211 102
q-102 0 -163 -59q-66 -62 -66 -161q0 -128 128 -192q58 -29 268 -97q123 -39 200 -114q106 -102 106 -255q0 -133 -77 -238q-116 -160 -353 -167l-29 -74q27 11 50 11q60 0 102 -29q61 -42 61 -121q0 -72 -46 -119q-49 -50 -136 -50q-92 0 -136 57q-20 25 -24 54h105
q9 -35 54 -35q71 0 71 82q0 38 -20 62q-19 22 -51 22q-43 0 -54 -29h-102l68 175q-155 20 -258 126q-116 123 -124 324z" />
    <glyph glyph-name="scedilla" unicode="&#x15f;" horiz-adv-x="801" vert-adv-y="1720" 
d="M424 -29l-29 -79q21 9 44 9q54 0 98 -30q60 -41 60 -120q0 -70 -45 -114q-48 -47 -131 -47q-85 0 -125 56q-17 24 -20 53h93q9 -34 56 -34q72 0 72 80q0 38 -20 61q-19 22 -52 22q-42 0 -53 -29h-93l65 177q-118 16 -185 78q-62 58 -86 151q-6 28 -8 61h157
q6 -168 184 -168q86 0 129 43q36 37 36 95q0 78 -82 129q-31 19 -149 65q-127 50 -180 107q-66 72 -66 174q0 121 87 195q76 65 204 65q183 0 261 -124q38 -59 46 -148h-152q-4 62 -35 100q-43 51 -121 51q-73 0 -110 -42q-31 -35 -31 -88q0 -57 40 -92q39 -34 154 -77
q151 -56 209 -105q90 -76 90 -195q0 -96 -55 -170q-79 -105 -257 -110z" />
    <glyph glyph-name="Scaron" unicode="&#x160;" horiz-adv-x="1063" vert-adv-y="1720" 
d="M82 424h165q8 -118 49 -184q79 -125 245 -125q139 0 211 89q52 64 52 154q0 124 -103 191q-44 28 -223 89q-178 61 -259 130q-114 98 -114 257q0 154 101 257q114 115 300 115q158 0 271 -83q103 -75 140 -194q14 -46 20 -120h-174q-6 95 -44 149q-71 102 -212 102
q-101 0 -163 -59q-65 -62 -65 -161q0 -110 100 -176q52 -34 196 -80q127 -41 162 -57q244 -112 244 -345q0 -170 -117 -285q-121 -120 -322 -120q-271 0 -394 208q-57 96 -66 248zM251 1734h158l126 -185l128 185h148l-183 -259h-191z" />
    <glyph glyph-name="scaron" unicode="&#x161;" horiz-adv-x="805" vert-adv-y="1720" 
d="M67 266h157q6 -168 184 -168q86 0 129 43q36 36 36 95q0 79 -82 129q-31 19 -149 65q-127 50 -180 107q-66 72 -66 174q0 121 86 195q77 65 205 65q183 0 261 -124q38 -59 46 -148h-152q-4 62 -35 100q-43 51 -122 51q-72 0 -110 -42q-30 -34 -30 -87q0 -58 40 -93
q39 -34 154 -77q150 -55 209 -105q90 -76 90 -194q0 -128 -88 -207q-82 -74 -229 -74q-218 0 -304 138q-45 71 -50 157zM144 1365h143l123 -197l126 197h133l-180 -273h-164z" />
    <glyph glyph-name="Tcommaaccent" unicode="&#x162;" horiz-adv-x="1020" vert-adv-y="1720" 
d="M427 0v1220h-380v145h926v-145h-379v-1220h-167zM590 -84v-132q2 -215 -160 -232v69l6 1q65 20 72 125h-78v169h160z" />
    <glyph glyph-name="tcommaaccent" unicode="&#x163;" horiz-adv-x="524" vert-adv-y="1720" 
d="M23 815v127h136v141l125 166h28v-307h161v-127h-161v-557q0 -90 11 -111q22 -41 77 -41q29 0 73 13v-126q-60 -13 -105 -13q-137 0 -183 75q-19 32 -23 98q-3 43 -3 123v539h-136zM332 -84v-132q2 -215 -160 -232v69l6 1q65 20 72 125h-78v169h160z" />
    <glyph glyph-name="Tcaron" unicode="&#x164;" horiz-adv-x="1020" vert-adv-y="1720" 
d="M427 0v1220h-380v145h926v-145h-379v-1220h-167zM230 1734h158l126 -185l128 185h148l-183 -259h-191z" />
    <glyph glyph-name="tcaron" unicode="&#x165;" horiz-adv-x="524" vert-adv-y="1720" 
d="M23 815v127h136v141l125 166h28v-307h161v-127h-161v-557q0 -90 11 -111q22 -41 77 -41q29 0 73 13v-126q-60 -13 -105 -13q-137 0 -183 75q-19 32 -23 98q-3 43 -3 123v539h-136zM658 1379v-132q2 -215 -160 -232v69l6 1q65 20 72 125h-78v169h160z" />
    <glyph glyph-name="utilde" unicode="&#x169;" horiz-adv-x="980" vert-adv-y="1720" 
d="M837 0h-143v127q-104 -156 -276 -156q-170 0 -240 123q-33 57 -39 127q-4 49 -4 112v609h153v-555q0 -128 15 -183q14 -50 55 -80t99 -30q103 0 165 83q42 55 54 145q8 56 8 164v456h153v-942zM772 1317q-13 -77 -38 -123q-48 -88 -128 -88q-48 0 -132 56q-64 43 -94 43
q-50 0 -70 -92h-101q9 67 31 111q49 100 140 100q49 0 128 -56q63 -44 87 -44q55 0 74 93h103z" />
    <glyph glyph-name="Umacron" unicode="&#x16a;" horiz-adv-x="1202" vert-adv-y="1720" 
d="M135 1365h165v-771q0 -141 8 -201q22 -158 106 -225q72 -58 195 -58q197 0 258 170q33 89 33 314v771h167v-769q0 -205 -25 -297q-90 -332 -431 -332q-188 0 -295 83q-117 91 -158 258q-23 95 -23 291v766zM881 1603v-117h-560v117h560z" />
    <glyph glyph-name="umacron" unicode="&#x16b;" horiz-adv-x="980" vert-adv-y="1720" 
d="M837 0h-143v127q-104 -156 -276 -156q-170 0 -240 123q-33 57 -39 127q-4 49 -4 112v609h153v-555q0 -128 15 -183q14 -50 55 -80t99 -30q103 0 165 83q42 55 54 145q8 56 8 164v456h153v-942zM741 1252v-112h-502v112h502z" />
    <glyph glyph-name="ubreve" unicode="&#x16d;" horiz-adv-x="980" vert-adv-y="1720" 
d="M837 0h-143v127q-104 -156 -276 -156q-170 0 -240 123q-33 57 -39 127q-4 49 -4 112v609h153v-555q0 -128 15 -183q14 -50 55 -80t99 -30q103 0 165 83q42 55 54 145q8 56 8 164v456h153v-942zM733 1365q-32 -273 -243 -273q-210 0 -242 273h102q24 -165 140 -165
t141 165h102z" />
    <glyph glyph-name="Uring" unicode="&#x16e;" horiz-adv-x="1202" vert-adv-y="1720" 
d="M135 1365h165v-771q0 -141 8 -201q22 -158 106 -225q72 -58 195 -58q197 0 258 170q33 89 33 314v771h167v-769q0 -205 -25 -297q-90 -332 -431 -332q-188 0 -295 83q-117 91 -158 258q-23 95 -23 291v766zM601 1733q-42 0 -71 -30q-30 -31 -30 -76q0 -44 29 -75t70 -31
q42 0 71 32q29 31 29 74q0 44 -29 75t-69 31zM600 1825q78 0 136 -57q57 -58 57 -139q0 -80 -56 -137q-58 -59 -140 -59t-139 57q-57 58 -57 139q0 83 59 140q58 56 140 56z" />
    <glyph glyph-name="uring" unicode="&#x16f;" horiz-adv-x="980" vert-adv-y="1720" 
d="M837 0h-143v127q-104 -156 -276 -156q-170 0 -240 123q-33 57 -39 127q-4 49 -4 112v609h153v-555q0 -128 15 -183q14 -50 55 -80t99 -30q103 0 165 83q42 55 54 145q8 56 8 164v456h153v-942zM488 1356q-39 0 -68 -30t-29 -74q0 -42 29 -73q28 -30 68 -30q42 0 70 31
q28 30 28 72q0 44 -29 74q-28 30 -69 30zM489 1445q76 0 131 -55q56 -56 56 -136q0 -77 -54 -132q-56 -57 -136 -57t-134 55q-56 57 -56 134q0 82 57 137q56 54 136 54z" />
    <glyph glyph-name="Uhungarumlaut" unicode="&#x170;" horiz-adv-x="1202" vert-adv-y="1720" 
d="M135 1365h165v-771q0 -141 8 -201q22 -158 106 -225q72 -58 195 -58q197 0 258 170q33 89 33 314v771h167v-769q0 -205 -25 -297q-90 -332 -431 -332q-188 0 -295 83q-117 91 -158 258q-23 95 -23 291v766zM702 1734l-199 -255h-130l177 255h152zM975 1734l-199 -255
h-130l177 255h152z" />
    <glyph glyph-name="uhungarumlaut" unicode="&#x171;" horiz-adv-x="987" vert-adv-y="1720" 
d="M837 0h-143v127q-104 -156 -276 -156q-170 0 -240 123q-33 57 -39 127q-4 49 -4 112v609h153v-555q0 -128 15 -183q14 -50 55 -80t99 -30q103 0 165 83q42 55 54 145q8 56 8 164v456h153v-942zM571 1365l-179 -273h-130l163 273h146zM844 1365l-179 -273h-130l163 273
h146z" />
    <glyph glyph-name="Uogonek" unicode="&#x172;" horiz-adv-x="1202" vert-adv-y="1720" 
d="M796 -2q-93 -76 -93 -165q0 -53 43 -81q27 -17 65 -17q26 0 77 18l1 -91l-6 -2q-53 -20 -100 -20q-89 0 -142 50q-49 46 -49 118q0 85 78 162q-38 -3 -68 -3q-279 0 -395 212q-47 85 -62 199q-10 76 -10 221v766h165v-771q0 -141 8 -201q22 -157 106 -224q72 -58 195 -58
q196 0 258 170q33 89 33 313v771h167v-769q-1 -216 -25 -297q-62 -234 -246 -301z" />
    <glyph glyph-name="uogonek" unicode="&#x173;" horiz-adv-x="980" vert-adv-y="1720" 
d="M836 0l-8 -7q-87 -77 -87 -159q0 -53 43 -82q26 -17 65 -17q26 0 77 18v-91l-6 -2q-53 -20 -100 -20q-89 0 -144 50q-51 46 -51 118q0 95 115 192h-46v127q-104 -156 -276 -156q-170 0 -240 123q-33 57 -39 127q-4 49 -4 112v609h153v-555q0 -128 15 -183q14 -50 55 -80
t99 -30q103 0 165 83q42 55 54 145q8 56 8 163v457h153v-942h-1z" />
    <glyph glyph-name="Wcircumflex" unicode="&#x174;" horiz-adv-x="1534" vert-adv-y="1720" 
d="M332 0l-295 1365h168l219 -1132l249 1132h189l248 -1134l225 1134h162l-303 -1365h-174l-255 1154l-257 -1154h-176zM1042 1475h-158l-126 185l-128 -185h-148l183 259h192z" />
    <glyph glyph-name="Ycircumflex" unicode="&#x176;" horiz-adv-x="1055" vert-adv-y="1720" 
d="M446 0v560l-442 805h195l335 -643l330 643h187l-438 -805v-560h-167zM822 1475h-158l-126 185l-128 -185h-148l183 259h192z" />
    <glyph glyph-name="ycircumflex" unicode="&#x177;" horiz-adv-x="828" vert-adv-y="1720" 
d="M102 -340v132q15 -5 19 -7q36 -14 65 -14q53 0 76 35q27 41 86 217l-326 919h167l237 -731l224 731h159l-304 -896q-80 -235 -115 -296q-61 -105 -190 -105q-41 0 -98 15zM688 1092h-143l-124 197l-126 -197h-132l179 273h164z" />
    <glyph glyph-name="Zacute" unicode="&#x179;" horiz-adv-x="1041" vert-adv-y="1720" 
d="M66 0v151l704 1069h-646v145h835v-147l-704 -1073h719v-145h-908zM759 1734l-199 -255h-130l177 255h152z" />
    <glyph glyph-name="zacute" unicode="&#x17a;" horiz-adv-x="806" vert-adv-y="1720" 
d="M57 0v113l502 702h-468v127h658v-101l-506 -714h524v-127h-710zM620 1365l-179 -273h-130l163 273h146z" />
    <glyph glyph-name="Zdotaccent" unicode="&#x17b;" horiz-adv-x="1041" vert-adv-y="1720" 
d="M66 0v151l704 1069h-646v145h835v-147l-704 -1073h719v-145h-908zM592 1655v-194h-143v194h143z" />
    <glyph glyph-name="zdotaccent" unicode="&#x17c;" horiz-adv-x="806" vert-adv-y="1720" 
d="M57 0v113l502 702h-468v127h658v-101l-506 -714h524v-127h-710zM474 1297v-191h-143v191h143z" />
    <glyph glyph-name="Zcaron" unicode="&#x17d;" horiz-adv-x="1041" vert-adv-y="1720" 
d="M66 0v151l704 1069h-646v145h835v-147l-704 -1073h719v-145h-908zM241 1734h158l126 -185l128 185h148l-183 -259h-191z" />
    <glyph glyph-name="zcaron" unicode="&#x17e;" horiz-adv-x="806" vert-adv-y="1720" 
d="M57 0v113l502 702h-468v127h658v-101l-506 -714h524v-127h-710zM141 1365h143l123 -197l126 197h133l-180 -273h-164z" />
    <glyph glyph-name="uni01CD" unicode="&#x1cd;" horiz-adv-x="1133" vert-adv-y="1720" 
d="M475 1365h185l444 -1365h-182l-127 419h-463l-129 -419h-174zM375 560h377l-187 619zM291 1734h158l126 -185l128 185h148l-183 -259h-191z" />
    <glyph glyph-name="uni01CE" unicode="&#x1ce;" horiz-adv-x="935" vert-adv-y="1720" 
d="M877 128v-118q-45 -28 -97 -28q-61 0 -95 37q-34 36 -34 98v27q-113 -173 -288 -173q-109 0 -185 64q-92 77 -92 209q0 146 111 228q83 62 237 78q69 7 207 11v87q0 199 -184 199q-110 0 -158 -76q-25 -41 -32 -119h-149q7 148 92 231q91 88 256 88q182 0 267 -111
q42 -55 51 -145q4 -35 4 -140v-356q1 -74 6 -86q10 -20 34 -20q22 0 49 15zM641 458q-143 -6 -224 -24q-84 -19 -126 -63q-51 -52 -51 -124q0 -65 43 -110q41 -43 106 -43q80 0 145 56q62 54 88 141q19 63 19 115v52zM201 1365h143l123 -197l126 197h133l-180 -273h-164z
" />
    <glyph glyph-name="Ucaron" unicode="&#x1d3;" horiz-adv-x="1202" vert-adv-y="1720" 
d="M135 1365h165v-771q0 -141 8 -201q22 -158 106 -225q72 -58 195 -58q197 0 258 170q33 89 33 314v771h167v-769q0 -205 -25 -297q-90 -332 -431 -332q-188 0 -295 83q-117 91 -158 258q-23 95 -23 291v766zM321 1734h158l126 -185l128 185h148l-183 -259h-191z" />
    <glyph glyph-name="ucaron" unicode="&#x1d4;" horiz-adv-x="980" vert-adv-y="1720" 
d="M837 0h-143v127q-104 -156 -276 -156q-170 0 -240 123q-33 57 -39 127q-4 49 -4 112v609h153v-555q0 -128 15 -183q14 -50 55 -80t99 -30q103 0 165 83q42 55 54 145q8 56 8 164v456h153v-942zM228 1365h143l123 -197l126 197h133l-180 -273h-164z" />
    <glyph glyph-name="Gcaron" unicode="&#x1e6;" horiz-adv-x="1282" vert-adv-y="1720" 
d="M1155 0h-141v174q-134 -207 -371 -207q-209 0 -349 140q-90 90 -135 207q-65 168 -65 359q0 360 196 572q142 152 368 152q273 0 408 -213q65 -104 78 -238h-167q-12 90 -55 162q-88 146 -263 146q-192 0 -296 -172q-96 -158 -96 -403q0 -261 109 -419q103 -149 278 -149
q144 0 237 104q109 120 114 363h-358v143h508v-721zM367 1734h158l126 -185l128 185h148l-183 -259h-191z" />
    <glyph glyph-name="gcaron" unicode="&#x1e7;" horiz-adv-x="1003" vert-adv-y="1720" 
d="M114 -76h155q14 -66 54 -102q59 -54 154 -54q230 0 230 309v62q-75 -152 -252 -152q-168 0 -267 129q-102 134 -102 351q0 229 109 370q55 72 138 108q62 26 130 26q97 0 171 -52q43 -31 83 -94v117h142v-809q0 -207 -60 -312q-54 -93 -155 -140q-77 -36 -171 -36
q-201 0 -299 128q-50 67 -60 151zM471 848q-114 0 -177 -116q-53 -99 -53 -257q0 -200 83 -294q63 -71 151 -71q72 0 122 45q114 103 114 339q0 186 -80 281q-62 73 -160 73zM250 1365h143l123 -197l126 197h133l-180 -273h-164z" />
    <glyph glyph-name="afii57929" unicode="&#x2bc;" horiz-adv-x="486" vert-adv-y="1720" 
d="M342 1365v-130q0 -115 -17 -171q-42 -137 -182 -170v101q91 23 96 139v18h-96v213h199z" />
    <glyph glyph-name="semicolon" unicode="&#x37e;" horiz-adv-x="486" vert-adv-y="1720" 
d="M342 942v-213h-199v213h199zM342 213v-131q0 -123 -17 -184q-42 -148 -182 -185v101q91 28 96 168v18h-96v213h199z" />
    <glyph glyph-name="anoteleia" unicode="&#x387;" horiz-adv-x="486" vert-adv-y="1720" 
d="M342 598v-213h-199v213h199z" />
    <glyph glyph-name="Wdieresis" unicode="&#x1e84;" horiz-adv-x="1534" vert-adv-y="1720" 
d="M332 0l-295 1365h168l219 -1132l249 1132h189l248 -1134l225 1134h162l-303 -1365h-174l-255 1154l-257 -1154h-176zM966 1655v-194h-143v194h143zM710 1655v-194h-143v194h143z" />
    <glyph glyph-name="hyphen" unicode="&#x2010;" horiz-adv-x="399" vert-adv-y="1720" 
d="M399 591v-164h-399v164h399z" />
    <glyph glyph-name="nbhyphen" unicode="&#x2011;" horiz-adv-x="399" vert-adv-y="1720" 
d="M399 591v-164h-399v164h399z" />
    <glyph glyph-name="figuredash" unicode="&#x2012;" horiz-adv-x="967" vert-adv-y="1720" 
d="M831 591v-164h-694v164h694z" />
    <glyph glyph-name="afii00208" unicode="&#x2015;" horiz-adv-x="1454" vert-adv-y="1720" 
d="M1318 591v-164h-1175v164h1175z" />
    <glyph glyph-name="quotereversed" unicode="&#x201b;" horiz-adv-x="393" vert-adv-y="1720" 
 />
    <glyph glyph-name="radicalex" unicode="&#x203e;" vert-adv-y="1720" 
d="M68 1607h887v-132h-887v132z" />
    <glyph glyph-name="fourinferior" unicode="&#x2084;" horiz-adv-x="579" vert-adv-y="1720" 
d="M339 0v204h-298v98l312 517h86v-523h90v-92h-90v-204h-100zM339 296v333l-199 -333h199z" />
    <glyph glyph-name="franc" unicode="&#x20a3;" horiz-adv-x="1351" vert-adv-y="1720" 
d="M152 0v1365h749v-137h-588v-413h434v-133h-434v-682h-161zM883 0v815h143v-177q91 214 307 206v-168q-35 4 -51 4q-107 0 -174 -89q-56 -75 -68 -202q-7 -66 -7 -179v-210h-150z" />
    <glyph glyph-name="estimated" unicode="&#x212e;" horiz-adv-x="948" vert-adv-y="1720" 
d="M862 431h-621q2 -95 27 -166q60 -171 219 -171q125 0 180 107q20 39 37 100h148q-21 -115 -77 -190q-102 -140 -286 -140q-205 0 -310 156q-93 138 -93 347q0 217 107 358q106 139 285 139q148 0 246 -92q106 -101 129 -300q7 -59 9 -148zM706 554q-7 101 -37 167
q-58 127 -189 127q-124 0 -186 -115q-38 -71 -51 -179h463z" />
    <glyph glyph-name="minus" unicode="&#x2212;" vert-adv-y="1720" 
d="M68 756h887v-132h-887v132z" />
    <glyph glyph-name="fraction" unicode="&#x2215;" horiz-adv-x="402" vert-adv-y="1720" 
d="M-30 0h-124l588 1365h121z" />
    <glyph glyph-name="dotmath" unicode="&#x22c5;" horiz-adv-x="486" vert-adv-y="1720" 
d="M342 598v-213h-199v213h199z" />
    <glyph glyph-name="fi" unicode="&#xea01;" horiz-adv-x="966" vert-adv-y="1720" 
d="M179 0v815h-136v127h136v91q0 190 35 254q60 109 195 109q44 0 100 -14v-139q-44 18 -74 18q-71 0 -91 -60q-12 -36 -12 -119v-140h155v-127h-155v-815h-153zM666 1157v208h153v-208h-153zM666 0v942h153v-942h-153z" />
    <glyph glyph-name="fl" unicode="&#xea02;" horiz-adv-x="966" vert-adv-y="1720" 
d="M179 0v815h-136v127h136v91q0 190 35 254q60 109 195 109q44 0 100 -14v-139q-44 18 -74 18q-71 0 -91 -60q-12 -36 -12 -119v-140h155v-127h-155v-815h-153zM666 0v1365h153v-1365h-153z" />
    <glyph glyph-name="uniEA11" unicode="&#xea11;" vert-adv-y="1720" 
d="M726 1655v-194h-143v194h143zM442 1655v-194h-143v194h143z" />
    <glyph glyph-name="uniEA12" unicode="&#xea12;" vert-adv-y="1720" 
d="M583 1655v-194h-143v194h143z" />
    <glyph glyph-name="uniEA13" unicode="&#xea13;" vert-adv-y="1720" 
d="M513 1733q-42 0 -71 -30q-30 -31 -30 -76q0 -44 29 -75t70 -31q42 0 71 32q29 31 29 74q0 44 -29 75t-69 31zM512 1825q78 0 136 -57q57 -58 57 -139q0 -80 -56 -137q-58 -59 -140 -59t-139 57q-57 58 -57 139q0 83 59 140q58 56 140 56z" />
    <glyph glyph-name="uniEA14" unicode="&#xea14;" vert-adv-y="1720" 
d="M750 1734l-199 -255h-130l177 255h152z" />
    <glyph glyph-name="uniEA15" unicode="&#xea15;" vert-adv-y="1720" 
d="M274 1734h152l177 -255h-130z" />
    <glyph glyph-name="uniEA16" unicode="&#xea16;" vert-adv-y="1720" 
d="M792 1475h-158l-126 185l-128 -185h-148l183 259h192z" />
    <glyph glyph-name="uniEA17" unicode="&#xea17;" vert-adv-y="1720" 
d="M232 1734h158l126 -185l128 185h148l-183 -259h-191z" />
    <glyph glyph-name="uniEA18" unicode="&#xea18;" vert-adv-y="1720" 
d="M772 1748q-34 -273 -260 -273t-260 273h106q27 -161 154 -161t154 161h106z" />
    <glyph glyph-name="uniEA19" unicode="&#xea19;" vert-adv-y="1720" 
d="M800 1686q-10 -72 -39 -124q-49 -88 -139 -88q-55 0 -127 57q-54 43 -90 43q-60 0 -78 -93h-103q34 212 179 212q57 0 127 -54q56 -42 85 -42q60 0 80 89h105z" />
    <glyph glyph-name="uniEA1A" unicode="&#xea1a;" vert-adv-y="1720" 
d="M613 1734l-199 -255h-130l177 255h152zM886 1734l-199 -255h-130l177 255h152z" />
    <glyph glyph-name="uniEA1B" unicode="&#xea1b;" vert-adv-y="1720" 
d="M434 0h89l-42 -106q28 11 51 11q60 0 102 -29q61 -42 61 -121q0 -72 -46 -119q-49 -50 -136 -50q-92 0 -137 57q-20 25 -23 54h105q9 -35 54 -35q71 0 71 82q0 38 -20 62q-19 22 -51 22q-43 0 -55 -29h-101z" />
    <glyph glyph-name="uniEA1C" unicode="&#xea1c;" vert-adv-y="1720" 
d="M917 0q-95 -84 -95 -166q0 -54 43 -82q27 -17 65 -17q26 0 77 18l1 -91l-6 -2q-53 -20 -100 -20q-89 0 -142 50q-49 46 -49 118q0 97 111 192h95z" />
    <glyph glyph-name="uniEA1D" unicode="&#xea1d;" vert-adv-y="1720" 
d="M792 1603v-117h-560v117h560z" />
    <glyph glyph-name="uniEA3F" unicode="&#xea3f;" horiz-adv-x="1021" vert-adv-y="1720" 
d="M579 1386v-132q2 -215 -160 -232v69l6 1q65 20 72 125h-78v169h160z" />
    <glyph glyph-name="Hochkomma" unicode="&#xea4f;" horiz-adv-x="1021" vert-adv-y="1720" 
d="M421 1093v132q-2 215 160 232v-69l-6 -1q-65 -21 -72 -125h78v-169h-160z" />
    <glyph glyph-name="uniEA66" unicode="&#xea66;" horiz-adv-x="1021" vert-adv-y="1720" 
d="M579 -84v-132q2 -215 -160 -232v69l6 1q65 20 72 125h-78v169h160z" />
    <glyph glyph-name="uniEA67" unicode="&#xea67;" horiz-adv-x="1021" vert-adv-y="1720" 
d="M579 1386v-132q2 -215 -160 -232v69l6 1q65 20 72 125h-78v169h160z" />
    <glyph glyph-name="uniEA68" unicode="&#xea68;" vert-adv-y="1720" 
d="M711 1655v-194h-143v194h143zM455 1655v-194h-143v194h143z" />
    <glyph glyph-name="Unterkomma" unicode="&#xea69;" horiz-adv-x="1021" vert-adv-y="1720" 
d="M579 -84v-132q2 -215 -160 -232v69l6 1q65 20 72 125h-78v169h160z" />
    <glyph glyph-name="uniEA6A" unicode="&#xea6a;" vert-adv-y="1720" 
d="M705 1297v-191h-143v191h143zM462 1297v-191h-143v191h143z" />
    <glyph glyph-name="hp1089" unicode="&#xefed;" vert-adv-y="1720" 
d="M583 1655v-194h-143v194h143z" />
    <glyph glyph-name="hp1087" unicode="&#xefee;" vert-adv-y="1720" 
d="M772 1748q-34 -273 -260 -273t-260 273h106q27 -161 154 -161t154 161h106z" />
    <glyph glyph-name="hp1085" unicode="&#xefef;" vert-adv-y="1720" 
d="M792 1603v-117h-560v117h560z" />
    <glyph glyph-name="hp1045" unicode="&#xeff0;" vert-adv-y="1720" 
d="M613 1734l-199 -255h-130l177 255h152zM886 1734l-199 -255h-130l177 255h152z" />
    <glyph glyph-name="hp1030" unicode="&#xeff1;" vert-adv-y="1720" 
d="M917 0q-95 -84 -95 -166q0 -54 43 -82q27 -17 65 -17q26 0 77 18l1 -91l-6 -2q-53 -20 -100 -20q-89 0 -142 50q-49 46 -49 118q0 97 111 192h95z" />
    <glyph glyph-name="hp0330" unicode="&#xeff2;" vert-adv-y="1720" 
d="M434 0h89l-42 -106q28 11 51 11q60 0 102 -29q61 -42 61 -121q0 -72 -46 -119q-49 -50 -136 -50q-92 0 -137 57q-20 25 -23 54h105q9 -35 54 -35q71 0 71 82q0 38 -20 62q-19 22 -51 22q-43 0 -55 -29h-101z" />
    <glyph glyph-name="hp0323" unicode="&#xeff3;" vert-adv-y="1720" 
d="M513 1733q-42 0 -71 -30q-30 -31 -30 -76q0 -44 29 -75t70 -31q42 0 71 32q29 31 29 74q0 44 -29 75t-69 31zM512 1825q78 0 136 -57q57 -58 57 -139q0 -80 -56 -137q-58 -59 -140 -59t-139 57q-57 58 -57 139q0 83 59 140q58 56 140 56z" />
    <glyph glyph-name="hp0322" unicode="&#xeff4;" vert-adv-y="1720" 
d="M232 1734h158l126 -185l128 185h148l-183 -259h-191z" />
    <glyph glyph-name="hp0321" unicode="&#xeff5;" vert-adv-y="1720" 
d="M800 1686q-10 -72 -39 -124q-49 -88 -139 -88q-55 0 -127 57q-54 43 -90 43q-60 0 -78 -93h-103q34 212 179 212q57 0 127 -54q56 -42 85 -42q60 0 80 89h105z" />
    <glyph glyph-name="hp0320" unicode="&#xeff6;" vert-adv-y="1720" 
d="M726 1655v-194h-143v194h143zM442 1655v-194h-143v194h143z" />
    <glyph glyph-name="hp0319" unicode="&#xeff7;" vert-adv-y="1720" 
d="M792 1475h-158l-126 185l-128 -185h-148l183 259h192z" />
    <glyph glyph-name="hp0318" unicode="&#xeff8;" vert-adv-y="1720" 
d="M274 1734h152l177 -255h-130z" />
    <glyph glyph-name="hp0317" unicode="&#xeff9;" vert-adv-y="1720" 
d="M750 1734l-199 -255h-130l177 255h152z" />
    <glyph glyph-name="afii10017" unicode="&#x410;" horiz-adv-x="1133" vert-adv-y="1720" 
d="M475 1365h185l444 -1365h-182l-127 419h-463l-129 -419h-174zM375 560h377l-187 619z" />
    <glyph glyph-name="afii10018" unicode="&#x411;" horiz-adv-x="1058" vert-adv-y="1720" 
d="M913 1365v-145h-594v-416h247q118 0 184 -20q104 -31 174 -124q73 -96 73 -258q0 -237 -163 -344q-89 -58 -268 -58h-414v1365h761zM319 659v-514h211q89 0 130 9q79 19 122 87q42 66 42 161q0 163 -108 226q-53 31 -186 31h-211z" />
    <glyph glyph-name="afii10019" unicode="&#x412;" horiz-adv-x="1140" vert-adv-y="1720" 
d="M152 0v1365h433q186 0 270 -54q145 -94 145 -282q0 -122 -67 -205q-40 -50 -120 -92q237 -69 237 -342q0 -149 -73 -249q-102 -141 -322 -141h-503zM319 784h229q151 0 203 36q81 57 81 179q0 154 -101 201q-42 20 -168 20h-244v-436zM319 145h259q162 0 215 36
q89 60 89 212q0 169 -121 228q-49 24 -209 24h-233v-500z" />
    <glyph glyph-name="afii10020" unicode="&#x413;" horiz-adv-x="968" vert-adv-y="1720" 
d="M152 1365h761v-145h-594v-1220h-167v1365z" />
    <glyph glyph-name="afii10021" unicode="&#x414;" horiz-adv-x="1202" vert-adv-y="1720" 
d="M1039 145h136v-350h-167v205h-841v-205h-167v350h26q164 0 187 211l113 1009h713v-1220zM872 145v1075h-396l-98 -872q-14 -127 -80 -203h574z" />
    <glyph glyph-name="afii10022" unicode="&#x415;" horiz-adv-x="1041" vert-adv-y="1720" 
d="M152 0v1365h789v-145h-622v-447h580v-141h-580v-487h630v-145h-797z" />
    <glyph glyph-name="afii10024" unicode="&#x416;" horiz-adv-x="1730" vert-adv-y="1720" 
d="M949 669v-669h-167v669h-94l-525 -669h-171l559 730l-510 635h170l473 -585h98v585h167v-585h97l473 585h170l-510 -635l559 -730h-171l-525 669h-93z" />
    <glyph glyph-name="afii10025" unicode="&#x417;" horiz-adv-x="1127" vert-adv-y="1720" 
d="M456 773h120q121 0 193 52q94 66 94 189q0 109 -70 174t-195 65q-283 0 -339 -297h-170q18 195 153 319q132 121 355 121q208 0 322 -99q118 -102 118 -275q0 -158 -114 -250q-58 -48 -147 -66q105 -25 162 -76q100 -90 100 -246q0 -176 -114 -292q-122 -125 -335 -125
q-233 0 -362 152q-128 150 -148 396h170q39 -405 333 -405q125 0 204 76q78 75 78 192q0 131 -84 200q-67 54 -194 54h-130v141z" />
    <glyph glyph-name="afii10026" unicode="&#x418;" horiz-adv-x="1229" vert-adv-y="1720" 
d="M152 1365h153v-1043l620 966v77h153v-1365h-153v1040l-620 -953v-87h-153v1365z" />
    <glyph glyph-name="afii10028" unicode="&#x41a;" horiz-adv-x="1105" vert-adv-y="1720" 
d="M148 1365h167v-585h97l473 585h170l-510 -635l559 -730h-171l-525 669h-93v-669h-167v1365z" />
    <glyph glyph-name="afii10029" unicode="&#x41b;" horiz-adv-x="1171" vert-adv-y="1720" 
d="M456 1220l-97 -897q-18 -165 -99 -251q-64 -68 -159 -85q-39 -8 -94 -10v143q166 11 187 211l113 1034h713v-1365h-167v1220h-397z" />
    <glyph glyph-name="afii10030" unicode="&#x41c;" horiz-adv-x="1457" vert-adv-y="1720" 
d="M152 0v1365h221l361 -1152l347 1152h224v-1365h-153v1164l-337 -1164h-166l-348 1141v-1141h-149z" />
    <glyph glyph-name="afii10031" unicode="&#x41d;" horiz-adv-x="1220" vert-adv-y="1720" 
d="M152 0v1365h167v-574h583v574h167v-1365h-167v646h-583v-646h-167z" />
    <glyph glyph-name="afii10032" unicode="&#x41e;" horiz-adv-x="1297" vert-adv-y="1720" 
d="M657 1396q162 0 291 -96q138 -103 205 -294q49 -142 49 -321q0 -282 -120 -476q-72 -116 -189 -181q-111 -61 -246 -61q-194 0 -332 123q-221 195 -221 591q0 329 154 520q157 195 409 195zM643 1250q-165 0 -269 -150q-108 -155 -108 -412q0 -243 90 -400
q52 -89 144 -140q70 -38 150 -38q103 0 191 65q97 72 148 228q40 124 40 277q0 255 -105 414q-103 156 -281 156z" />
    <glyph glyph-name="afii10033" unicode="&#x41f;" horiz-adv-x="1220" vert-adv-y="1720" 
d="M1069 1365v-1365h-167v1220h-583v-1220h-167v1365h917z" />
    <glyph glyph-name="afii10034" unicode="&#x420;" horiz-adv-x="1066" vert-adv-y="1720" 
d="M152 0v1365h414q118 0 185 -20q104 -31 174 -123q73 -97 73 -254q0 -237 -154 -343q-67 -46 -157 -58q-37 -5 -115 -5h-253v-562h-167zM319 707h233q133 0 192 49q81 68 81 209q0 161 -108 224q-54 31 -187 31h-211v-513z" />
    <glyph glyph-name="afii10035" unicode="&#x421;" horiz-adv-x="1213" vert-adv-y="1720" 
d="M964 515h170q-16 -192 -97 -325q-136 -223 -400 -223q-259 0 -399 194q-144 201 -144 517q0 306 140 503q152 215 413 215q247 0 383 -188q81 -112 94 -252h-171q-19 107 -72 177q-90 120 -240 120q-180 0 -276 -163q-98 -166 -98 -410q0 -257 106 -423q93 -147 264 -147
q196 0 282 202q34 81 45 203z" />
    <glyph glyph-name="afii10036" unicode="&#x422;" horiz-adv-x="1020" vert-adv-y="1720" 
d="M427 0v1220h-380v145h926v-145h-379v-1220h-167z" />
    <glyph glyph-name="afii10037" unicode="&#x423;" horiz-adv-x="1034" vert-adv-y="1720" 
d="M457 342l-443 1023h179l343 -832l321 832h184l-417 -1002q-83 -199 -125 -265q-86 -131 -261 -131q-42 0 -108 14v147q54 -18 95 -18q103 0 165 96q24 38 67 136z" />
    <glyph glyph-name="afii10038" unicode="&#x424;" horiz-adv-x="1587" vert-adv-y="1720" 
d="M877 1207q261 -5 424 -114q204 -135 204 -411q0 -306 -249 -438q-155 -82 -379 -87v-157h-167v157q-260 5 -424 114q-204 135 -204 411q0 305 249 438q155 82 379 87v158h167v-158zM877 301q176 2 284 62q171 95 171 317q0 243 -201 333q-101 45 -254 47v-759zM710 1060
q-176 -2 -284 -62q-171 -95 -171 -318q0 -242 201 -332q101 -45 254 -47v759z" />
    <glyph glyph-name="afii10039" unicode="&#x425;" horiz-adv-x="1043" vert-adv-y="1720" 
d="M25 0l401 699l-376 666h194l279 -528l290 528h184l-378 -657l400 -708h-197l-301 560l-309 -560h-187z" />
    <glyph glyph-name="afii10040" unicode="&#x426;" horiz-adv-x="1232" vert-adv-y="1720" 
d="M1069 145h136v-350h-167v205h-886v1365h167v-1220h583v1220h167v-1220z" />
    <glyph glyph-name="afii10041" unicode="&#x427;" horiz-adv-x="1233" vert-adv-y="1720" 
d="M915 571q-115 -95 -323 -95q-215 0 -345 115q-117 103 -133 271q-5 48 -5 124v379h165v-387q0 -155 51 -232q83 -127 284 -127q156 0 234 86q72 79 72 259v401h167v-1365h-167v571z" />
    <glyph glyph-name="afii10042" unicode="&#x428;" horiz-adv-x="1697" vert-adv-y="1720" 
d="M1546 0h-1394v1365h167v-1220h447v1220h167v-1220h446v1220h167v-1365z" />
    <glyph glyph-name="afii10043" unicode="&#x429;" horiz-adv-x="1709" vert-adv-y="1720" 
d="M1546 145h137v-350h-167v205h-1364v1365h167v-1220h447v1220h167v-1220h446v1220h167v-1220z" />
    <glyph glyph-name="afii10046" unicode="&#x42c;" horiz-adv-x="1052" vert-adv-y="1720" 
d="M152 1365h167v-561h247q118 0 185 -20q104 -31 174 -124q73 -96 73 -258q0 -237 -163 -344q-89 -58 -269 -58h-414v1365zM319 659v-514h211q90 0 131 9q79 19 122 87q42 66 42 161q0 163 -108 226q-54 31 -187 31h-211z" />
    <glyph glyph-name="afii10045" unicode="&#x42b;" horiz-adv-x="1439" vert-adv-y="1720" 
d="M152 1365h167v-561h247q118 0 185 -20q104 -31 174 -124q73 -96 73 -258q0 -237 -163 -344q-89 -58 -269 -58h-414v1365zM319 659v-514h211q90 0 131 9q79 19 122 87q42 66 42 161q0 163 -108 226q-54 31 -187 31h-211zM1121 0v1365h167v-1365h-167z" />
    <glyph glyph-name="afii10044" unicode="&#x42a;" horiz-adv-x="1256" vert-adv-y="1720" 
d="M356 1220h-349v145h516v-561h247q118 0 185 -20q104 -31 174 -124q73 -96 73 -258q0 -237 -163 -344q-89 -58 -269 -58h-414v1220zM523 659v-514h211q90 0 130 9q80 19 123 87q42 66 42 161q0 163 -108 226q-54 31 -187 31h-211z" />
    <glyph glyph-name="afii10047" unicode="&#x42d;" horiz-adv-x="1213" vert-adv-y="1720" 
d="M942 773q-15 149 -61 254q-100 226 -308 226q-163 0 -253 -137q-43 -66 -61 -160h-170q14 156 112 276q135 164 365 164q261 0 413 -215q140 -197 140 -503q0 -316 -145 -517q-140 -194 -398 -194q-287 0 -421 261q-62 120 -76 287h170q13 -139 57 -229q87 -176 270 -176
q220 0 317 251q43 110 52 271h-489v141h486z" />
    <glyph glyph-name="afii10048" unicode="&#x42e;" horiz-adv-x="1773" vert-adv-y="1720" 
d="M576 791q15 189 95 329q77 136 196 207q117 69 260 69q249 0 399 -195q154 -200 154 -515q0 -283 -120 -476q-72 -117 -189 -182q-111 -61 -246 -61q-223 0 -371 160q-175 190 -182 519h-253v-646h-167v1365h167v-574h257zM1126 1250q-170 0 -274 -150
q-108 -154 -108 -403q0 -251 91 -408q51 -89 143 -140q70 -38 151 -38q102 0 190 65q97 72 148 228q40 124 40 280q0 252 -105 410q-103 156 -276 156z" />
    <glyph glyph-name="afii10049" unicode="&#x42f;" horiz-adv-x="1178" vert-adv-y="1720" 
d="M1026 0h-167v592h-242q-110 0 -166 -25q-85 -38 -106 -178q-10 -68 -21 -274q-4 -72 -31 -115h-189q31 34 46 100q10 43 27 256q8 98 20 139q28 86 87 129q31 23 85 35q-79 28 -131 82q-92 96 -92 253q0 196 138 301q92 70 261 70h481v-1365zM859 735v485h-267
q-143 0 -198 -49q-75 -65 -75 -192q0 -145 91 -204q61 -40 221 -40h228z" />
    <glyph glyph-name="afii10050" unicode="&#x490;" horiz-adv-x="968" vert-adv-y="1720" 
d="M913 1488v-268h-594v-1220h-167v1365h594v123h167z" />
    <glyph glyph-name="afii10051" unicode="&#x402;" horiz-adv-x="1177" vert-adv-y="1720" 
d="M462 0h-167v1220h-268v145h926v-145h-491v-392q95 143 261 143q154 0 246 -135q99 -146 99 -404q0 -341 -151 -518q-98 -114 -258 -114q-44 0 -95 16v131q53 -18 95 -18q103 0 168 97q87 130 87 406q0 416 -228 416q-110 0 -171 -94q-37 -57 -47 -141q-6 -45 -6 -168
v-445z" />
    <glyph glyph-name="afii10053" unicode="&#x404;" horiz-adv-x="1213" vert-adv-y="1720" 
d="M271 773h486v-141h-489q11 -185 67 -307q99 -215 301 -215q197 0 282 202q34 81 46 203h170q-16 -192 -97 -325q-136 -223 -401 -223q-258 0 -398 194q-144 201 -144 517q0 306 140 503q152 215 413 215q246 0 383 -188q81 -112 94 -252h-171q-19 107 -72 177
q-90 120 -241 120q-224 0 -322 -259q-35 -93 -47 -221z" />
    <glyph glyph-name="afii10054" unicode="&#x405;" horiz-adv-x="1063" vert-adv-y="1720" 
d="M82 424h165q8 -118 49 -184q79 -125 245 -125q139 0 211 89q52 64 52 154q0 124 -103 191q-44 28 -223 89q-178 61 -259 130q-114 98 -114 257q0 154 101 257q114 115 300 115q158 0 271 -83q103 -75 140 -194q14 -46 20 -120h-174q-6 95 -44 149q-71 102 -212 102
q-101 0 -163 -59q-65 -62 -65 -161q0 -110 100 -176q52 -34 196 -80q127 -41 162 -57q244 -112 244 -345q0 -170 -117 -285q-121 -120 -322 -120q-271 0 -394 208q-57 96 -66 248z" />
    <glyph glyph-name="afii10055" unicode="&#x406;" horiz-adv-x="470" vert-adv-y="1720" 
d="M152 0v1365h167v-1365h-167z" />
    <glyph glyph-name="uni04C0" unicode="&#x4c0;" horiz-adv-x="470" vert-adv-y="1720" 
d="M152 0v1365h167v-1365h-167z" />
    <glyph glyph-name="afii10057" unicode="&#x408;" horiz-adv-x="602" vert-adv-y="1720" 
d="M0 -19v147q46 -18 94 -18q134 0 182 124q20 51 23 137q1 42 1 124v870h167v-898q0 -168 -16 -238q-30 -137 -138 -208q-83 -54 -208 -54q-48 0 -105 14z" />
    <glyph glyph-name="afii10058" unicode="&#x409;" horiz-adv-x="1671" vert-adv-y="1720" 
d="M993 1365v-561h220q118 0 185 -20q104 -31 174 -123q73 -97 73 -259q0 -237 -163 -344q-90 -58 -269 -58h-387v1220h-369l-98 -897q-18 -166 -98 -251q-65 -68 -160 -85q-39 -8 -94 -10v143q166 10 187 211l113 1034h686zM993 659v-514h184q90 0 130 9q79 18 123 87
q42 66 42 161q0 163 -109 226q-53 31 -186 31h-184z" />
    <glyph glyph-name="afii10059" unicode="&#x40a;" horiz-adv-x="1720" vert-adv-y="1720" 
d="M875 797v568h167v-568h220q119 0 185 -19q104 -31 174 -122q73 -95 73 -255q0 -236 -163 -343q-90 -58 -269 -58h-387v652h-556v-652h-167v1365h167v-568h556zM1042 652v-507h184q90 0 130 9q80 19 123 87q42 66 42 160q0 159 -109 221q-53 30 -186 30h-184z" />
    <glyph glyph-name="afii10060" unicode="&#x40b;" horiz-adv-x="1146" vert-adv-y="1720" 
d="M462 1220v-392q95 143 265 143t242 -123q42 -71 42 -236v-612h-153v594q0 125 -24 172q-42 82 -146 82q-141 0 -198 -141q-28 -69 -28 -262v-445h-167v1220h-268v145h926v-145h-491z" />
    <glyph glyph-name="afii10145" unicode="&#x40f;" horiz-adv-x="1220" vert-adv-y="1720" 
d="M527 0h-375v1365h167v-1220h583v1220h167v-1365h-375v-205h-167v205z" />
    <glyph glyph-name="afii61352" unicode="&#x2116;" horiz-adv-x="1744" vert-adv-y="1720" 
d="M152 0v1365h178l595 -1117v1117h153v-1365h-181l-592 1105v-1105h-153zM1708 230v-112h-513v112h513zM1453 931q117 0 187 -86q68 -84 68 -228q0 -161 -80 -247q-65 -69 -173 -69q-126 0 -194 90q-66 87 -66 230q0 128 59 211q70 99 199 99zM1452 815q-59 0 -94 -49
q-40 -56 -40 -148q0 -96 39 -152q35 -49 97 -49q55 0 87 41q44 57 44 159q0 95 -38 148q-36 50 -95 50z" />
    <glyph glyph-name="afii10023" unicode="&#x401;" horiz-adv-x="1041" vert-adv-y="1720" 
d="M152 0v1365h789v-145h-622v-447h580v-141h-580v-487h630v-145h-797zM735 1655v-194h-143v194h143zM451 1655v-194h-143v194h143z" />
    <glyph glyph-name="glyph444" vert-adv-y="1720" 
d="M726 1655v-194h-143v194h143zM442 1655v-194h-143v194h143z" />
    <glyph glyph-name="afii10027" unicode="&#x419;" horiz-adv-x="1229" vert-adv-y="1720" 
d="M152 1365h153v-1043l620 966v77h153v-1365h-153v1040l-620 -953v-87h-153v1365zM901 1748q-34 -273 -260 -273t-260 273h106q11 -62 34 -100q39 -61 120 -61q88 0 127 73q18 34 27 88h106z" />
    <glyph glyph-name="glyph446" vert-adv-y="1720" 
d="M772 1748q-34 -273 -260 -273t-260 273h106q11 -62 34 -100q39 -61 120 -61q88 0 127 73q18 34 27 88h106z" />
    <glyph glyph-name="afii10052" unicode="&#x403;" horiz-adv-x="968" vert-adv-y="1720" 
d="M152 1365h761v-145h-594v-1220h-167v1365zM780 1734l-199 -255h-130l177 255h152z" />
    <glyph glyph-name="glyph448" vert-adv-y="1720" 
d="M750 1734l-199 -255h-130l177 255h152z" />
    <glyph glyph-name="afii10056" unicode="&#x407;" horiz-adv-x="473" vert-adv-y="1720" 
d="M153 0v1365h167v-1365h-167zM436 1655v-194h-143v194h143zM180 1655v-194h-143v194h143z" />
    <glyph glyph-name="glyph450" vert-adv-y="1720" 
d="M711 1655v-194h-143v194h143zM455 1655v-194h-143v194h143z" />
    <glyph glyph-name="afii10061" unicode="&#x40c;" horiz-adv-x="1105" vert-adv-y="1720" 
d="M148 1365h167v-585h97l473 585h170l-510 -635l559 -730h-171l-525 669h-93v-669h-167v1365zM851 1734l-199 -255h-130l177 255h152z" />
    <glyph glyph-name="afii10062" unicode="&#x40e;" horiz-adv-x="1034" vert-adv-y="1720" 
d="M457 342l-443 1023h179l343 -832l321 832h184l-417 -1002q-83 -199 -125 -265q-86 -131 -261 -131q-42 0 -108 14v147q54 -18 95 -18q103 0 165 96q24 38 67 136zM788 1748q-34 -273 -260 -273t-260 273h106q11 -62 34 -100q39 -61 120 -61q88 0 127 73q18 34 27 88h106z
" />
    <glyph glyph-name="afii10065" unicode="&#x430;" horiz-adv-x="935" vert-adv-y="1720" 
d="M877 128v-118q-45 -28 -97 -28q-61 0 -95 37q-34 36 -34 98v27q-113 -173 -288 -173q-109 0 -185 64q-92 77 -92 209q0 146 111 228q83 62 237 78q69 7 207 11v87q0 199 -184 199q-110 0 -158 -76q-25 -41 -32 -119h-149q7 148 92 231q91 88 256 88q182 0 267 -111
q42 -55 51 -145q4 -35 4 -140v-356q1 -74 6 -86q10 -20 34 -20q22 0 49 15zM641 458q-143 -6 -224 -24q-84 -19 -126 -63q-51 -52 -51 -124q0 -65 43 -110q41 -43 106 -43q80 0 145 56q62 54 88 141q19 63 19 115v52z" />
    <glyph glyph-name="afii10066" unicode="&#x431;" horiz-adv-x="986" vert-adv-y="1720" 
d="M655 1438h122v-20v-39q0 -87 -26 -128q-29 -45 -76 -69q-31 -16 -99 -31q-132 -30 -188 -75q-59 -47 -105 -177q98 72 220 72q194 0 302 -156q95 -138 95 -344q0 -214 -100 -352q-108 -148 -304 -148q-204 0 -313 163q-90 135 -90 362q0 187 37 353q60 271 242 364
q60 31 229 73q35 8 47 40q6 16 8 91zM498 847q-113 0 -180 -97q-74 -106 -74 -275q0 -179 72 -284q67 -97 183 -97q114 0 179 97q71 105 71 280t-73 279q-68 97 -178 97z" />
    <glyph glyph-name="afii10067" unicode="&#x432;" horiz-adv-x="900" vert-adv-y="1720" 
d="M296 431v-304h181q92 0 130 26q59 40 59 127q0 113 -92 142q-27 9 -97 9h-181zM638 500q91 -27 135 -81q48 -59 48 -152q0 -150 -126 -226q-50 -29 -114 -37q-35 -4 -96 -4h-342v942h349q141 0 209 -44q94 -61 94 -185q0 -158 -157 -213zM296 815v-257h181q163 0 163 134
q0 123 -152 123h-192z" />
    <glyph glyph-name="afii10068" unicode="&#x433;" horiz-adv-x="721" vert-adv-y="1720" 
d="M296 815v-815h-153v942h571v-127h-418z" />
    <glyph glyph-name="afii10069" unicode="&#x434;" horiz-adv-x="994" vert-adv-y="1720" 
d="M250 942h596v-815h109v-332h-153v205h-649v-205h-153v332h21q73 0 109 42t48 150zM255 127h438v688h-302l-61 -474q-18 -144 -75 -214z" />
    <glyph glyph-name="afii10070" unicode="&#x435;" horiz-adv-x="948" vert-adv-y="1720" 
d="M862 431h-621q2 -95 27 -166q60 -171 219 -171q125 0 180 107q20 39 37 100h148q-21 -115 -77 -190q-102 -140 -286 -140q-205 0 -310 156q-93 138 -93 347q0 217 107 358q106 139 285 139q148 0 246 -92q106 -101 129 -300q7 -59 9 -148zM706 554q-7 101 -37 167
q-58 127 -189 127q-124 0 -186 -115q-38 -71 -51 -179h463z" />
    <glyph glyph-name="afii10072" unicode="&#x436;" horiz-adv-x="1299" vert-adv-y="1720" 
d="M725 543h65l324 400h158l-356 -443l380 -500h-159l-351 445h-61v-445h-152v445h-62l-352 -445h-159l381 500l-355 442h159l322 -399h66v399h152v-399z" />
    <glyph glyph-name="afii10073" unicode="&#x437;" horiz-adv-x="859" vert-adv-y="1720" 
d="M361 558h76q80 0 129 37q55 41 55 110t-53 109q-47 34 -120 34q-183 0 -221 -204h-156q54 327 389 327q123 0 205 -51q111 -68 111 -199q0 -166 -175 -215q196 -54 196 -241q0 -126 -86 -208q-91 -86 -258 -86q-152 0 -236 65q-106 82 -141 222q-9 35 -10 78h154
q14 -112 69 -173q62 -69 163 -69q88 0 140 53q50 49 50 123q0 102 -89 142q-42 19 -105 19h-87v127z" />
    <glyph glyph-name="afii10074" unicode="&#x438;" horiz-adv-x="989" vert-adv-y="1720" 
d="M692 942h153v-942h-153v662l-396 -603v-59h-153v942h153v-662l396 595v67z" />
    <glyph glyph-name="afii10076" unicode="&#x43a;" horiz-adv-x="905" vert-adv-y="1720" 
d="M142 0v942h152v-399h65l324 400h158l-356 -443l380 -500h-159l-351 445h-61v-445h-152z" />
    <glyph glyph-name="afii10077" unicode="&#x43b;" horiz-adv-x="976" vert-adv-y="1720" 
d="M833 942v-942h-153v815h-302l-61 -489q-26 -205 -107 -274q-60 -50 -161 -55q-18 -1 -42 -2v116q75 2 109 43q36 41 48 150l72 638h597z" />
    <glyph glyph-name="afii10078" unicode="&#x43c;" horiz-adv-x="1195" vert-adv-y="1720" 
d="M592 149l226 793h233v-942h-150v760l-229 -760h-161l-218 760v-760h-150v942h233z" />
    <glyph glyph-name="afii10079" unicode="&#x43d;" horiz-adv-x="989" vert-adv-y="1720" 
d="M296 431v-431h-153v942h153v-384h396v384h153v-942h-153v431h-396z" />
    <glyph glyph-name="afii10080" unicode="&#x43e;" horiz-adv-x="986" vert-adv-y="1720" 
d="M500 971q182 0 293 -137q107 -132 107 -362q0 -255 -127 -391q-103 -110 -275 -110q-200 0 -307 142q-105 140 -105 358q0 210 94 343q112 157 320 157zM491 848q-108 0 -174 -92q-76 -107 -76 -284q0 -180 74 -285q66 -93 182 -93q104 0 165 79q83 108 83 298
q0 181 -73 283q-66 94 -181 94z" />
    <glyph glyph-name="afii10081" unicode="&#x43f;" horiz-adv-x="989" vert-adv-y="1720" 
d="M296 815v-815h-153v942h702v-942h-153v815h-396z" />
    <glyph glyph-name="afii10082" unicode="&#x440;" horiz-adv-x="1027" vert-adv-y="1720" 
d="M144 -355v1297h143v-114q89 143 266 143q172 0 276 -129q112 -139 112 -376q0 -229 -106 -362q-104 -133 -273 -133t-265 138v-464h-153zM537 848q-71 0 -132 -50q-112 -92 -112 -327q0 -183 74 -285q66 -92 174 -92q113 0 175 96q70 107 70 277q0 171 -69 279
q-65 102 -180 102z" />
    <glyph glyph-name="afii10083" unicode="&#x441;" horiz-adv-x="919" vert-adv-y="1720" 
d="M699 336h154q-2 -110 -66 -207q-103 -158 -297 -158q-197 0 -303 146q-101 139 -101 354q0 208 95 345q108 155 305 155q175 0 279 -125q63 -76 84 -202h-157q-14 77 -46 123q-59 81 -158 81q-113 0 -178 -100q-70 -107 -70 -276q0 -172 67 -277q65 -101 183 -101
q112 0 171 110q29 53 38 132z" />
    <glyph glyph-name="afii10084" unicode="&#x442;" horiz-adv-x="685" vert-adv-y="1720" 
d="M419 815v-815h-153v815h-246v127h644v-127h-245z" />
    <glyph glyph-name="afii10085" unicode="&#x443;" horiz-adv-x="828" vert-adv-y="1720" 
d="M100 -340v132q15 -5 19 -7q36 -14 65 -14q53 0 76 35q27 41 86 217l-326 919h167l237 -731l224 731h159l-304 -896q-80 -235 -115 -296q-61 -105 -190 -105q-41 0 -98 15z" />
    <glyph glyph-name="afii10086" unicode="&#x444;" horiz-adv-x="1340" vert-adv-y="1720" 
d="M747 870q71 101 186 101q104 0 186 -77q140 -131 140 -421q0 -219 -86 -360q-45 -74 -120 -113q-56 -29 -123 -29q-116 0 -183 96v-422h-153v422q-67 -96 -183 -96q-157 0 -243 142q-86 141 -86 360q0 205 77 341q43 77 117 121q59 36 132 36q115 0 186 -101v495h153
v-495zM416 848q-80 0 -125 -92q-54 -109 -54 -279q0 -183 52 -290q46 -93 129 -93q74 0 117 79q59 109 59 302q0 176 -52 279q-47 94 -126 94zM925 848q-80 0 -126 -94q-52 -105 -52 -279q0 -193 59 -302q43 -79 117 -79q83 0 129 93q52 107 52 290q0 173 -54 279
q-46 92 -125 92z" />
    <glyph glyph-name="afii10087" unicode="&#x445;" horiz-adv-x="825" vert-adv-y="1720" 
d="M12 0l310 496l-287 446h180l195 -328l198 328h170l-284 -433l319 -509h-180l-228 381l-222 -381h-171z" />
    <glyph glyph-name="afii10088" unicode="&#x446;" horiz-adv-x="993" vert-adv-y="1720" 
d="M845 127h109v-332h-153v205h-658v942h153v-815h396v815h153v-815z" />
    <glyph glyph-name="afii10091" unicode="&#x449;" horiz-adv-x="1324" vert-adv-y="1720" 
d="M1132 0h-989v942h153v-815h287v815h153v-815h287v815h153v-815h109v-332h-153v205z" />
    <glyph glyph-name="afii10092" unicode="&#x44a;" horiz-adv-x="954" vert-adv-y="1720" 
d="M266 815h-266v127h419v-369h173q135 0 212 -44q123 -71 123 -227q0 -144 -92 -227q-63 -59 -161 -71q-27 -4 -102 -4h-306v815zM419 446v-319h130q100 0 144 24q79 43 79 149q0 86 -66 121q-47 25 -140 25h-147z" />
    <glyph glyph-name="afii10093" unicode="&#x44b;" horiz-adv-x="1210" vert-adv-y="1720" 
d="M143 0v942h153v-369h173q135 0 212 -44q123 -71 123 -227q0 -144 -92 -227q-63 -59 -161 -71q-27 -4 -101 -4h-307zM296 446v-319h130q100 0 144 24q79 44 79 149q0 86 -66 121q-46 25 -140 25h-147zM913 0v942h153v-942h-153z" />
    <glyph glyph-name="afii10094" unicode="&#x44c;" horiz-adv-x="831" vert-adv-y="1720" 
d="M143 0v942h153v-369h173q135 0 212 -44q123 -71 123 -227q0 -144 -92 -227q-63 -59 -161 -71q-27 -4 -101 -4h-307zM296 446v-319h130q100 0 144 24q79 44 79 149q0 86 -66 121q-46 25 -140 25h-147z" />
    <glyph glyph-name="afii10095" unicode="&#x44d;" horiz-adv-x="919" vert-adv-y="1720" 
d="M674 558q-9 76 -36 138q-69 152 -207 152q-99 0 -157 -81q-33 -46 -47 -123h-156q21 126 84 202q103 125 278 125q197 0 305 -155q95 -137 95 -344q0 -216 -101 -355q-106 -146 -303 -146q-213 0 -314 187q-47 86 -49 178h154q11 -90 48 -149q59 -93 161 -93
q153 0 217 170q26 68 32 167h-317v127h313z" />
    <glyph glyph-name="afii10096" unicode="&#x44e;" horiz-adv-x="1342" vert-adv-y="1720" 
d="M447 558q13 113 55 198q107 215 349 215q188 0 299 -137q107 -133 107 -362q0 -255 -127 -391q-103 -110 -275 -110q-259 0 -363 236q-41 94 -49 224h-147v-431h-153v942h153v-384h151zM851 848q-111 0 -178 -92q-76 -107 -76 -279q0 -185 74 -290q66 -93 183 -93
q104 0 165 79q83 108 83 300q0 179 -73 281q-67 94 -178 94z" />
    <glyph glyph-name="afii10097" unicode="&#x44f;" horiz-adv-x="920" vert-adv-y="1720" 
d="M623 369h-151q-87 0 -119 -25q-35 -27 -47 -86q-7 -34 -11 -105q-7 -124 -25 -153h-169q20 21 30 63q6 27 17 162q6 73 19 106q33 80 137 96q-189 48 -189 246q0 128 88 201q63 52 163 65q27 3 103 3h307v-942h-153v369zM623 496v319h-178q-70 0 -113 -28
q-62 -41 -62 -132q0 -90 66 -132q43 -27 116 -27h171z" />
    <glyph glyph-name="afii10098" unicode="&#x491;" horiz-adv-x="721" vert-adv-y="1720" 
d="M714 1051v-236h-418v-815h-153v942h418v109h153z" />
    <glyph glyph-name="afii10099" unicode="&#x452;" horiz-adv-x="948" vert-adv-y="1720" 
d="M296 828q88 143 241 143q145 0 231 -135q93 -146 93 -405q0 -340 -144 -517q-92 -114 -242 -114q-35 0 -77 16v131q40 -18 76 -18q93 0 153 98q80 129 80 405q0 416 -208 416q-99 0 -155 -94q-33 -56 -43 -141q-5 -44 -5 -168v-445h-153v1140h-109v112h109v113h153v-113
h240v-112h-240v-312z" />
    <glyph glyph-name="afii10101" unicode="&#x454;" horiz-adv-x="919" vert-adv-y="1720" 
d="M245 558h313v-127h-317q7 -115 42 -191q66 -146 207 -146q112 0 171 110q28 53 38 132h154q-3 -110 -66 -207q-104 -158 -297 -158q-197 0 -303 146q-101 139 -101 355q0 207 95 344q108 155 305 155q175 0 278 -125q63 -76 84 -202h-156q-14 77 -47 123q-58 81 -157 81
q-152 0 -218 -179q-18 -51 -25 -111z" />
    <glyph glyph-name="afii10102" unicode="&#x455;" horiz-adv-x="801" vert-adv-y="1720" 
d="M65 266h157q6 -168 184 -168q86 0 129 43q36 36 36 95q0 79 -82 129q-31 19 -149 65q-127 50 -180 107q-66 72 -66 174q0 121 86 195q77 65 205 65q183 0 261 -124q38 -59 46 -148h-152q-4 62 -35 100q-43 51 -122 51q-72 0 -110 -42q-30 -34 -30 -87q0 -58 40 -93
q39 -34 154 -77q150 -55 209 -105q90 -76 90 -194q0 -128 -88 -207q-82 -74 -229 -74q-218 0 -304 138q-45 71 -50 157z" />
    <glyph glyph-name="afii10103" unicode="&#x456;" horiz-adv-x="447" vert-adv-y="1720" 
d="M147 1157v208h153v-208h-153zM147 0v942h153v-942h-153z" />
    <glyph glyph-name="afii10105" unicode="&#x458;" horiz-adv-x="444" vert-adv-y="1720" 
d="M8 -349v131q31 -8 57 -8q50 0 65 31q13 29 13 211v926h153v-925q0 -202 -21 -257q-44 -115 -195 -115q-32 0 -72 6zM144 1157v208h152v-208h-152z" />
    <glyph glyph-name="afii10106" unicode="&#x459;" horiz-adv-x="1286" vert-adv-y="1720" 
d="M653 0v815h-275l-61 -489q-26 -205 -107 -274q-60 -50 -161 -55q-18 -1 -42 -2v116q75 2 110 43t48 150l71 638h570v-369h146q135 0 212 -44q122 -71 122 -227q0 -144 -91 -227q-64 -59 -161 -71q-27 -4 -102 -4h-279zM806 446v-319h103q99 0 143 24q79 44 79 149
q0 85 -66 121q-46 25 -139 25h-120z" />
    <glyph glyph-name="afii10107" unicode="&#x45a;" horiz-adv-x="1298" vert-adv-y="1720" 
d="M665 438h-369v-438h-153v942h153v-377h369v377h153v-377h146q135 0 212 -44q122 -70 122 -223q0 -142 -91 -225q-64 -57 -161 -69q-27 -4 -102 -4h-279v438zM818 438v-311h103q99 0 143 24q79 42 79 144q0 85 -66 119q-47 24 -139 24h-120z" />
    <glyph glyph-name="afii10108" unicode="&#x45b;" horiz-adv-x="980" vert-adv-y="1720" 
d="M143 1140h-109v112h109v113h153v-113h240v-112h-240v-312q95 143 265 143t242 -123q42 -71 42 -236v-612h-153v594q0 125 -24 172q-42 82 -146 82q-141 0 -198 -141q-28 -69 -28 -262v-445h-153v1140z" />
    <glyph glyph-name="afii10193" unicode="&#x45f;" horiz-adv-x="989" vert-adv-y="1720" 
d="M571 0v-205h-153v205h-275v942h153v-815h396v815h153v-942h-274z" />
    <glyph glyph-name="afii10089" unicode="&#x447;" horiz-adv-x="982" vert-adv-y="1720" 
d="M839 0h-153v416q-96 -74 -267 -74q-193 0 -275 95q-36 42 -43 98q-5 36 -5 86v321h153v-267q0 -97 19 -132q20 -37 68 -57q51 -22 110 -22q160 0 213 117q27 59 27 193v168h153v-942z" />
    <glyph glyph-name="afii10090" unicode="&#x448;" horiz-adv-x="1320" vert-adv-y="1720" 
d="M736 127h287v815h153v-942h-1033v942h153v-815h287v815h153v-815z" />
    <glyph glyph-name="afii10071" unicode="&#x451;" horiz-adv-x="948" vert-adv-y="1720" 
d="M862 431h-621q2 -95 27 -166q60 -171 219 -171q125 0 180 107q20 39 37 100h148q-21 -115 -77 -190q-102 -140 -286 -140q-205 0 -310 156q-93 138 -93 347q0 217 107 358q106 139 285 139q148 0 246 -92q106 -101 129 -300q7 -59 9 -148zM706 554q-7 101 -37 167
q-58 127 -189 127q-124 0 -186 -115q-38 -71 -51 -179h463zM688 1297v-191h-143v191h143zM404 1297v-191h-143v191h143z" />
    <glyph glyph-name="glyph495" vert-adv-y="1720" 
d="M726 1297v-191h-143v191h143zM442 1297v-191h-143v191h143z" />
    <glyph glyph-name="afii10075" unicode="&#x439;" horiz-adv-x="989" vert-adv-y="1720" 
d="M692 942h153v-942h-153v662l-396 -603v-59h-153v942h153v-662l396 595v67zM746 1365q-32 -273 -243 -273q-210 0 -242 273h102q24 -165 140 -165t141 165h102z" />
    <glyph glyph-name="glyph497" vert-adv-y="1720" 
d="M755 1365q-32 -273 -243 -273q-210 0 -242 273h102q24 -165 140 -165t141 165h102z" />
    <glyph glyph-name="afii10100" unicode="&#x453;" horiz-adv-x="721" vert-adv-y="1720" 
d="M296 815v-815h-153v942h571v-127h-418zM658 1365l-179 -273h-130l163 273h146z" />
    <glyph glyph-name="glyph499" vert-adv-y="1720" 
d="M730 1365l-179 -273h-130l163 273h146z" />
    <glyph glyph-name="afii10104" unicode="&#x457;" horiz-adv-x="451" vert-adv-y="1720" 
d="M150 0v942h153v-942h-153zM419 1297v-191h-143v191h143zM176 1297v-191h-143v191h143z" />
    <glyph glyph-name="glyph501" horiz-adv-x="447" vert-adv-y="1720" 
d="M147 0v942h153v-942h-153z" />
    <glyph glyph-name="glyph502" vert-adv-y="1720" 
d="M705 1297v-191h-143v191h143zM462 1297v-191h-143v191h143z" />
    <glyph glyph-name="afii10109" unicode="&#x45c;" horiz-adv-x="902" vert-adv-y="1720" 
d="M142 0v942h152v-399h65l324 400h158l-356 -443l380 -500h-159l-351 445h-61v-445h-152zM710 1365l-179 -273h-130l163 273h146z" />
    <glyph glyph-name="afii10110" unicode="&#x45e;" horiz-adv-x="828" vert-adv-y="1720" 
d="M100 -340v132q15 -5 19 -7q36 -14 65 -14q53 0 76 35q27 41 86 217l-326 919h167l237 -731l224 731h159l-304 -896q-80 -235 -115 -296q-61 -105 -190 -105q-41 0 -98 15zM676 1365q-32 -273 -243 -273q-210 0 -242 273h102q24 -165 140 -165t141 165h102z" />
    <glyph glyph-name="uni200A" unicode="&#x200a;" horiz-adv-x="205" vert-adv-y="1720" 
 />
    <glyph glyph-name="uni200B" unicode="&#x200b;" horiz-adv-x="0" vert-adv-y="1720" 
 />
    <glyph glyph-name="uniFEFF" unicode="&#xfeff;" horiz-adv-x="0" vert-adv-y="1720" 
 />
    <glyph glyph-name="uniFFFC" unicode="&#xfffc;" horiz-adv-x="2048" vert-adv-y="1720" 
d="M2048 1150h-100v223h-223v100h323v-323zM1473 1373h-323v100h323v-100zM2048 575h-100v323h100v-323zM898 1388h-323v100h323v-100zM2048 0h-323v100h223v223h100v-323zM323 1373h-223v-223h-100v323h323v-100zM1473 0h-323v100h323v-100zM100 575h-100v323h100v-323z
M898 0h-323v100h323v-100zM323 0h-323v323h100v-223h223v-100zM555 1096q134 0 215 -105q84 -109 84 -279q0 -152 -65 -257q-81 -131 -234 -131t-236 132q-64 102 -64 260q0 172 83 275q85 105 217 105zM554 1017q-91 0 -148 -81q-58 -83 -58 -219q0 -135 49 -220
q28 -48 78 -75q38 -21 81 -21q87 0 140 71q65 90 65 239q0 136 -57 222q-55 84 -150 84zM963 357v737h233q101 0 147 -29q78 -51 78 -153q0 -109 -101 -160q128 -37 128 -184q0 -135 -100 -188q-44 -23 -113 -23h-272zM1053 780h124q82 0 109 20q44 30 44 96q0 83 -55 108
q-22 11 -91 11h-131v-235zM1053 436h140q87 0 116 19q48 32 48 114q0 92 -65 123q-27 13 -113 13h-126v-269zM1493 346v80q25 -10 51 -10q72 0 98 67q13 33 13 141v470h90v-485q0 -90 -8 -129q-17 -73 -75 -112q-45 -29 -112 -29q-26 0 -57 7z" />
    <glyph glyph-name="uniFFFD" unicode="&#xfffd;" horiz-adv-x="2048" vert-adv-y="1720" 
d="M1021 1556l940 -938l-940 -937l-937 937zM686 779h214q9 199 132 199q54 0 84 -43q23 -35 23 -85q0 -52 -24 -96q-10 -20 -97 -107q-65 -66 -83 -131q-13 -45 -16 -157v-6v-8h198v10q1 58 10 88q12 41 35 70q9 11 43 39q73 61 113 121q46 69 46 173q0 158 -104 254
q-87 79 -226 79q-138 0 -229 -84q-112 -103 -119 -316zM1145 243h-254v-248h254v248z" />
    <glyph glyph-name="uni2000" unicode="&#x2000;" vert-adv-y="1720" 
 />
    <glyph glyph-name="uni2001" unicode="&#x2001;" horiz-adv-x="2048" vert-adv-y="1720" 
 />
    <glyph glyph-name="uni2002" unicode="&#x2002;" vert-adv-y="1720" 
 />
    <glyph glyph-name="uni2003" unicode="&#x2003;" horiz-adv-x="2048" vert-adv-y="1720" 
 />
    <glyph glyph-name="uni2004" unicode="&#x2004;" horiz-adv-x="683" vert-adv-y="1720" 
 />
    <glyph glyph-name="uni2005" unicode="&#x2005;" horiz-adv-x="512" vert-adv-y="1720" 
 />
    <glyph glyph-name="uni2006" unicode="&#x2006;" horiz-adv-x="341" vert-adv-y="1720" 
 />
    <glyph glyph-name="uni2007" unicode="&#x2007;" horiz-adv-x="1128" vert-adv-y="1720" 
 />
    <glyph glyph-name="uni2008" unicode="&#x2008;" horiz-adv-x="549" vert-adv-y="1720" 
 />
    <glyph glyph-name="uni2009" unicode="&#x2009;" horiz-adv-x="410" vert-adv-y="1720" 
 />
    <glyph glyph-name="ccircumflex" unicode="&#x109;" horiz-adv-x="919" vert-adv-y="1720" 
d="M699 336h154q-2 -110 -66 -207q-103 -158 -297 -158q-197 0 -303 146q-101 139 -101 354q0 208 95 345q108 155 305 155q175 0 279 -125q63 -76 84 -202h-157q-14 77 -46 123q-59 81 -158 81q-113 0 -178 -100q-70 -107 -70 -276q0 -172 67 -277q65 -101 183 -101
q112 0 171 110q29 53 38 132zM741 1092h-143l-124 197l-126 -197h-132l179 273h164z" />
    <glyph glyph-name="GID00520" horiz-adv-x="919" vert-adv-y="1720" 
d="M699 336h154q-2 -110 -66 -207q-103 -158 -297 -158q-197 0 -303 146q-101 139 -101 354q0 208 95 345q108 155 305 155q175 0 279 -125q63 -76 84 -202h-157q-14 77 -46 123q-59 81 -158 81q-113 0 -178 -100q-70 -107 -70 -276q0 -172 67 -277q65 -101 183 -101
q112 0 171 110q29 53 38 132z" />
    <glyph glyph-name="GID00521" vert-adv-y="1720" 
d="M775 1092h-143l-124 197l-126 -197h-132l179 273h164z" />
    <glyph glyph-name="hcircumflex" unicode="&#x125;" horiz-adv-x="980" vert-adv-y="1720" 
d="M143 0v1365h153v-537q95 143 265 143t242 -123q42 -71 42 -236v-612h-153v594q0 125 -24 172q-42 82 -146 82q-140 0 -198 -141q-28 -69 -28 -262v-445h-153zM503 1475l-158 -1l-126 186l-128 -185h-148l183 259h192z" />
    <glyph glyph-name="Hbar" unicode="&#x126;" horiz-adv-x="1272" vert-adv-y="1720" 
d="M177 976h-109v117h109v272h167v-272h583v272h167v-272h109v-117h-109v-976h-167v646h-583v-646h-167v976zM344 976v-185h583v185h-583z" />
    <glyph glyph-name="hbar" unicode="&#x127;" horiz-adv-x="980" vert-adv-y="1720" 
d="M143 1140h-109v112h109v113h153v-113h240v-112h-240v-312q95 143 265 143t242 -123q42 -71 42 -236v-612h-153v594q0 125 -24 172q-42 82 -146 82q-141 0 -198 -141q-28 -69 -28 -262v-445h-153v1140z" />
    <glyph glyph-name="Itilde" unicode="&#x128;" horiz-adv-x="470" vert-adv-y="1720" 
d="M152 0v1365h167v-1365h-167zM523 1686q-10 -72 -39 -124q-49 -88 -139 -88q-55 0 -127 57q-54 43 -90 43q-60 0 -78 -93h-103q34 212 179 212q57 0 127 -54q56 -43 85 -43q60 0 80 90h105z" />
    <glyph glyph-name="GID00526" horiz-adv-x="470" vert-adv-y="1720" 
d="M152 0v1365h167v-1365h-167z" />
    <glyph glyph-name="GID00527" vert-adv-y="1720" 
d="M800 1686q-10 -72 -39 -124q-49 -88 -139 -88q-55 0 -127 57q-54 43 -90 43q-60 0 -78 -93h-103q34 212 179 212q57 0 127 -54q56 -43 85 -43q60 0 80 90h105z" />
    <glyph glyph-name="itilde" unicode="&#x129;" horiz-adv-x="447" vert-adv-y="1720" 
d="M147 0v942h153v-942h-153zM505 1317q-13 -77 -38 -123q-48 -88 -128 -88q-48 0 -132 56q-64 43 -94 43q-50 0 -70 -92h-101q9 67 31 111q49 100 140 100q49 0 128 -56q63 -44 87 -44q55 0 74 93h103z" />
    <glyph glyph-name="GID00529" horiz-adv-x="447" vert-adv-y="1720" 
d="M147 0v942h153v-942h-153z" />
    <glyph glyph-name="GID00530" vert-adv-y="1720" 
d="M794 1317q-13 -77 -38 -123q-48 -88 -128 -88q-48 0 -132 56q-64 43 -94 43q-50 0 -70 -92h-101q9 67 31 111q49 100 140 100q49 0 128 -56q63 -44 87 -44q55 0 74 93h103z" />
    <glyph glyph-name="Ibreve" unicode="&#x12c;" horiz-adv-x="470" vert-adv-y="1720" 
d="M152 0v1365h167v-1365h-167zM495 1748q-34 -273 -260 -273t-260 273h106q11 -62 34 -100q39 -61 120 -61q88 0 127 73q18 34 27 88h106z" />
    <glyph glyph-name="IJ" unicode="&#x132;" horiz-adv-x="1026" vert-adv-y="1720" 
d="M152 0v1365h167v-1365h-167zM424 -19v147q46 -18 94 -18q134 0 182 124q20 51 23 137q1 42 1 124v870h167v-898q0 -168 -16 -238q-30 -137 -138 -208q-83 -54 -209 -54q-48 0 -104 14z" />
    <glyph glyph-name="GID00533" horiz-adv-x="602" vert-adv-y="1720" 
d="M0 -19v147q46 -18 94 -18q134 0 182 124q20 51 23 137q1 42 1 124v870h167v-898q0 -168 -16 -238q-30 -137 -138 -208q-83 -54 -209 -54q-48 0 -104 14z" />
    <glyph glyph-name="ij" unicode="&#x133;" horiz-adv-x="895" vert-adv-y="1720" 
d="M147 1157v208h153v-208h-153zM147 0v942h153v-942h-153zM459 -349v131q31 -8 57 -8q50 0 65 31q13 29 13 211v926h153v-925q0 -202 -21 -257q-44 -115 -196 -115q-31 0 -71 6zM595 1157v208h152v-208h-152z" />
    <glyph glyph-name="GID00535" horiz-adv-x="447" vert-adv-y="1720" 
d="M147 1157v208h153v-208h-153zM147 0v942h153v-942h-153z" />
    <glyph glyph-name="GID00536" horiz-adv-x="444" vert-adv-y="1720" 
d="M8 -349v131q31 -8 57 -8q50 0 65 31q13 29 13 211v926h153v-925q0 -202 -21 -257q-44 -115 -196 -115q-31 0 -71 6zM144 1157v208h152v-208h-152z" />
    <glyph glyph-name="Jcircumflex" unicode="&#x134;" horiz-adv-x="602" vert-adv-y="1720" 
d="M0 -19v147q46 -18 94 -18q135 0 183 124q20 52 23 137q1 42 1 124v870h167v-898q0 -168 -16 -238q-30 -137 -138 -208q-83 -54 -209 -54q-48 0 -105 14zM681 1475l-158 -1l-126 186l-128 -185h-148l183 259h192z" />
    <glyph glyph-name="kgreenlandic" unicode="&#x138;" horiz-adv-x="907" vert-adv-y="1720" 
d="M296 503l363 439h188l-339 -390l368 -552h-180l-289 436l-111 -127v-309h-153v942h153v-439z" />
    <glyph glyph-name="Ldot" unicode="&#x13f;" horiz-adv-x="968" vert-adv-y="1720" 
d="M152 0v1365h167v-1220h594v-145h-761zM630 777v-194h-143v194h143z" />
    <glyph glyph-name="ldot" unicode="&#x140;" horiz-adv-x="526" vert-adv-y="1720" 
d="M147 0v1365h153v-1365h-153zM526 804v-191h-143v191h143z" />
    <glyph glyph-name="napostrophe" unicode="&#x149;" horiz-adv-x="1042" vert-adv-y="1720" 
d="M205 0v942h143v-127q104 156 279 156q105 0 178 -56q76 -58 94 -168q8 -45 8 -138v-609h-153v555q0 128 -15 183q-14 50 -55 80t-100 30q-103 0 -164 -83q-42 -55 -54 -145q-8 -56 -8 -163v-457h-153zM160 1143v-133q0 -142 -70 -198q-32 -25 -90 -33v69l6 1
q62 19 72 125h-78v169h160z" />
    <glyph glyph-name="Eng" unicode="&#x14a;" horiz-adv-x="1205" vert-adv-y="1720" 
d="M152 1365h167v-175q56 79 101 115q101 83 242 83q148 0 259 -91q105 -87 134 -254q14 -78 14 -206v-516q0 -227 -70 -325q-99 -138 -286 -138q-69 0 -154 29v147q74 -33 136 -33q115 0 165 67q28 38 37 113q5 41 5 135v550q0 132 -14 190q-24 99 -100 145q-67 41 -157 41
q-189 0 -261 -161q-51 -115 -51 -339v-742h-167v1365z" />
    <glyph glyph-name="eng" unicode="&#x14b;" horiz-adv-x="982" vert-adv-y="1720" 
d="M557 -195v131q31 -8 56 -8q51 0 66 32q13 28 13 210v385q0 128 -15 183q-14 50 -55 80t-99 30q-103 0 -165 -82q-42 -56 -54 -146q-8 -56 -8 -163v-457h-153v942h143v-127q104 156 279 156q105 0 178 -56q76 -58 94 -168q8 -45 8 -138v-438q0 -202 -21 -257
q-44 -115 -196 -115q-30 0 -71 6z" />
    <glyph glyph-name="Obreve" unicode="&#x14e;" horiz-adv-x="1297" vert-adv-y="1720" 
d="M650 1396q248 0 398 -195q154 -200 154 -516q0 -282 -120 -476q-72 -116 -189 -181q-111 -61 -245 -61q-283 0 -436 245q-118 189 -118 481q0 317 154 508q157 195 402 195zM648 1250q-170 0 -274 -150q-108 -155 -108 -405t90 -407q51 -89 144 -140q70 -38 151 -38
q102 0 190 65q97 72 148 228q40 124 40 280q0 252 -105 411q-103 156 -276 156zM908 1748q-34 -273 -260 -273t-260 273h106q11 -62 34 -100q39 -61 120 -61q88 0 127 73q18 34 27 88h106z" />
    <glyph glyph-name="GID00545" horiz-adv-x="1297" vert-adv-y="1720" 
d="M650 1396q248 0 398 -195q154 -200 154 -516q0 -282 -120 -476q-72 -116 -189 -181q-111 -61 -245 -61q-283 0 -436 245q-118 189 -118 481q0 317 154 508q157 195 402 195zM648 1250q-170 0 -274 -150q-108 -155 -108 -405t90 -407q51 -89 144 -140q70 -38 151 -38
q102 0 190 65q97 72 148 228q40 124 40 280q0 252 -105 411q-103 156 -276 156z" />
    <glyph glyph-name="GID00546" vert-adv-y="1720" 
d="M772 1748q-34 -273 -260 -273t-260 273h106q11 -62 34 -100q39 -61 120 -61q88 0 127 73q18 34 27 88h106z" />
    <glyph glyph-name="obreve" unicode="&#x14f;" horiz-adv-x="986" vert-adv-y="1720" 
d="M495 971q187 0 298 -137q107 -132 107 -361q0 -256 -127 -392q-103 -110 -274 -110q-201 0 -308 142q-105 140 -105 366q0 202 94 335q112 157 315 157zM495 848q-112 0 -178 -92q-76 -107 -76 -279q0 -185 74 -290q66 -93 182 -93q104 0 165 79q83 108 83 301
q0 178 -73 280q-67 94 -177 94zM736 1365q-32 -273 -243 -273q-210 0 -242 273h102q24 -165 140 -165t141 165h102z" />
    <glyph glyph-name="GID00548" horiz-adv-x="986" vert-adv-y="1720" 
d="M495 971q187 0 298 -137q107 -132 107 -361q0 -256 -127 -392q-103 -110 -274 -110q-201 0 -308 142q-105 140 -105 366q0 202 94 335q112 157 315 157zM495 848q-112 0 -178 -92q-76 -107 -76 -279q0 -185 74 -290q66 -93 182 -93q104 0 165 79q83 108 83 301
q0 178 -73 280q-67 94 -177 94z" />
    <glyph glyph-name="GID00549" vert-adv-y="1720" 
d="M755 1365q-32 -273 -243 -273q-210 0 -242 273h102q24 -165 140 -165t141 165h102z" />
    <glyph glyph-name="Tbar" unicode="&#x166;" horiz-adv-x="1020" vert-adv-y="1720" 
d="M427 868h-168v112h168v240h-380v145h926v-145h-379v-240h167v-112h-167v-868h-167v868z" />
    <glyph glyph-name="tbar" unicode="&#x167;" horiz-adv-x="524" vert-adv-y="1720" 
d="M312 756h161v-127h-161v-372q0 -89 11 -110q22 -41 77 -41q29 0 73 13v-126q-60 -13 -106 -13q-136 0 -182 75q-19 32 -23 98q-3 43 -3 123v353h-136v127h136v59h-136v127h136v141l125 166h28v-307h161v-127h-161v-59z" />
    <glyph glyph-name="Utilde" unicode="&#x168;" vert-adv-y="1720" 
d="M135 1365h165v-771q0 -141 8 -201q22 -158 106 -225q72 -58 195 -58q197 0 258 170q33 89 33 314v771h167v-769q0 -205 -25 -297q-90 -332 -431 -332q-188 0 -295 83q-117 91 -158 258q-23 95 -23 291v766zM895 1686q-10 -72 -39 -124q-49 -88 -139 -88q-55 0 -127 57
q-54 43 -90 43q-60 0 -78 -93h-103q34 212 179 212q57 0 127 -54q56 -43 85 -43q60 0 80 90h105z" />
    <glyph glyph-name="GID00553" horiz-adv-x="1202" vert-adv-y="1720" 
d="M135 1365h165v-771q0 -141 8 -201q22 -158 106 -225q72 -58 195 -58q197 0 258 170q33 89 33 314v771h167v-769q0 -205 -25 -297q-90 -332 -431 -332q-188 0 -295 83q-117 91 -158 258q-23 95 -23 291v766z" />
    <glyph glyph-name="Ubreve" unicode="&#x16c;" horiz-adv-x="1202" vert-adv-y="1720" 
d="M135 1365h165v-771q0 -141 8 -201q22 -158 106 -225q72 -58 195 -58q197 0 258 170q33 89 33 314v771h167v-769q0 -205 -25 -297q-90 -332 -431 -332q-188 0 -295 83q-117 91 -158 258q-23 95 -23 291v766zM861 1748q-34 -273 -260 -273t-260 273h106q11 -62 34 -100
q39 -61 120 -61q88 0 127 73q18 34 27 88h106z" />
    <glyph glyph-name="wcircumflex" unicode="&#x175;" horiz-adv-x="1221" vert-adv-y="1720" 
d="M289 0l-264 942h158l183 -745l168 745h157l173 -743l183 743h150l-263 -942h-156l-168 718l-162 -718h-159zM873 1092h-142l-124 197l-126 -197h-132l179 273h164z" />
    <glyph glyph-name="longs" unicode="&#x17f;" horiz-adv-x="519" vert-adv-y="1720" 
d="M179 0v1033q0 190 35 254q60 109 197 109q44 0 98 -14v-139q-42 18 -73 18q-72 0 -92 -60q-12 -36 -12 -119v-1082h-153z" />
    <glyph glyph-name="uni01F5" unicode="&#x1f5;" horiz-adv-x="1003" vert-adv-y="1720" 
d="M114 -76h155q14 -66 54 -102q59 -54 154 -54q230 0 230 309v62q-75 -152 -253 -152q-167 0 -266 129q-102 134 -102 351q0 229 109 370q55 72 138 108q62 26 130 26q162 0 254 -146v117h142v-809q0 -207 -60 -312q-54 -93 -155 -140q-77 -36 -171 -36q-201 0 -299 128
q-50 67 -60 151zM476 848q-119 0 -182 -116q-53 -99 -53 -254q0 -203 83 -297q63 -71 150 -71q73 0 123 45q114 103 114 333q0 192 -81 287q-61 73 -154 73zM662 1365l-179 -273h-130l163 273h146z" />
    <glyph glyph-name="GID00558" horiz-adv-x="1003" vert-adv-y="1720" 
d="M114 -76h155q14 -66 54 -102q59 -54 154 -54q230 0 230 309v62q-75 -152 -253 -152q-167 0 -266 129q-102 134 -102 351q0 229 109 370q55 72 138 108q62 26 130 26q162 0 254 -146v117h142v-809q0 -207 -60 -312q-54 -93 -155 -140q-77 -36 -171 -36q-201 0 -299 128
q-50 67 -60 151zM476 848q-119 0 -182 -116q-53 -99 -53 -254q0 -203 83 -297q63 -71 150 -71q73 0 123 45q114 103 114 333q0 192 -81 287q-61 73 -154 73z" />
    <glyph glyph-name="GID00559" vert-adv-y="1720" 
d="M730 1365l-179 -273h-130l163 273h146z" />
    <glyph glyph-name="Wgrave" unicode="&#x1e80;" horiz-adv-x="1534" vert-adv-y="1720" 
d="M332 0l-295 1365h168l219 -1132l249 1132h189l248 -1134l225 1134h162l-303 -1365h-174l-255 1154l-257 -1154h-176zM578 1734h152l177 -255h-130z" />
    <glyph glyph-name="GID00561" horiz-adv-x="1534" vert-adv-y="1720" 
d="M332 0l-295 1365h168l219 -1132l249 1132h189l248 -1134l225 1134h162l-303 -1365h-174l-255 1154l-257 -1154h-176z" />
    <glyph glyph-name="GID00562" vert-adv-y="1720" 
d="M274 1734h152l177 -255h-130z" />
    <glyph glyph-name="wgrave" unicode="&#x1e81;" horiz-adv-x="1221" vert-adv-y="1720" 
d="M289 0l-264 942h158l183 -745l168 745h157l173 -743l183 743h150l-263 -942h-156l-168 718l-162 -718h-159zM576 1365l163 -273h-131l-178 273h146z" />
    <glyph glyph-name="GID00564" horiz-adv-x="1221" vert-adv-y="1720" 
d="M289 0l-264 942h158l183 -745l168 745h157l173 -743l183 743h150l-263 -942h-156l-168 718l-162 -718h-159z" />
    <glyph glyph-name="GID00565" vert-adv-y="1720" 
d="M441 1365l163 -273h-131l-178 273h146z" />
    <glyph glyph-name="Wacute" unicode="&#x1e82;" horiz-adv-x="1534" vert-adv-y="1720" 
d="M332 0l-295 1365h168l219 -1132l249 1132h189l248 -1134l225 1134h162l-303 -1365h-174l-255 1154l-257 -1154h-176zM958 1730l-199 -255h-130l177 255h152z" />
    <glyph glyph-name="GID00567" vert-adv-y="1720" 
d="M750 1734l-199 -255h-130l177 255h152z" />
    <glyph glyph-name="wacute" unicode="&#x1e83;" horiz-adv-x="1221" vert-adv-y="1720" 
d="M289 0l-264 942h158l183 -745l168 745h157l173 -743l183 743h150l-263 -942h-156l-168 718l-162 -718h-159zM790 1365l-179 -273h-130l163 273h146z" />
    <glyph glyph-name="wdieresis" unicode="&#x1e85;" horiz-adv-x="1221" vert-adv-y="1720" 
d="M289 0l-264 942h158l183 -745l168 745h157l173 -743l183 743h150l-263 -942h-156l-168 718l-162 -718h-159zM824 1297v-191h-143v191h143zM541 1297v-191h-143v191h143z" />
    <glyph glyph-name="Ygrave" unicode="&#x1ef2;" horiz-adv-x="1055" vert-adv-y="1720" 
d="M446 0v560l-442 805h195l335 -643l330 643h187l-438 -805v-560h-167zM339 1734h152l177 -255h-130z" />
    <glyph glyph-name="GID00571" horiz-adv-x="1055" vert-adv-y="1720" 
d="M446 0v560l-442 805h195l335 -643l330 643h187l-438 -805v-560h-167z" />
    <glyph glyph-name="ygrave" unicode="&#x1ef3;" horiz-adv-x="828" vert-adv-y="1720" 
d="M100 -340v132q12 -4 19 -7q36 -14 65 -14q53 0 76 35q27 41 86 217l-326 919h167l237 -731l224 731h159l-304 -896q-80 -235 -115 -296q-61 -105 -190 -105q-41 0 -98 15zM416 1365l163 -273h-131l-178 273h146z" />
    <glyph glyph-name="GID00573" horiz-adv-x="828" vert-adv-y="1720" 
d="M100 -340v132q12 -4 19 -7q36 -14 65 -14q53 0 76 35q27 41 86 217l-326 919h167l237 -731l224 731h159l-304 -896q-80 -235 -115 -296q-61 -105 -190 -105q-41 0 -98 15z" />
    <glyph glyph-name="jcircumflex" unicode="&#x135;" horiz-adv-x="444" vert-adv-y="1720" 
d="M9 -349v131q31 -8 56 -8q51 0 66 31q13 29 13 211v926h153v-925q0 -202 -21 -257q-44 -115 -196 -115q-31 0 -71 6zM484 1092h-143l-124 197l-126 -197h-132l179 273h164z" />
    <glyph glyph-name="glyph576" horiz-adv-x="393" vert-adv-y="1720" 
 />
    </font>
</defs>
</svg>
