<?xml version="1.0" standalone="no"?>
<!DOCTYPE svg PUBLIC "-//W3C//DTD SVG 1.1//EN" "http://www.w3.org/Graphics/SVG/1.1/DTD/svg11.dtd" >
<svg xmlns="http://www.w3.org/2000/svg">
<metadata>
Created by FontForge 20120702 at Tue Nov 27 14:16:06 2012

URW Software, Copyright 2003 by URW
</metadata>
<defs>
<font id="Tele-GroteskNor-Regular" horiz-adv-x="1024" vert-adv-y="2048" >
  <font-face 
    font-family="Tele-GroteskNor"
    font-weight="400"
    font-stretch="normal"
    units-per-em="2048"
    panose-1="0 0 0 0 0 0 0 0 0 0"
    ascent="1679"
    descent="-369"
    x-height="942"
    cap-height="1365"
    bbox="-140 -512 2406 1805"
    underline-thickness="105"
    underline-position="-110"
    unicode-range="U+0020-FFFD"
  />
<missing-glyph horiz-adv-x="396" vert-adv-y="1720" 
d="M40 0v1365h316v-1365h-316zM316 40v1285h-236v-1285h236z" />
    <glyph glyph-name=".notdef" horiz-adv-x="396" vert-adv-y="1720" 
d="M40 0v1365h316v-1365h-316zM316 40v1285h-236v-1285h236z" />
    <glyph glyph-name="glyph1" horiz-adv-x="0" vert-adv-y="0" 
 />
    <glyph glyph-name="glyph2" horiz-adv-x="396" vert-adv-y="1720" 
 />
    <glyph glyph-name="space" unicode=" " horiz-adv-x="396" vert-adv-y="1720" 
 />
    <glyph glyph-name="exclam" unicode="!" horiz-adv-x="459" vert-adv-y="1720" 
d="M290 1365v-400l-28 -622h-67l-27 622v400h122zM299 205v-205h-139v205h139z" />
    <glyph glyph-name="quotedbl" unicode="&#x22;" horiz-adv-x="535" vert-adv-y="1720" 
d="M181 846h-83l-16 519h115zM437 846h-83l-16 519h115z" />
    <glyph glyph-name="numbersign" unicode="#" horiz-adv-x="1229" vert-adv-y="1720" 
d="M452 1297h106l-52 -373h275l53 373h106l-52 -373h202v-92h-215l-39 -276h202v-92h-215l-55 -396h-107l56 396h-276l-55 -396h-107l56 396h-200v92h213l38 276h-199v92h212zM769 832h-276l-39 -276h276z" />
    <glyph glyph-name="dollar" unicode="$" horiz-adv-x="1049" vert-adv-y="1720" 
d="M465 1447h100v-97q130 -19 217 -97q93 -86 109 -221h-127q-26 178 -199 212v-494q16 -5 37 -11q140 -39 210 -92q143 -108 143 -279q0 -123 -76 -215q-103 -126 -314 -143v-92h-100v94q-125 14 -208 73q-143 101 -161 298h117q15 -119 99 -193q65 -55 153 -69v541
q-123 37 -180 69q-174 99 -174 297q0 102 55 180q93 133 299 147v92zM565 119q81 8 136 37q57 30 90 83q37 58 37 127q0 189 -263 265v-512zM465 1250q-82 -8 -132 -39q-102 -64 -102 -186q0 -136 134 -204q32 -16 100 -39v468z" />
    <glyph glyph-name="percent" unicode="%" horiz-adv-x="1695" vert-adv-y="1720" 
d="M383 1384q143 0 236 -120q92 -120 92 -310q0 -168 -74 -284q-92 -144 -260 -144q-165 0 -258 144q-74 116 -74 284q0 195 91 310q96 120 247 120zM375 1293q-100 0 -166 -92t-66 -243q0 -141 56 -235q64 -106 179 -106q106 0 168 89q67 97 67 247q0 152 -65 246t-173 94z
M605 0h-99l588 1365h95zM1322 838q144 0 237 -120q92 -120 92 -310q0 -168 -74 -283q-93 -144 -260 -144q-166 0 -259 144q-74 115 -74 284q0 194 91 309q96 120 247 120zM1314 747q-100 0 -166 -92q-66 -91 -66 -242q0 -142 56 -236q64 -105 180 -105q105 0 168 89
q67 96 67 246q0 152 -65 246t-174 94z" />
    <glyph glyph-name="ampersand" unicode="&#x26;" horiz-adv-x="1030" vert-adv-y="1720" 
d="M967 0h-132l-82 123q-46 -53 -88 -82q-100 -70 -239 -70q-154 0 -243 92q-100 102 -100 256q0 160 113 293q45 53 145 136l-38 57q-114 167 -114 305t103 223q77 63 176 63q122 0 199 -83q73 -78 73 -195q0 -112 -78 -213q-55 -72 -182 -172l283 -425q45 110 50 259h112
q-19 -209 -103 -348zM395 665q-194 -162 -194 -348q0 -114 72 -185q65 -65 164 -65q158 0 265 135zM424 817q86 72 121 114q77 93 77 188q0 70 -41 121q-44 55 -116 55q-62 0 -106 -44q-56 -58 -56 -147q0 -91 63 -197q12 -21 58 -90z" />
    <glyph glyph-name="quotesingle" unicode="'" horiz-adv-x="279" vert-adv-y="1720" 
d="M181 846h-83l-16 519h115z" />
    <glyph glyph-name="parenleft" unicode="(" horiz-adv-x="505" vert-adv-y="1720" 
d="M397 1365q-203 -398 -203 -864q0 -452 204 -856h-86q-90 180 -141 329q-86 252 -86 530q0 311 110 604q56 151 117 257h85z" />
    <glyph glyph-name="parenright" unicode=")" horiz-adv-x="505" vert-adv-y="1720" 
d="M108 -355q204 395 204 864q0 451 -204 856h86q90 -181 141 -329q86 -251 86 -530q0 -311 -110 -604q-56 -150 -117 -257h-86z" />
    <glyph glyph-name="asterisk" unicode="*" horiz-adv-x="819" vert-adv-y="1720" 
d="M696 1133l-231 -75l145 -192l-56 -43l-145 194l-150 -194l-57 43l151 192l-230 75l22 67l227 -78v243h73v-243l228 78z" />
    <glyph glyph-name="plus" unicode="+" vert-adv-y="1720" 
d="M68 742h387v361h113v-361h387v-105h-387v-361h-113v361h-387v105z" />
    <glyph glyph-name="comma" unicode="," horiz-adv-x="410" vert-adv-y="1720" 
d="M274 205v-148q0 -154 -36 -223q-39 -71 -115 -100v82q69 39 71 161v23h-59v205h139z" />
    <glyph glyph-name="hyphen" unicode="-" horiz-adv-x="403" vert-adv-y="1720" 
d="M395 560v-106h-387v106h387z" />
    <glyph glyph-name="period" unicode="." horiz-adv-x="410" vert-adv-y="1720" 
d="M274 205v-205h-139v205h139z" />
    <glyph glyph-name="slash" unicode="/" horiz-adv-x="702" vert-adv-y="1720" 
d="M43 -355h-97l588 1720h94z" />
    <glyph glyph-name="zero" unicode="0" horiz-adv-x="971" vert-adv-y="1720" 
d="M491 1392q195 0 301 -200q90 -170 90 -503q0 -372 -107 -546q-106 -172 -287 -172q-223 0 -326 227q-74 162 -74 465q0 359 97 536q106 193 306 193zM484 1290q-163 0 -228 -209q-50 -162 -50 -415q0 -593 280 -593q278 0 278 611q0 606 -280 606z" />
    <glyph glyph-name="one" unicode="1" horiz-adv-x="972" vert-adv-y="1720" 
d="M439 0v1100q-45 -49 -107 -66q-28 -7 -104 -9v93q121 2 180 75q38 50 59 172h91v-1365h-119z" />
    <glyph glyph-name="two" unicode="2" horiz-adv-x="971" vert-adv-y="1720" 
d="M840 106v-106h-732q-1 195 81 346q57 101 176 197q33 25 168 122q89 63 146 162q51 86 51 194q0 113 -58 185q-71 87 -195 87q-136 0 -208 -109q-41 -64 -45 -168h-118q13 162 93 258q102 122 280 122q181 0 283 -123q89 -107 89 -260q0 -184 -132 -323
q-59 -62 -129 -113l-129 -93q-155 -117 -196 -235q-23 -66 -24 -143h599z" />
    <glyph glyph-name="three" unicode="3" horiz-adv-x="972" vert-adv-y="1720" 
d="M83 389h109q1 -112 39 -185q67 -131 232 -131q124 0 199 81q81 86 81 227q0 160 -105 240q-77 58 -187 58q-17 0 -52 -3v102q26 -1 43 -1q99 0 165 51q96 74 96 213q0 118 -71 187q-64 62 -168 62q-158 0 -218 -125q-26 -55 -29 -141h-108q4 144 69 235q96 133 291 133
q161 0 258 -97q94 -94 94 -247q0 -220 -194 -311q234 -82 234 -351q0 -189 -114 -307q-105 -108 -283 -108q-174 0 -276 104q-105 106 -105 314z" />
    <glyph glyph-name="four" unicode="4" horiz-adv-x="972" vert-adv-y="1720" 
d="M599 0v369h-515v113l524 883h95v-895h169v-101h-169v-369h-104zM599 470v703l-423 -703h423z" />
    <glyph glyph-name="five" unicode="5" horiz-adv-x="971" vert-adv-y="1720" 
d="M241 1365h568v-106h-483l-78 -469q89 121 244 121q162 0 263 -116q111 -129 111 -338q0 -225 -127 -368q-52 -59 -114 -87q-67 -31 -166 -31q-182 0 -281 125q-73 92 -79 236h110q8 -101 56 -164q72 -95 203 -95q122 0 198 101q82 110 82 275q0 159 -74 260
q-73 100 -207 100q-151 0 -239 -159l-95 15z" />
    <glyph glyph-name="six" unicode="6" horiz-adv-x="971" vert-adv-y="1720" 
d="M843 1081h-112q-34 209 -219 209q-182 0 -253 -239q-42 -142 -50 -380q32 73 76 120q95 100 227 100q148 0 249 -107q122 -130 122 -341q0 -200 -103 -337q-102 -135 -278 -135q-192 0 -291 154q-66 102 -88 225q-23 132 -23 281q0 393 116 583q108 178 302 178
q158 0 250 -113q57 -70 75 -198zM491 790q-126 0 -200 -119q-62 -99 -62 -234q0 -145 69 -251q74 -113 200 -113q130 0 202 116q65 104 65 245q0 143 -65 241q-76 115 -209 115z" />
    <glyph glyph-name="seven" unicode="7" horiz-adv-x="971" vert-adv-y="1720" 
d="M419 0h-120q5 716 456 1254h-612v111h727v-108q-233 -282 -330 -564q-78 -216 -109 -484q-11 -102 -12 -209z" />
    <glyph glyph-name="eight" unicode="8" horiz-adv-x="972" vert-adv-y="1720" 
d="M327 757q-187 94 -187 298q0 161 110 257q90 80 235 80q146 0 239 -81q105 -92 105 -243q0 -115 -60 -205q-41 -62 -125 -106q231 -116 231 -375q0 -183 -113 -303q-101 -108 -275 -108q-177 0 -278 105q-113 116 -113 301q0 266 231 380zM484 1290q-102 0 -165 -62
q-66 -64 -66 -181q0 -112 62 -178q63 -68 172 -68q108 0 169 69q61 68 61 178q0 108 -55 171q-63 71 -178 71zM482 699q-119 0 -193 -84q-75 -84 -75 -230q0 -155 83 -243q71 -75 192 -75q129 0 202 96q66 86 66 221q0 143 -70 225q-77 90 -205 90z" />
    <glyph glyph-name="nine" unicode="9" horiz-adv-x="971" vert-adv-y="1720" 
d="M121 283h113q35 -210 224 -210q184 0 254 240q42 139 51 379q-97 -219 -304 -219q-148 0 -249 107q-122 129 -122 341q0 200 101 336q101 135 275 135q193 0 294 -154q67 -102 89 -225q24 -132 24 -282q0 -390 -116 -582q-107 -178 -302 -178q-161 0 -254 113
q-59 71 -78 199zM465 1290q-125 0 -196 -116q-63 -104 -63 -246q0 -140 65 -239q75 -115 205 -115t204 119q62 100 62 232q0 149 -71 252q-77 113 -206 113z" />
    <glyph glyph-name="colon" unicode=":" horiz-adv-x="410" vert-adv-y="1720" 
d="M274 942v-205h-139v205h139zM274 205v-205h-139v205h139z" />
    <glyph glyph-name="semicolon" unicode=";" horiz-adv-x="410" vert-adv-y="1720" 
d="M274 205v-148q0 -154 -36 -223q-39 -71 -115 -100v82q69 39 71 161v23h-59v205h139zM274 942v-205h-139v205h139z" />
    <glyph glyph-name="less" unicode="&#x3c;" vert-adv-y="1720" 
d="M955 1143v-121l-757 -339l757 -339v-122l-887 408v106z" />
    <glyph glyph-name="equal" unicode="=" vert-adv-y="1720" 
d="M68 879h887v-105h-887v105zM68 606h887v-105h-887v105z" />
    <glyph glyph-name="greater" unicode="&#x3e;" vert-adv-y="1720" 
d="M69 1143l887 -407v-107l-887 -407v122l756 339l-756 339v121z" />
    <glyph glyph-name="question" unicode="?" horiz-adv-x="873" vert-adv-y="1720" 
d="M70 1017q5 146 65 234q97 143 294 143q181 0 280 -115q85 -98 85 -240q0 -116 -59 -216q-41 -69 -107 -142q-71 -79 -88 -109q-37 -69 -38 -232h-112q0 99 9 157q16 95 72 168q11 16 75 90q66 76 96 134q33 65 33 143q0 102 -56 174q-65 82 -184 82q-113 0 -183 -70
q-65 -66 -71 -201h-111zM514 205v-205h-139v205h139z" />
    <glyph glyph-name="at" unicode="@" horiz-adv-x="1517" vert-adv-y="1720" 
d="M984 967h100l-74 -385q-10 -79 -10 -87q0 -24 15 -43q14 -17 42 -17q85 0 161 82q126 138 126 342q0 208 -149 333q-141 119 -353 119q-269 0 -459 -198q-199 -207 -199 -521q0 -239 134 -384q145 -156 413 -156q230 0 447 108l26 -84q-221 -109 -481 -109
q-307 0 -470 170q-167 174 -167 452q0 229 116 433q108 190 299 289q163 85 341 85q160 0 300 -69q148 -73 225 -211q64 -115 64 -256q0 -169 -89 -313q-69 -112 -168 -163q-64 -33 -129 -33q-71 0 -107 51q-19 26 -21 68q-82 -130 -214 -130q-103 0 -165 82q-57 76 -57 193
q0 155 89 269q82 105 208 105q137 0 182 -149zM784 899q-52 0 -102 -36q-55 -39 -84 -115q-22 -60 -22 -123q0 -79 33 -135q37 -63 112 -63q101 0 162 106q45 80 45 193q0 76 -36 123q-38 50 -108 50z" />
    <glyph glyph-name="A" unicode="A" horiz-adv-x="1087" vert-adv-y="1720" 
d="M479 1365h133l454 -1365h-133l-136 430h-511l-138 -430h-128zM320 535h444l-220 695z" />
    <glyph glyph-name="B" unicode="B" horiz-adv-x="1118" vert-adv-y="1720" 
d="M147 0v1365h393q209 0 311 -70q136 -94 136 -266q0 -138 -95 -230q-56 -55 -146 -83q285 -65 285 -332q0 -202 -163 -310q-111 -74 -307 -74h-414zM269 760h196q161 0 245 31q80 30 123 104q31 53 31 123q0 150 -120 209q-65 32 -205 32h-270v-499zM269 106h258
q186 0 269 55q110 71 110 225q0 162 -130 230q-80 42 -250 42h-257v-552z" />
    <glyph glyph-name="C" unicode="C" horiz-adv-x="1182" vert-adv-y="1720" 
d="M985 451h124q-19 -165 -99 -284q-135 -200 -381 -200q-261 0 -416 230q-127 189 -127 480q0 324 151 523q150 197 395 197q142 0 257 -73q173 -111 206 -327h-124q-34 119 -88 180q-101 113 -255 113q-180 0 -291 -153q-127 -177 -127 -455q0 -274 118 -446
q52 -76 130 -119q79 -44 173 -44q167 0 271 145q66 93 83 233z" />
    <glyph glyph-name="D" unicode="D" horiz-adv-x="1171" vert-adv-y="1720" 
d="M148 0v1365h343q166 0 271 -47q154 -68 240 -229q82 -155 82 -393q0 -365 -182 -548q-147 -148 -403 -148h-351zM270 106h230q246 0 352 151q108 154 108 437q0 327 -157 467q-109 98 -293 98h-240v-1153z" />
    <glyph glyph-name="E" unicode="E" horiz-adv-x="1017" vert-adv-y="1720" 
d="M147 0v1365h787v-106h-665v-499h622v-106h-622v-548h672v-106h-794z" />
    <glyph glyph-name="F" unicode="F" horiz-adv-x="919" vert-adv-y="1720" 
d="M147 0v1365h731v-106h-609v-498h541v-106h-541v-655h-122z" />
    <glyph glyph-name="G" unicode="G" horiz-adv-x="1252" vert-adv-y="1720" 
d="M1129 0h-102v239q-55 -99 -109 -153q-117 -119 -289 -119q-261 0 -416 230q-127 190 -127 481q0 323 151 522q150 197 397 197q145 0 262 -73q172 -106 211 -320h-125q-34 114 -91 176q-102 111 -262 111q-181 0 -292 -153q-127 -177 -127 -456q0 -274 118 -446
q112 -163 307 -163q138 0 236 102q125 129 142 341q2 24 4 72h-383v106h495v-694z" />
    <glyph glyph-name="H" unicode="H" horiz-adv-x="1207" vert-adv-y="1720" 
d="M147 0v1365h122v-596h668v596h122v-1365h-122v663h-668v-663h-122z" />
    <glyph glyph-name="I" unicode="I" horiz-adv-x="417" vert-adv-y="1720" 
d="M147 0v1365h122v-1365h-122z" />
    <glyph glyph-name="J" unicode="J" horiz-adv-x="586" vert-adv-y="1720" 
d="M333 1365h122v-898q0 -166 -15 -236q-56 -264 -325 -264q-48 0 -105 13v109q53 -16 104 -16q149 0 194 136q25 76 25 286v870z" />
    <glyph glyph-name="K" unicode="K" horiz-adv-x="1088" vert-adv-y="1720" 
d="M147 1365h122v-691l645 691h141l-542 -580l564 -785h-138l-505 701l-165 -177v-524h-122v1365z" />
    <glyph glyph-name="L" unicode="L" horiz-adv-x="939" vert-adv-y="1720" 
d="M147 0v1365h122v-1259h631v-106h-753z" />
    <glyph glyph-name="M" unicode="M" horiz-adv-x="1415" vert-adv-y="1720" 
d="M147 0v1365h159l405 -1191l397 1191h160v-1365h-116v1170l-387 -1170h-108l-394 1162v-1162h-116z" />
    <glyph glyph-name="N" unicode="N" horiz-adv-x="1205" vert-adv-y="1720" 
d="M147 0v1365h131l663 -1169v1169h116v-1365h-132l-662 1163v-1163h-116z" />
    <glyph glyph-name="O" unicode="O" horiz-adv-x="1260" vert-adv-y="1720" 
d="M637 1396q158 0 286 -99q135 -103 200 -289q51 -145 51 -329q0 -281 -122 -474q-74 -118 -188 -180q-106 -58 -236 -58q-270 0 -420 238q-122 193 -122 475q0 325 150 517q155 199 401 199zM624 1290q-180 0 -297 -167q-117 -166 -117 -436q0 -253 100 -422
q58 -97 154 -150q76 -42 166 -42q125 0 225 80q106 86 158 255q37 121 37 269q0 271 -115 441q-116 172 -311 172z" />
    <glyph glyph-name="P" unicode="P" horiz-adv-x="1049" vert-adv-y="1720" 
d="M147 0v1365h348q147 0 227 -26q114 -37 181 -133q63 -92 63 -228q0 -216 -161 -322q-113 -74 -324 -74h-212v-582h-122zM269 688h222q179 0 257 64q93 75 93 222q0 165 -115 239q-51 32 -124 42q-35 4 -117 4h-216v-571z" />
    <glyph glyph-name="Q" unicode="Q" horiz-adv-x="1260" vert-adv-y="1720" 
d="M923 63q-131 -96 -296 -96q-268 0 -419 238q-122 193 -122 478q0 318 150 514q152 199 394 199q243 0 393 -199q151 -202 151 -518q0 -345 -180 -550l152 -160l-69 -69zM844 146l-155 165l69 68l156 -165q136 178 136 466q0 265 -115 438q-113 172 -305 172
q-186 0 -303 -167t-117 -436q0 -253 100 -422q57 -97 154 -150q76 -42 166 -42q113 0 214 73z" />
    <glyph glyph-name="R" unicode="R" horiz-adv-x="1145" vert-adv-y="1720" 
d="M147 0v1365h443q122 0 194 -25q116 -40 177 -138q50 -80 50 -198q0 -171 -108 -273q-54 -50 -133 -72q96 -19 148 -81q37 -44 54 -139q10 -52 17 -153q9 -143 19 -198q11 -55 34 -88h-138q-20 36 -28 75q-9 34 -18 202q-9 150 -35 203q-40 85 -156 115q-58 16 -176 16
h-222v-611h-122zM269 714h280q171 0 242 55q95 76 95 230q0 143 -93 212q-65 48 -207 48h-317v-545z" />
    <glyph glyph-name="S" unicode="S" horiz-adv-x="1035" vert-adv-y="1720" 
d="M68 383h117q17 -121 82 -197q95 -111 261 -111q140 0 221 74q88 80 88 210q0 137 -112 211q-56 37 -269 97q-155 43 -227 93q-142 99 -142 279q0 144 98 244q113 114 306 114q248 0 367 -175q51 -75 66 -190h-127q-19 108 -68 164q-82 94 -237 94q-132 0 -208 -73
q-75 -72 -75 -181q0 -117 86 -180q67 -50 220 -92q154 -43 197 -60q255 -104 255 -344q0 -166 -113 -276q-122 -117 -322 -117q-242 0 -365 154q-81 102 -99 262z" />
    <glyph glyph-name="T" unicode="T" horiz-adv-x="985" vert-adv-y="1720" 
d="M554 0h-122v1259h-397v106h916v-106h-397v-1259z" />
    <glyph glyph-name="U" unicode="U" horiz-adv-x="1162" vert-adv-y="1720" 
d="M131 1365h122v-814q0 -148 18 -223q31 -131 114 -192q85 -63 202 -63q110 0 190 58q84 60 113 191q19 82 19 230v813h122v-814q0 -196 -33 -291q-51 -148 -157 -219q-109 -74 -256 -74q-149 0 -261 74q-120 80 -166 244q-27 95 -27 270v810z" />
    <glyph glyph-name="V" unicode="V" horiz-adv-x="1028" vert-adv-y="1720" 
d="M584 0h-138l-426 1365h133l364 -1209l363 1209h127z" />
    <glyph glyph-name="W" unicode="W" horiz-adv-x="1504" vert-adv-y="1720" 
d="M339 0l-314 1365h125l259 -1172l276 1172h136l278 -1172l260 1172h120l-315 -1365h-129l-284 1183l-282 -1183h-130z" />
    <glyph glyph-name="X" unicode="X" horiz-adv-x="1005" vert-adv-y="1720" 
d="M20 0l415 702l-390 663h139l319 -564l327 564h132l-391 -663l413 -702h-141l-341 598l-347 -598h-135z" />
    <glyph glyph-name="Y" unicode="Y" horiz-adv-x="1017" vert-adv-y="1720" 
d="M448 0v565l-450 800h141l373 -682l372 682h135l-449 -800v-565h-122z" />
    <glyph glyph-name="Z" unicode="Z" horiz-adv-x="1001" vert-adv-y="1720" 
d="M57 0v115l745 1144h-691v106h825v-112l-745 -1147h759v-106h-893z" />
    <glyph glyph-name="bracketleft" unicode="[" horiz-adv-x="506" vert-adv-y="1720" 
d="M405 1365v-94h-163v-1532h163v-94h-266v1720h266z" />
    <glyph glyph-name="backslash" unicode="\" horiz-adv-x="702" vert-adv-y="1720" 
d="M658 -355l-585 1720h94l588 -1720h-97z" />
    <glyph glyph-name="bracketright" unicode="]" horiz-adv-x="506" vert-adv-y="1720" 
d="M101 -355v94h164v1532h-164v94h266v-1720h-266z" />
    <glyph glyph-name="asciicircum" unicode="^" vert-adv-y="1720" 
d="M192 779h-119l369 589h140l369 -589h-120l-321 504z" />
    <glyph glyph-name="underscore" unicode="_" vert-adv-y="1720" 
d="M68 -109h887v-105h-887v105z" />
    <glyph glyph-name="grave" unicode="`" vert-adv-y="1720" 
d="M295 1365h118l163 -273h-103z" />
    <glyph glyph-name="a" unicode="a" horiz-adv-x="897" vert-adv-y="1720" 
d="M854 96v-89q-40 -17 -79 -17q-72 0 -97 61q-14 34 -14 100v34q-120 -214 -314 -214q-105 0 -178 64q-89 77 -89 207q0 148 113 229q85 62 241 78q66 6 211 10v89q0 229 -206 229q-199 0 -218 -225h-104q6 148 87 230q88 89 246 89q173 0 255 -111q40 -54 49 -145
q4 -35 4 -140v-356q0 -85 7 -106q8 -27 43 -27q17 0 43 10zM648 477q-168 -8 -252 -26q-95 -21 -142 -68q-58 -58 -58 -138q0 -75 52 -129q50 -51 126 -51q89 0 158 63q68 62 96 161q20 72 20 131v57z" />
    <glyph glyph-name="b" unicode="b" horiz-adv-x="989" vert-adv-y="1720" 
d="M137 0v1365h112v-579q22 52 65 94q91 91 218 91q169 0 274 -137q102 -133 102 -363q0 -235 -109 -371q-104 -129 -266 -129q-139 0 -232 104q-36 40 -60 98v-173h-104zM518 877q-77 0 -143 -50q-130 -98 -130 -357q0 -186 79 -300q73 -105 199 -105q124 0 196 106
q77 113 77 295t-68 291q-73 120 -210 120z" />
    <glyph glyph-name="c" unicode="c" horiz-adv-x="879" vert-adv-y="1720" 
d="M694 302h114q-10 -104 -65 -187q-96 -144 -279 -144q-187 0 -288 146q-96 139 -96 355q0 207 91 345q102 154 294 154q158 0 254 -114q59 -70 80 -178h-115q-17 75 -50 117q-64 81 -170 81q-124 0 -196 -108q-76 -114 -76 -297q0 -185 74 -298q71 -109 198 -109
q120 0 187 109q32 51 43 128z" />
    <glyph glyph-name="d" unicode="d" horiz-adv-x="989" vert-adv-y="1720" 
d="M852 0h-104v173q-90 -202 -293 -202q-161 0 -266 129q-109 136 -109 371q0 230 102 363q105 137 274 137q134 0 228 -101q36 -38 55 -84v579h113v-1365zM462 877q-129 0 -202 -120q-68 -110 -68 -289q0 -185 77 -297q73 -106 196 -106q127 0 200 105q79 115 79 298
q0 194 -79 306q-73 103 -203 103z" />
    <glyph glyph-name="e" unicode="e" horiz-adv-x="908" vert-adv-y="1720" 
d="M829 445h-637q3 -137 45 -226q73 -154 232 -154q172 0 238 211h108q-21 -98 -73 -170q-99 -135 -274 -135q-190 0 -294 151q-94 137 -94 350q0 223 109 362q108 137 271 137q132 0 228 -92q140 -132 141 -434zM715 535q-5 120 -46 201q-37 74 -101 114q-48 30 -108 30
q-93 0 -164 -72q-86 -88 -104 -273h523z" />
    <glyph glyph-name="f" unicode="f" horiz-adv-x="474" vert-adv-y="1720" 
d="M166 0v848h-137v94h137v150q0 152 29 206q54 98 169 98q39 0 99 -20v-103q-39 22 -88 22q-43 0 -71 -35q-25 -33 -25 -154v-164h164v-94h-164v-848h-113z" />
    <glyph glyph-name="g" unicode="g" horiz-adv-x="970" vert-adv-y="1720" 
d="M725 942h108v-809q0 -130 -14 -197q-28 -128 -124 -208q-100 -83 -240 -83q-151 0 -247 90q-72 68 -93 182h117q14 -69 54 -110q65 -68 173 -68q136 0 207 113q54 86 54 240v109q-22 -54 -61 -96q-88 -93 -209 -93q-165 0 -269 135q-101 130 -101 355q0 224 108 348
q104 121 260 121q195 0 277 -187v158zM452 877q-115 0 -186 -96q-74 -101 -74 -274q0 -170 64 -282q68 -119 197 -119q77 0 142 50q65 49 98 151q29 89 29 196q0 177 -76 278q-71 96 -194 96z" />
    <glyph glyph-name="h" unicode="h" horiz-adv-x="951" vert-adv-y="1720" 
d="M137 0v1365h112v-571q96 177 281 177q111 0 188 -65q72 -61 92 -173q10 -53 10 -140v-593h-112v555q0 144 -26 213q-18 47 -63 77q-47 32 -110 32q-111 0 -184 -87q-52 -62 -67 -162q-9 -55 -9 -156v-472h-112z" />
    <glyph glyph-name="i" unicode="i" horiz-adv-x="395" vert-adv-y="1720" 
d="M141 1174v191h112v-191h-112zM141 0v942h112v-942h-112z" />
    <glyph glyph-name="j" unicode="j" horiz-adv-x="392" vert-adv-y="1720" 
d="M138 942h112v-986q0 -163 -30 -222q-45 -89 -167 -89q-31 0 -61 8v97q24 -6 44 -6q85 0 97 83q5 38 5 125v990zM138 1174v191h112v-191h-112z" />
    <glyph glyph-name="k" unicode="k" horiz-adv-x="890" vert-adv-y="1720" 
d="M137 0v1365h112v-846l449 423h140l-376 -354l396 -588h-128l-347 514l-134 -127v-387h-112z" />
    <glyph glyph-name="l" unicode="l" horiz-adv-x="395" vert-adv-y="1720" 
d="M141 0v1365h112v-1365h-112z" />
    <glyph glyph-name="m" unicode="m" horiz-adv-x="1418" vert-adv-y="1720" 
d="M137 0v942h106v-159q85 188 256 188q177 0 245 -198q93 198 270 198q104 0 177 -65q67 -61 87 -173q9 -54 9 -140v-593h-112v555q0 143 -24 213q-16 46 -58 77q-43 32 -99 32q-97 0 -160 -88q-44 -61 -58 -161q-7 -56 -7 -156v-472h-113v555q0 144 -24 213q-16 46 -58 77
q-43 32 -99 32q-98 0 -161 -88q-44 -62 -58 -161q-7 -55 -7 -156v-472h-112z" />
    <glyph glyph-name="n" unicode="n" horiz-adv-x="951" vert-adv-y="1720" 
d="M137 0v942h106v-159q99 188 287 188q111 0 188 -65q72 -61 92 -173q10 -53 10 -140v-593h-112v555q0 144 -26 213q-18 47 -63 77q-47 32 -110 32q-111 0 -184 -87q-52 -62 -67 -162q-9 -55 -9 -156v-472h-112z" />
    <glyph glyph-name="o" unicode="o" horiz-adv-x="950" vert-adv-y="1720" 
d="M481 971q124 0 221 -76q92 -72 135 -204q33 -98 33 -220q0 -215 -99 -354q-105 -146 -296 -146t-296 146q-99 139 -99 353q0 212 94 346q108 155 307 155zM471 877q-123 0 -199 -108q-80 -114 -80 -297q0 -185 78 -298q74 -109 205 -109t205 109q78 113 78 296
q0 187 -80 299q-77 108 -207 108z" />
    <glyph glyph-name="p" unicode="p" horiz-adv-x="988" vert-adv-y="1720" 
d="M137 -355v1297h104v-166q23 62 69 109q84 86 222 86q168 0 269 -129q107 -138 107 -373q0 -228 -100 -362q-102 -136 -272 -136q-143 0 -232 99q-36 40 -55 86v-511h-112zM519 877q-77 0 -143 -50q-131 -101 -131 -359q0 -188 79 -300q73 -103 197 -103q134 0 207 120
q67 111 67 283q0 188 -77 302q-74 107 -199 107z" />
    <glyph glyph-name="q" unicode="q" horiz-adv-x="988" vert-adv-y="1720" 
d="M738 -355v511q-21 -52 -64 -96q-87 -89 -222 -89q-171 0 -273 136q-100 134 -100 362q0 236 107 373q102 129 270 129q207 0 291 -195v166h104v-1297h-113zM461 877q-120 0 -192 -107q-78 -115 -78 -300q0 -174 68 -285q72 -120 207 -120q124 0 197 103q80 113 80 298
q0 194 -79 306q-75 105 -203 105z" />
    <glyph glyph-name="r" unicode="r" horiz-adv-x="557" vert-adv-y="1720" 
d="M137 0v942h106v-204q85 240 312 233v-118q-22 1 -34 1q-125 0 -202 -109q-50 -72 -64 -188q-6 -57 -6 -171v-386h-112z" />
    <glyph glyph-name="s" unicode="s" horiz-adv-x="785" vert-adv-y="1720" 
d="M68 265h112q11 -78 52 -128q62 -72 170 -72q91 0 144 48q58 52 58 135q0 90 -78 139q-37 24 -186 64q-100 27 -157 67q-98 70 -98 193q0 104 73 177q81 83 219 83q175 0 262 -124q36 -52 47 -134h-112q-30 166 -193 166q-87 0 -138 -48q-49 -47 -49 -117q0 -75 59 -117
q42 -29 154 -60q163 -46 212 -84q98 -77 98 -204q0 -118 -82 -195q-87 -83 -234 -83q-172 0 -261 109q-58 70 -72 185z" />
    <glyph glyph-name="t" unicode="t" horiz-adv-x="475" vert-adv-y="1720" 
d="M6 848v94h141v177l92 123h20v-300h169v-94h-169v-604q0 -93 10 -121q18 -50 84 -50q31 0 75 12v-93q-52 -17 -97 -17q-121 0 -161 79q-23 44 -23 201v593h-141z" />
    <glyph glyph-name="u" unicode="u" horiz-adv-x="951" vert-adv-y="1720" 
d="M814 942v-942h-106v159q-98 -188 -287 -188q-111 0 -188 65q-71 61 -92 173q-10 54 -10 140v593h112v-555q0 -144 26 -213q18 -47 63 -77q47 -32 110 -32q112 0 184 87q52 62 67 162q9 55 9 156v472h112z" />
    <glyph glyph-name="v" unicode="v" horiz-adv-x="764" vert-adv-y="1720" 
d="M330 0l-318 942h120l260 -791l246 791h114l-303 -942h-119z" />
    <glyph glyph-name="w" unicode="w" horiz-adv-x="1212" vert-adv-y="1720" 
d="M288 0l-268 942h121l210 -782l195 782h123l198 -780l209 780h115l-266 -942h-121l-198 770l-195 -770h-123z" />
    <glyph glyph-name="x" unicode="x" horiz-adv-x="790" vert-adv-y="1720" 
d="M8 0l318 495l-294 447h136l223 -350l230 350h128l-292 -439l324 -503h-135l-256 404l-254 -404h-128z" />
    <glyph glyph-name="y" unicode="y" horiz-adv-x="773" vert-adv-y="1720" 
d="M95 -340v96l14 -4q32 -9 57 -9q52 0 79 27q32 32 57 111l41 126l-331 935h121l266 -782l247 782h114l-360 -1087q-35 -105 -80 -153q-54 -57 -144 -57q-39 0 -81 15z" />
    <glyph glyph-name="z" unicode="z" horiz-adv-x="774" vert-adv-y="1720" 
d="M726 942v-80l-545 -768h566v-94h-698v92l539 756h-501v94h639z" />
    <glyph glyph-name="braceleft" unicode="{" horiz-adv-x="506" vert-adv-y="1720" 
d="M405 1365v-94h-21q-41 0 -80 -19q-36 -17 -53 -69q-8 -27 -9 -94v-362q0 -100 -29 -150q-25 -44 -85 -74q65 -32 94 -96q20 -47 20 -133v-373q3 -81 13 -96q28 -62 132 -66h18v-94h-29q-135 0 -185 64q-51 61 -52 204v361q0 100 -35 142q-31 35 -83 48v85q53 13 86 52
q30 36 32 131v364q-1 142 55 203q57 68 183 66h28z" />
    <glyph glyph-name="bar" unicode="|" vert-adv-y="1720" 
d="M452 1365h121v-1706h-121v1706z" />
    <glyph glyph-name="braceright" unicode="}" horiz-adv-x="506" vert-adv-y="1720" 
d="M101 -355v94h18q41 0 81 15q37 13 55 59q9 11 10 88v373q0 95 24 142q29 56 90 87q-65 33 -90 84q-24 52 -24 140v362q-1 77 -12 103q-28 74 -131 79h-21v94h28q127 1 184 -66q56 -60 55 -203v-364q1 -94 32 -131q33 -40 85 -52v-85q-51 -13 -82 -48q-35 -43 -35 -142
v-361q-1 -145 -52 -204q-50 -64 -186 -64h-29z" />
    <glyph glyph-name="asciitilde" unicode="~" horiz-adv-x="1365" vert-adv-y="1720" 
d="M263 1203l-69 53q39 76 80 123q79 93 188 93q81 0 239 -82q92 -48 125 -59q43 -15 80 -15q70 0 124 57q36 38 73 104l69 -53q-41 -80 -81 -127q-80 -91 -188 -91q-54 0 -129 32q-39 17 -113 55q-81 42 -113 53q-49 17 -90 17q-73 0 -128 -62q-32 -36 -67 -98z" />
    <glyph glyph-name="Adieresis" unicode="&#xc4;" horiz-adv-x="1087" vert-adv-y="1720" 
d="M479 1365h133l454 -1365h-133l-136 430h-511l-138 -430h-128zM320 535h444l-220 695zM642 1488v191h119v-191h-119zM324 1488v191h119v-191h-119z" />
    <glyph glyph-name="Aring" unicode="&#xc5;" horiz-adv-x="1087" vert-adv-y="1720" 
d="M479 1365h133l454 -1365h-133l-136 430h-511l-138 -430h-128zM320 535h444l-220 695zM544 1727q-45 0 -75 -31q-32 -32 -32 -78q0 -45 31 -77t74 -32q45 0 76 33q30 31 30 76q0 46 -31 77q-31 32 -73 32zM544 1805q74 0 129 -54q54 -55 54 -133q0 -75 -53 -129
q-55 -56 -133 -56t-132 54q-54 55 -54 131q0 80 56 134q55 53 133 53z" />
    <glyph glyph-name="Ccedilla" unicode="&#xc7;" horiz-adv-x="1182" vert-adv-y="1720" 
d="M985 451h124q-19 -165 -99 -284q-69 -102 -175 -154q-93 -46 -198 -46q-10 0 -32 1l-32 -76q21 8 42 8q59 0 98 -27q58 -40 58 -112q0 -65 -41 -107q-44 -44 -122 -44q-88 0 -130 53q-19 23 -23 51h92q9 -41 57 -41q72 0 72 82q0 38 -20 60t-52 22q-40 0 -54 -31h-87
l66 171q-130 28 -226 115q-217 200 -217 586q0 323 151 522q150 197 395 197q142 0 257 -73q173 -111 206 -327h-124q-34 119 -88 180q-101 113 -255 113q-180 0 -291 -153q-127 -177 -127 -455q0 -274 118 -446q52 -76 130 -119q79 -44 173 -44q167 0 271 145q66 93 83 233
z" />
    <glyph glyph-name="Eacute" unicode="&#xc9;" horiz-adv-x="1017" vert-adv-y="1720" 
d="M147 0v1365h787v-106h-665v-499h622v-106h-622v-548h672v-106h-794zM737 1737l-202 -258h-105l180 258h127z" />
    <glyph glyph-name="Ntilde" unicode="&#xd1;" horiz-adv-x="1205" vert-adv-y="1720" 
d="M147 0v1365h131l663 -1169v1169h116v-1365h-132l-662 1163v-1163h-116zM873 1703q-11 -70 -35 -113q-47 -80 -124 -80q-54 0 -130 56q-58 42 -92 42q-63 0 -82 -99h-80q9 60 30 102q47 92 129 92q59 0 127 -50q64 -48 92 -48q62 0 83 98h82z" />
    <glyph glyph-name="Odieresis" unicode="&#xd6;" horiz-adv-x="1260" vert-adv-y="1720" 
d="M637 1396q158 0 286 -99q135 -103 200 -289q51 -145 51 -329q0 -281 -122 -474q-74 -118 -188 -180q-106 -58 -236 -58q-270 0 -420 238q-122 193 -122 475q0 325 150 517q155 199 401 199zM624 1290q-180 0 -297 -167q-117 -166 -117 -436q0 -253 100 -422
q58 -97 154 -150q76 -42 166 -42q125 0 225 80q106 86 158 255q37 121 37 269q0 271 -115 441q-116 172 -311 172zM732 1488v191h119v-191h-119zM414 1488v191h119v-191h-119z" />
    <glyph glyph-name="Udieresis" unicode="&#xdc;" horiz-adv-x="1162" vert-adv-y="1720" 
d="M131 1365h122v-814q0 -148 18 -223q31 -131 114 -192q85 -63 202 -63q110 0 190 58q84 60 113 191q19 82 19 230v813h122v-814q0 -196 -33 -291q-51 -148 -157 -219q-109 -74 -256 -74q-149 0 -261 74q-120 80 -166 244q-27 95 -27 270v810zM681 1488v191h119v-191h-119z
M363 1488v191h119v-191h-119z" />
    <glyph glyph-name="aacute" unicode="&#xe1;" horiz-adv-x="897" vert-adv-y="1720" 
d="M854 96v-89q-40 -17 -79 -17q-72 0 -97 61q-14 34 -14 100v34q-120 -214 -314 -214q-105 0 -178 64q-89 77 -89 207q0 148 113 229q85 62 241 78q66 6 211 10v89q0 229 -206 229q-199 0 -218 -225h-104q6 148 87 230q88 89 246 89q173 0 255 -111q40 -54 49 -145
q4 -35 4 -140v-356q0 -85 7 -106q8 -27 43 -27q17 0 43 10zM648 477q-168 -8 -252 -26q-95 -21 -142 -68q-58 -58 -58 -138q0 -75 52 -129q50 -51 126 -51q89 0 158 63q68 62 96 161q20 72 20 131v57zM666 1365l-178 -273h-103l163 273h118z" />
    <glyph glyph-name="agrave" unicode="&#xe0;" horiz-adv-x="897" vert-adv-y="1720" 
d="M854 96v-89q-40 -17 -79 -17q-72 0 -97 61q-14 34 -14 100v34q-120 -214 -314 -214q-105 0 -178 64q-89 77 -89 207q0 148 113 229q85 62 241 78q66 6 211 10v89q0 229 -206 229q-199 0 -218 -225h-104q6 148 87 230q88 89 246 89q173 0 255 -111q40 -54 49 -145
q4 -35 4 -140v-356q0 -85 7 -106q8 -27 43 -27q17 0 43 10zM648 477q-168 -8 -252 -26q-95 -21 -142 -68q-58 -58 -58 -138q0 -75 52 -129q50 -51 126 -51q89 0 158 63q68 62 96 161q20 72 20 131v57zM232 1365h118l163 -273h-103z" />
    <glyph glyph-name="acircumflex" unicode="&#xe2;" horiz-adv-x="897" vert-adv-y="1720" 
d="M854 96v-89q-40 -17 -79 -17q-72 0 -97 61q-14 34 -14 100v34q-120 -214 -314 -214q-105 0 -178 64q-89 77 -89 207q0 148 113 229q85 62 241 78q66 6 211 10v89q0 229 -206 229q-199 0 -218 -225h-104q6 148 87 230q88 89 246 89q173 0 255 -111q40 -54 49 -145
q4 -35 4 -140v-356q0 -85 7 -106q8 -27 43 -27q17 0 43 10zM648 477q-168 -8 -252 -26q-95 -21 -142 -68q-58 -58 -58 -138q0 -75 52 -129q50 -51 126 -51q89 0 158 63q68 62 96 161q20 72 20 131v57zM677 1092h-108l-124 197l-126 -197h-98l172 273h110z" />
    <glyph glyph-name="adieresis" unicode="&#xe4;" horiz-adv-x="897" vert-adv-y="1720" 
d="M854 96v-89q-40 -17 -79 -17q-72 0 -97 61q-14 34 -14 100v34q-120 -214 -314 -214q-105 0 -178 64q-89 77 -89 207q0 148 113 229q85 62 241 78q66 6 211 10v89q0 229 -206 229q-199 0 -218 -225h-104q6 148 87 230q88 89 246 89q173 0 255 -111q40 -54 49 -145
q4 -35 4 -140v-356q0 -85 7 -106q8 -27 43 -27q17 0 43 10zM648 477q-168 -8 -252 -26q-95 -21 -142 -68q-58 -58 -58 -138q0 -75 52 -129q50 -51 126 -51q89 0 158 63q68 62 96 161q20 72 20 131v57zM538 1106v191h115v-191h-115zM244 1106v191h115v-191h-115z" />
    <glyph glyph-name="atilde" unicode="&#xe3;" horiz-adv-x="897" vert-adv-y="1720" 
d="M854 96v-89q-40 -17 -79 -17q-72 0 -97 61q-14 34 -14 100v34q-120 -214 -314 -214q-105 0 -178 64q-89 77 -89 207q0 148 113 229q85 62 241 78q66 6 211 10v89q0 229 -206 229q-199 0 -218 -225h-104q6 148 87 230q88 89 246 89q173 0 255 -111q40 -54 49 -145
q4 -35 4 -140v-356q0 -85 7 -106q8 -27 43 -27q17 0 43 10zM648 477q-168 -8 -252 -26q-95 -21 -142 -68q-58 -58 -58 -138q0 -75 52 -129q50 -51 126 -51q89 0 158 63q68 62 96 161q20 72 20 131v57zM710 1318q-11 -76 -35 -124q-44 -88 -118 -88q-54 0 -128 73
q-55 55 -89 55q-62 0 -79 -121h-73q7 65 28 111q46 101 130 101q58 0 124 -68q54 -55 85 -55q59 0 79 116h76z" />
    <glyph glyph-name="aring" unicode="&#xe5;" horiz-adv-x="897" vert-adv-y="1720" 
d="M854 96v-89q-40 -17 -79 -17q-72 0 -97 61q-14 34 -14 100v34q-120 -214 -314 -214q-105 0 -178 64q-89 77 -89 207q0 148 113 229q85 62 241 78q66 6 211 10v89q0 229 -206 229q-199 0 -218 -225h-104q6 148 87 230q88 89 246 89q173 0 255 -111q40 -54 49 -145
q4 -35 4 -140v-356q0 -85 7 -106q8 -27 43 -27q17 0 43 10zM648 477q-168 -8 -252 -26q-95 -21 -142 -68q-58 -58 -58 -138q0 -75 52 -129q50 -51 126 -51q89 0 158 63q68 62 96 161q20 72 20 131v57zM448 1358q-41 0 -71 -31q-30 -32 -30 -78q0 -45 30 -77q29 -32 72 -32
t73 33q29 31 29 75q0 47 -30 78q-30 32 -73 32zM451 1434q74 0 128 -54t54 -131q0 -75 -53 -129q-54 -55 -132 -55q-77 0 -130 54q-54 54 -54 130q0 79 55 132t132 53z" />
    <glyph glyph-name="ccedilla" unicode="&#xe7;" horiz-adv-x="879" vert-adv-y="1720" 
d="M694 302h114q-10 -140 -105 -236q-95 -94 -238 -94l-28 -80q20 6 40 6q50 0 90 -27q54 -37 54 -110q0 -65 -39 -105q-41 -44 -115 -44q-82 0 -121 52q-16 22 -20 50h85q7 -41 56 -41q70 0 70 82q0 38 -20 60q-18 22 -51 22q-41 0 -52 -31h-85l65 172q-98 17 -170 85
q-144 133 -144 409q0 208 91 345q102 154 294 154q158 0 254 -114q59 -70 80 -178h-115q-17 75 -50 117q-64 81 -170 81q-124 0 -196 -107q-76 -115 -76 -297q0 -186 74 -298q71 -109 198 -109q120 0 187 108q32 52 43 128z" />
    <glyph glyph-name="eacute" unicode="&#xe9;" horiz-adv-x="908" vert-adv-y="1720" 
d="M829 445h-637q3 -137 45 -226q73 -154 232 -154q172 0 238 211h108q-21 -98 -73 -170q-99 -135 -274 -135q-190 0 -294 151q-94 137 -94 350q0 223 109 362q108 137 271 137q132 0 228 -92q140 -132 141 -434zM715 535q-5 120 -46 201q-37 74 -101 114q-48 30 -108 30
q-93 0 -164 -72q-86 -88 -104 -273h523zM671 1365l-178 -273h-103l163 273h118z" />
    <glyph glyph-name="egrave" unicode="&#xe8;" horiz-adv-x="908" vert-adv-y="1720" 
d="M829 445h-637q3 -137 45 -226q73 -154 232 -154q172 0 238 211h108q-21 -98 -73 -170q-99 -135 -274 -135q-190 0 -294 151q-94 137 -94 350q0 223 109 362q108 137 271 137q132 0 228 -92q140 -132 141 -434zM715 535q-5 120 -46 201q-37 74 -101 114q-48 30 -108 30
q-93 0 -164 -72q-86 -88 -104 -273h523zM237 1365h118l163 -273h-103z" />
    <glyph glyph-name="ecircumflex" unicode="&#xea;" horiz-adv-x="908" vert-adv-y="1720" 
d="M829 445h-637q3 -137 45 -226q73 -154 232 -154q172 0 238 211h108q-21 -98 -73 -170q-99 -135 -274 -135q-190 0 -294 151q-94 137 -94 350q0 223 109 362q108 137 271 137q132 0 228 -92q140 -132 141 -434zM715 535q-5 120 -46 201q-37 74 -101 114q-48 30 -108 30
q-93 0 -164 -72q-86 -88 -104 -273h523zM682 1092h-108l-124 197l-126 -197h-98l172 273h110z" />
    <glyph glyph-name="edieresis" unicode="&#xeb;" horiz-adv-x="908" vert-adv-y="1720" 
d="M829 445h-637q3 -137 45 -226q73 -154 232 -154q172 0 238 211h108q-21 -98 -73 -170q-99 -135 -274 -135q-190 0 -294 151q-94 137 -94 350q0 223 109 362q108 137 271 137q132 0 228 -92q140 -132 141 -434zM715 535q-5 120 -46 201q-37 74 -101 114q-48 30 -108 30
q-93 0 -164 -72q-86 -88 -104 -273h523zM544 1106v191h115v-191h-115zM250 1106v191h115v-191h-115z" />
    <glyph glyph-name="iacute" unicode="&#xed;" horiz-adv-x="397" vert-adv-y="1720" 
d="M142 0v942h112v-942h-112zM415 1365l-178 -273h-103l163 273h118z" />
    <glyph glyph-name="igrave" unicode="&#xec;" horiz-adv-x="397" vert-adv-y="1720" 
d="M143 0v942h112v-942h-112zM-18 1365h118l163 -273h-103z" />
    <glyph glyph-name="icircumflex" unicode="&#xee;" horiz-adv-x="397" vert-adv-y="1720" 
d="M142 0v942h112v-942h-112zM426 1092h-108l-124 197l-126 -197h-98l172 273h110z" />
    <glyph glyph-name="idieresis" unicode="&#xef;" horiz-adv-x="397" vert-adv-y="1720" 
d="M142 0v942h112v-942h-112zM264 1106v191h115v-191h-115zM17 1106v191h115v-191h-115z" />
    <glyph glyph-name="ntilde" unicode="&#xf1;" horiz-adv-x="951" vert-adv-y="1720" 
d="M137 0v942h106v-159q99 188 287 188q111 0 188 -65q72 -61 92 -173q10 -53 10 -140v-593h-112v555q0 144 -26 213q-18 47 -63 77q-47 32 -110 32q-111 0 -184 -87q-52 -62 -67 -162q-9 -55 -9 -156v-472h-112zM736 1318q-11 -76 -35 -124q-44 -88 -118 -88q-54 0 -128 73
q-55 55 -89 55q-62 0 -79 -121h-73q7 65 28 111q46 101 130 101q58 0 124 -68q54 -55 85 -55q59 0 79 116h76z" />
    <glyph glyph-name="oacute" unicode="&#xf3;" horiz-adv-x="950" vert-adv-y="1720" 
d="M481 971q124 0 221 -76q92 -72 135 -204q33 -98 33 -220q0 -215 -99 -354q-105 -146 -296 -146t-296 146q-99 139 -99 353q0 212 94 346q108 155 307 155zM471 877q-123 0 -199 -108q-80 -114 -80 -297q0 -185 78 -298q74 -109 205 -109t205 109q78 113 78 296
q0 187 -80 299q-77 108 -207 108zM692 1365l-178 -273h-103l163 273h118z" />
    <glyph glyph-name="ograve" unicode="&#xf2;" horiz-adv-x="950" vert-adv-y="1720" 
d="M481 971q124 0 221 -76q92 -72 135 -204q33 -98 33 -220q0 -215 -99 -354q-105 -146 -296 -146t-296 146q-99 139 -99 353q0 212 94 346q108 155 307 155zM471 877q-123 0 -199 -108q-80 -114 -80 -297q0 -185 78 -298q74 -109 205 -109t205 109q78 113 78 296
q0 187 -80 299q-77 108 -207 108zM258 1365h118l163 -273h-103z" />
    <glyph glyph-name="ocircumflex" unicode="&#xf4;" horiz-adv-x="950" vert-adv-y="1720" 
d="M481 971q124 0 221 -76q92 -72 135 -204q33 -98 33 -220q0 -215 -99 -354q-105 -146 -296 -146t-296 146q-99 139 -99 353q0 212 94 346q108 155 307 155zM471 877q-123 0 -199 -108q-80 -114 -80 -297q0 -185 78 -298q74 -109 205 -109t205 109q78 113 78 296
q0 187 -80 299q-77 108 -207 108zM703 1092h-108l-124 197l-126 -197h-98l172 273h110z" />
    <glyph glyph-name="odieresis" unicode="&#xf6;" horiz-adv-x="950" vert-adv-y="1720" 
d="M481 971q124 0 221 -76q92 -72 135 -204q33 -98 33 -220q0 -215 -99 -354q-105 -146 -296 -146t-296 146q-99 139 -99 353q0 212 94 346q108 155 307 155zM471 877q-123 0 -199 -108q-80 -114 -80 -297q0 -185 78 -298q74 -109 205 -109t205 109q78 113 78 296
q0 187 -80 299q-77 108 -207 108zM564 1106v191h115v-191h-115zM270 1106v191h115v-191h-115z" />
    <glyph glyph-name="otilde" unicode="&#xf5;" horiz-adv-x="950" vert-adv-y="1720" 
d="M481 971q124 0 221 -76q92 -72 135 -204q33 -98 33 -220q0 -215 -99 -354q-105 -146 -296 -146t-296 146q-99 139 -99 353q0 212 94 346q108 155 307 155zM471 877q-123 0 -199 -108q-80 -114 -80 -297q0 -185 78 -298q74 -109 205 -109t205 109q78 113 78 296
q0 187 -80 299q-77 108 -207 108zM736 1318q-11 -76 -35 -124q-44 -88 -118 -88q-54 0 -128 73q-55 55 -89 55q-62 0 -79 -121h-73q7 65 28 111q46 101 130 101q58 0 124 -68q54 -55 85 -55q59 0 79 116h76z" />
    <glyph glyph-name="uacute" unicode="&#xfa;" horiz-adv-x="951" vert-adv-y="1720" 
d="M814 942v-942h-106v159q-98 -188 -287 -188q-111 0 -188 65q-71 61 -92 173q-10 54 -10 140v593h112v-555q0 -144 26 -213q18 -47 63 -77q47 -32 110 -32q112 0 184 87q52 62 67 162q9 55 9 156v472h112zM692 1365l-178 -273h-103l163 273h118z" />
    <glyph glyph-name="ugrave" unicode="&#xf9;" horiz-adv-x="951" vert-adv-y="1720" 
d="M814 942v-942h-106v159q-98 -188 -287 -188q-111 0 -188 65q-71 61 -92 173q-10 54 -10 140v593h112v-555q0 -144 26 -213q18 -47 63 -77q47 -32 110 -32q112 0 184 87q52 62 67 162q9 55 9 156v472h112zM258 1365h118l163 -273h-103z" />
    <glyph glyph-name="ucircumflex" unicode="&#xfb;" horiz-adv-x="951" vert-adv-y="1720" 
d="M814 942v-942h-106v159q-98 -188 -287 -188q-111 0 -188 65q-71 61 -92 173q-10 54 -10 140v593h112v-555q0 -144 26 -213q18 -47 63 -77q47 -32 110 -32q112 0 184 87q52 62 67 162q9 55 9 156v472h112zM703 1092h-108l-124 197l-126 -197h-98l172 273h110z" />
    <glyph glyph-name="udieresis" unicode="&#xfc;" horiz-adv-x="951" vert-adv-y="1720" 
d="M814 942v-942h-106v159q-98 -188 -287 -188q-111 0 -188 65q-71 61 -92 173q-10 54 -10 140v593h112v-555q0 -144 26 -213q18 -47 63 -77q47 -32 110 -32q112 0 184 87q52 62 67 162q9 55 9 156v472h112zM565 1106v191h115v-191h-115zM271 1106v191h115v-191h-115z" />
    <glyph glyph-name="dagger" unicode="&#x2020;" horiz-adv-x="965" vert-adv-y="1720" 
d="M854 943v-102h-324v-1196h-102v1196h-318v102h318v422h102v-422h324z" />
    <glyph glyph-name="degree" unicode="&#xb0;" vert-adv-y="1720" 
d="M512 1365q116 0 199 -80q83 -81 83 -194q0 -114 -82 -195q-83 -81 -199 -81q-118 0 -201 81q-82 81 -82 198q0 112 82 190q85 81 200 81zM512 1286q-80 0 -138 -58q-57 -57 -57 -135q0 -84 57 -141q57 -58 138 -58t138 58q57 57 57 138q0 82 -57 138q-59 58 -138 58z" />
    <glyph glyph-name="cent" unicode="&#xa2;" horiz-adv-x="872" vert-adv-y="1720" 
d="M806 897h-115q-32 166 -180 194v-803q61 12 109 58q67 68 81 175h114q-5 -52 -23 -103q-57 -151 -194 -206q-40 -15 -87 -20v-151h-100v153q-110 16 -186 87q-145 134 -145 410q0 163 57 283q86 180 274 211v139h100v-137q100 -11 174 -72q98 -84 121 -218zM411 1088
q-65 -17 -111 -63q-108 -109 -108 -334q0 -255 129 -357q39 -31 90 -44v798z" />
    <glyph glyph-name="sterling" unicode="&#xa3;" horiz-adv-x="833" vert-adv-y="1720" 
d="M633 655v-100h-271q4 -34 4 -58q0 -190 -160 -355q73 52 129 52q38 0 75 -20q18 -10 74 -50q55 -40 100 -40q94 0 106 151h107q-7 -117 -54 -183q-58 -81 -163 -81q-52 0 -89 18q-26 12 -70 43q-71 48 -123 48q-64 0 -150 -56q-21 -13 -55 -38l-52 77q202 184 202 410
q0 38 -8 82h-180v100h148q-16 30 -71 125q-76 132 -76 259q0 163 113 264q98 89 250 89q235 0 324 -182q41 -85 43 -197h-116q-3 97 -39 166q-61 116 -214 116q-112 0 -174 -68q-66 -74 -66 -180q0 -67 27 -129q20 -46 51 -102q66 -118 82 -161h296z" />
    <glyph glyph-name="section" unicode="&#xa7;" horiz-adv-x="965" vert-adv-y="1720" 
d="M777 1079h-107q-2 44 -12 81q-18 67 -69 104q-47 33 -113 33q-69 0 -116 -39q-58 -48 -58 -136q0 -71 39 -122q31 -40 137 -114q219 -152 283 -212q108 -103 108 -240q0 -141 -94 -235q-36 -35 -88 -60q38 -38 57 -68q42 -65 42 -152q0 -127 -90 -213q-78 -75 -209 -75
q-135 0 -218 82q-86 86 -95 258h109q12 -239 207 -239q90 0 140 59q45 52 45 123q0 63 -38 119q-32 49 -161 142q-31 23 -168 118q-107 76 -160 150q-52 74 -52 181q0 146 94 236q40 39 86 56q-83 92 -83 201q0 138 100 219q75 60 185 60q179 0 256 -133q42 -73 43 -184z
M336 856q-133 -81 -133 -223q0 -84 61 -152q38 -44 210 -167q107 -78 149 -115q46 22 80 60q57 64 57 156q0 102 -90 187q-66 62 -263 199q-50 35 -71 55z" />
    <glyph glyph-name="bullet" unicode="&#x2022;" horiz-adv-x="1365" vert-adv-y="1720" 
d="M689 978q113 0 196 -83q84 -83 84 -201t-84 -201q-82 -83 -200 -83t-200 83q-84 83 -84 200q0 121 84 202q85 83 204 83z" />
    <glyph glyph-name="paragraph" unicode="&#xb6;" horiz-adv-x="998" vert-adv-y="1720" 
d="M381 -206v846h-27q-104 0 -179 54q-64 45 -99 124q-37 82 -37 179q0 125 58 220q91 148 318 148h440v-90h-115v-1481h-100v1481h-159v-1481h-100z" />
    <glyph glyph-name="germandbls" unicode="&#xdf;" horiz-adv-x="902" vert-adv-y="1720" 
d="M246 0h-112v848h-126v94h126q2 149 19 216q34 132 130 193q71 45 163 45q125 0 207 -77q82 -76 82 -185q0 -66 -35 -136q-11 -23 -69 -103q-49 -68 -49 -116q0 -39 24 -86q15 -28 67 -84q69 -75 100 -127q51 -87 51 -187q0 -161 -125 -251q-89 -64 -220 -64
q-64 0 -120 20v101q60 -27 121 -27q99 0 160 54q70 62 70 165q0 72 -37 141q-19 36 -86 118q-58 71 -80 114q-26 50 -26 99q0 68 72 179q65 100 65 175q0 74 -44 126q-49 57 -136 57q-112 0 -162 -106q-30 -63 -30 -252v-944z" />
    <glyph glyph-name="registered" unicode="&#xae;" horiz-adv-x="1434" vert-adv-y="1720" 
d="M713 1312q-152 0 -288 -93q-132 -89 -203 -242q-66 -141 -66 -296q0 -178 85 -333q85 -154 228 -233q115 -63 246 -63q237 0 401 188q161 184 161 439q0 264 -164 449q-163 184 -400 184zM727 1397q184 0 343 -115q147 -105 226 -278q69 -153 69 -324q0 -290 -186 -499
q-190 -214 -464 -214q-269 0 -457 209q-86 95 -136 221q-54 138 -54 282q0 208 101 385q93 166 253 255q141 78 305 78zM447 266v836h281q129 0 195 -56q73 -62 73 -171q0 -143 -128 -206q42 -12 73 -50q32 -45 41 -174q6 -87 12 -118q7 -33 26 -61h-107q-13 22 -19 42
q-8 32 -12 115q-5 101 -21 132q-26 53 -102 67q-36 7 -94 7h-122v-363h-96zM543 711h160q101 0 141 31q55 42 55 130q0 81 -53 118q-38 27 -120 27h-183v-306z" />
    <glyph glyph-name="copyright" unicode="&#xa9;" horiz-adv-x="1434" vert-adv-y="1720" 
d="M929 550h97q-13 -109 -63 -183q-86 -124 -241 -124q-165 0 -262 142q-80 117 -80 294q0 198 95 320q94 122 248 122q157 0 243 -122q40 -58 52 -135h-97q-46 172 -200 172q-104 0 -169 -88q-75 -103 -75 -267q0 -160 70 -260q65 -93 176 -93q98 0 157 82q39 55 49 140z
M713 1313q-152 0 -288 -93q-132 -89 -203 -242q-66 -141 -66 -296q0 -178 85 -334q85 -154 228 -233q115 -63 246 -63q237 0 401 188q161 185 161 439q0 265 -164 450q-163 184 -400 184zM727 1397q184 0 343 -115q147 -105 226 -278q69 -153 69 -324q0 -290 -186 -499
q-190 -214 -464 -214q-269 0 -457 209q-86 95 -136 221q-54 138 -54 282q0 208 101 385q93 166 253 255q141 78 305 78z" />
    <glyph glyph-name="trademark" unicode="&#x2122;" horiz-adv-x="1440" vert-adv-y="1720" 
d="M343 546h-94v736h-235v83h563v-83h-234v-736zM666 546v819h120l232 -679l227 679h121v-819h-90v655l-217 -655h-81l-222 652v-652h-90z" />
    <glyph glyph-name="acute" unicode="&#xb4;" vert-adv-y="1720" 
d="M729 1365l-178 -273h-103l163 273h118z" />
    <glyph glyph-name="dieresis" unicode="&#xa8;" vert-adv-y="1720" 
d="M601 1106v191h115v-191h-115zM307 1106v191h115v-191h-115z" />
    <glyph glyph-name="notequal" unicode="&#x2260;" vert-adv-y="1720" 
d="M335 279l-91 53l98 169h-274v105h334l97 168h-431v105h492l128 221l91 -52l-98 -169h274v-105h-334l-97 -168h431v-105h-492z" />
    <glyph glyph-name="AE" unicode="&#xc6;" horiz-adv-x="1494" vert-adv-y="1720" 
d="M1419 106v-106h-712v430h-407l-182 -430h-132l594 1365h832v-106h-583v-499h540v-106h-540v-548h590zM707 535v724h-57l-306 -724h363z" />
    <glyph glyph-name="Oslash" unicode="&#xd8;" horiz-adv-x="1260" vert-adv-y="1720" 
d="M256 -33h-110l106 177q-166 204 -166 538q0 320 150 516q152 199 393 199q173 0 310 -112l68 112h107l-107 -180q167 -209 167 -537q0 -282 -122 -475q-74 -117 -188 -180q-106 -58 -234 -58q-177 0 -309 108zM871 1194q-106 96 -242 96q-185 0 -302 -167t-117 -436
q0 -268 115 -444zM390 168q109 -94 241 -94q124 0 224 80q107 86 158 254q37 121 37 273q0 262 -116 438z" />
    <glyph glyph-name="infinity" unicode="&#x221e;" horiz-adv-x="1365" vert-adv-y="1720" 
d="M684 634q-55 -78 -98 -125q-107 -117 -253 -117q-139 0 -223 99q-71 84 -71 211t77 209q85 91 218 91q137 0 249 -117q45 -46 98 -125q52 77 96 124q110 117 254 117q141 0 225 -100q69 -84 69 -207q0 -133 -82 -216q-84 -85 -213 -85q-137 0 -247 114q-47 49 -99 127z
M733 697q6 -10 14 -21q29 -45 59 -80q100 -118 217 -118q89 0 147 61t58 160q0 104 -69 165q-59 52 -138 52q-123 0 -224 -128q-21 -26 -44 -60q-20 -30 -20 -31zM632 696q-16 24 -21 32q-54 79 -104 123q-74 66 -168 66q-89 0 -146 -61q-58 -62 -58 -160q0 -106 69 -167
q58 -52 139 -52q124 0 224 128q22 28 44 61z" />
    <glyph glyph-name="plusminus" unicode="&#xb1;" vert-adv-y="1720" 
d="M68 803h387v362h113v-362h387v-105h-387v-361h-113v361h-387v105zM68 245h887v-105h-887v105z" />
    <glyph glyph-name="lessequal" unicode="&#x2264;" vert-adv-y="1720" 
d="M955 1190v-116l-754 -305l754 -305v-116l-887 368v107zM955 288v-107h-887v107h887z" />
    <glyph glyph-name="greaterequal" unicode="&#x2265;" vert-adv-y="1720" 
d="M68 1190l887 -367v-107l-887 -368v116l754 305l-754 305v116zM68 288h887v-107h-887v107z" />
    <glyph glyph-name="yen" unicode="&#xa5;" horiz-adv-x="1017" vert-adv-y="1720" 
d="M569 0h-119v304h-270v104h270v142h-270v104h267l-400 711h137l329 -600l327 600h131l-399 -711h266v-104h-269v-142h269v-104h-269v-304z" />
    <glyph glyph-name="mu" unicode="&#xb5;" horiz-adv-x="951" vert-adv-y="1720" 
d="M814 942v-942h-106v159q-98 -188 -283 -188q-103 0 -182 63v-389h-112v1297h112v-555q0 -144 26 -213q18 -47 63 -77q47 -32 110 -32q112 0 184 87q52 62 67 162q9 55 9 156v472h112z" />
    <glyph glyph-name="partialdiff" unicode="&#x2202;" horiz-adv-x="950" vert-adv-y="1720" 
d="M636 915q-77 130 -111 176q-106 139 -253 240l44 63q151 -73 286 -226q110 -124 185 -302q83 -198 83 -394q0 -216 -99 -355q-105 -146 -296 -146t-296 146q-99 139 -99 354q0 210 94 345q53 76 136 118q72 37 154 37q96 0 172 -56zM471 877q-123 0 -199 -108
q-80 -114 -80 -297q0 -185 78 -298q74 -109 205 -109t205 109q78 113 78 296q0 187 -80 299q-77 108 -207 108z" />
    <glyph glyph-name="summation" unicode="&#x2211;" horiz-adv-x="1365" vert-adv-y="1720" 
d="M1210 1536v-454h-107l-9 346h-895l515 -874l-515 -960h913l6 347h111v-453h-1158v124l506 942l-506 862v120h1139z" />
    <glyph glyph-name="product" unicode="&#x220f;" horiz-adv-x="1348" vert-adv-y="1720" 
d="M41 1536h1266v-117h-152v-1814h152v-117h-441v117h162v1814h-708v-1814h160v-117h-439v117h153v1814h-153v117z" />
    <glyph glyph-name="glyph155" horiz-adv-x="396" vert-adv-y="1720" 
 />
    <glyph glyph-name="integral" unicode="&#x222b;" vert-adv-y="1720" 
d="M230 -490l28 107q42 -21 79 -21q81 0 106 58q15 34 15 186v1325q0 183 16 237q18 65 81 103q50 31 122 31q44 0 117 -23l-27 -107q-44 21 -81 21q-77 0 -103 -55q-17 -36 -17 -160v-1378q0 -125 -8 -175q-13 -86 -87 -131q-67 -40 -147 -40q-35 0 -94 22z" />
    <glyph glyph-name="ordfeminine" unicode="&#xaa;" horiz-adv-x="538" vert-adv-y="1720" 
d="M523 623v-74q-29 -12 -57 -12q-71 0 -74 97q-70 -108 -181 -108q-68 0 -114 40q-57 48 -57 130q0 92 71 143q53 38 148 48q39 3 120 6v42q0 125 -113 125q-76 0 -106 -58q-10 -22 -16 -75h-82q4 94 49 146q56 63 161 63q128 0 175 -91q20 -40 20 -153v-210q0 -45 2 -54
q3 -14 16 -14q11 0 38 9zM379 824q-95 -5 -139 -15q-112 -24 -112 -111q0 -41 28 -69q27 -27 69 -27q80 0 124 80q30 53 30 119v23z" />
    <glyph glyph-name="ordmasculine" unicode="&#xba;" horiz-adv-x="570" vert-adv-y="1720" 
d="M289 1136q117 0 185 -95q59 -82 59 -209q0 -132 -62 -216q-65 -90 -185 -90q-121 0 -186 90q-62 84 -62 214q0 129 58 211q68 95 193 95zM283 1060q-69 0 -111 -60q-46 -64 -46 -169t44 -169q42 -60 116 -60q73 0 115 60q44 64 44 168q0 107 -46 170q-43 60 -116 60z" />
    <glyph glyph-name="Omega" unicode="&#x2126;" horiz-adv-x="1260" vert-adv-y="1720" 
d="M100 0v102h291q-120 90 -198 222q-107 179 -107 411q0 315 194 512q147 149 349 149q211 0 359 -156q186 -194 186 -507q0 -250 -127 -442q-73 -111 -178 -189h291v-102h-432v96q322 232 322 628q0 261 -144 436q-112 135 -274 135q-164 0 -277 -135q-145 -173 -145 -437
q0 -395 322 -627v-96h-432z" />
    <glyph glyph-name="ae" unicode="&#xe6;" horiz-adv-x="1459" vert-adv-y="1720" 
d="M1378 445h-636q3 -139 45 -226q73 -154 232 -154q171 0 237 211h109q-21 -98 -73 -170q-99 -135 -272 -135q-239 0 -337 260q-26 -63 -63 -112q-111 -148 -270 -148q-105 0 -178 64q-89 77 -89 205q0 143 112 220q84 58 242 69q71 5 211 6v86q0 123 -51 185
q-59 71 -169 71q-123 0 -170 -88q-27 -50 -34 -137h-104q6 147 81 231q79 88 235 88q207 0 283 -173q116 173 293 173q129 0 226 -91q139 -133 140 -435zM648 445q-193 -4 -252 -15q-96 -18 -143 -61q-57 -53 -57 -128q0 -71 52 -125q50 -51 126 -51q89 0 158 63
q68 62 96 161q20 72 20 131v25zM1265 535q-6 120 -46 201q-37 74 -102 114q-47 30 -107 30q-94 0 -164 -72q-87 -88 -104 -273h523z" />
    <glyph glyph-name="oslash" unicode="&#xf8;" horiz-adv-x="950" vert-adv-y="1720" 
d="M131 -29l70 120q-121 146 -121 380q0 208 94 345q106 155 300 155q114 0 209 -62l36 62h100l-70 -121q121 -141 121 -378q0 -216 -99 -355q-105 -146 -295 -146q-113 0 -207 60l-34 -60h-104zM622 827q-69 49 -147 49q-128 0 -203 -108q-80 -114 -80 -296q0 -176 74 -292
zM330 113q67 -47 146 -47q129 0 204 109q78 112 78 297q0 171 -74 288z" />
    <glyph glyph-name="questiondown" unicode="&#xbf;" horiz-adv-x="874" vert-adv-y="1720" 
d="M791 56q-3 -159 -55 -253t-151 -140q-67 -32 -150 -32q-158 0 -252 99q-86 90 -86 229q0 120 65 213q26 38 126 144q51 55 69 89q28 60 29 197h112q0 -135 -23 -198q-18 -53 -75 -117q-15 -17 -87 -96q-99 -108 -99 -224q0 -92 53 -156q61 -73 170 -73q113 0 181 83
q62 77 69 235h104zM513 942v-205h-139v205h139z" />
    <glyph glyph-name="exclamdown" unicode="&#xa1;" horiz-adv-x="459" vert-adv-y="1720" 
d="M168 -355v434l28 520h67l27 -520v-434h-122zM299 942v-205h-139v205h139z" />
    <glyph glyph-name="logicalnot" unicode="&#xac;" vert-adv-y="1720" 
d="M837 0v454h-769v107h887v-561h-118z" />
    <glyph glyph-name="radical" unicode="&#x221a;" horiz-adv-x="1365" vert-adv-y="1720" 
d="M1365 1693v-98h-409l-489 -1595h-120l-189 625h-158v98h230l171 -576l469 1546h495z" />
    <glyph glyph-name="florin" unicode="&#x192;" horiz-adv-x="535" vert-adv-y="1720" 
d="M98 848v94h147l21 150q22 154 58 208q66 97 180 97q41 0 99 -21v-103q-41 23 -93 23q-45 0 -80 -35q-32 -34 -50 -155l-22 -164h154v-94h-168l-150 -1066h-112l150 1066h-134z" />
    <glyph glyph-name="approxequal" unicode="&#x2248;" vert-adv-y="1720" 
d="M92 712l-69 47q39 77 79 123q81 93 190 93q78 0 236 -82q92 -47 127 -59q43 -15 79 -15q71 0 124 54q36 37 74 101l69 -47q-41 -80 -82 -127q-79 -90 -186 -90q-54 0 -130 32q-37 16 -111 54q-137 70 -206 70q-104 0 -194 -154zM92 388l-69 47q39 76 79 123q80 93 190 93
q79 0 236 -81q92 -48 127 -59q43 -15 79 -15q72 0 124 53q36 37 74 101l69 -47q-40 -79 -82 -127q-79 -90 -185 -90q-55 0 -131 32q-40 17 -111 54q-81 41 -114 53q-50 17 -92 17q-70 0 -126 -59q-33 -36 -68 -95z" />
    <glyph glyph-name="Delta" unicode="&#x2206;" horiz-adv-x="1087" vert-adv-y="1720" 
d="M20 0l459 1365h133l454 -1365h-1046zM544 1230l-363 -1125h719z" />
    <glyph glyph-name="guillemotleft" unicode="&#xab;" horiz-adv-x="700" vert-adv-y="1720" 
d="M312 198l-222 251v115l222 249v-133l-152 -174l152 -170v-138zM569 199l-221 248v115l221 250v-132l-151 -175l151 -172v-134z" />
    <glyph glyph-name="guillemotright" unicode="&#xbb;" horiz-adv-x="700" vert-adv-y="1720" 
d="M387 813l223 -252v-114l-223 -249v132l152 174l-152 171v138zM131 811l221 -247v-115l-221 -250v131l151 175l-151 173v133z" />
    <glyph glyph-name="ellipsis" unicode="&#x2026;" horiz-adv-x="1221" vert-adv-y="1720" 
d="M274 205v-205h-139v205h139zM680 205v-205h-139v205h139zM1085 205v-205h-139v205h139z" />
    <glyph glyph-name="glyph172" horiz-adv-x="971" vert-adv-y="971" 
 />
    <glyph glyph-name="Agrave" unicode="&#xc0;" horiz-adv-x="1087" vert-adv-y="1720" 
d="M479 1365h133l454 -1365h-133l-136 430h-511l-138 -430h-128zM320 535h444l-220 695zM315 1737h126l181 -258h-105z" />
    <glyph glyph-name="Atilde" unicode="&#xc3;" horiz-adv-x="1087" vert-adv-y="1720" 
d="M479 1365h133l454 -1365h-133l-136 430h-511l-138 -430h-128zM320 535h444l-220 695zM814 1703q-11 -70 -35 -113q-47 -80 -124 -80q-54 0 -130 56q-58 42 -92 42q-63 0 -82 -99h-80q9 60 30 102q47 92 129 92q59 0 127 -50q64 -48 92 -48q62 0 83 98h82z" />
    <glyph glyph-name="Otilde" unicode="&#xd5;" horiz-adv-x="1260" vert-adv-y="1720" 
d="M637 1396q158 0 286 -99q135 -103 200 -289q51 -145 51 -329q0 -281 -122 -474q-74 -118 -188 -180q-106 -58 -236 -58q-270 0 -420 238q-122 193 -122 475q0 325 150 517q155 199 401 199zM624 1290q-180 0 -297 -167q-117 -166 -117 -436q0 -253 100 -422
q58 -97 154 -150q76 -42 166 -42q125 0 225 80q106 86 158 255q37 121 37 269q0 271 -115 441q-116 172 -311 172zM901 1703q-11 -70 -35 -113q-47 -80 -124 -80q-54 0 -130 56q-58 42 -92 42q-63 0 -82 -99h-80q9 60 30 102q47 92 129 92q59 0 127 -50q64 -48 92 -48
q62 0 83 98h82z" />
    <glyph glyph-name="OE" unicode="&#x152;" horiz-adv-x="1786" vert-adv-y="1720" 
d="M1703 1365v-106h-637v-499h594v-106h-594v-548h644v-106h-766v113q-29 -34 -50 -55q-95 -91 -272 -91q-179 0 -311 117q-224 198 -224 599q0 319 150 515q151 198 389 198q164 0 269 -92q21 -18 49 -49v110h759zM944 1105q-117 185 -314 185q-186 0 -302 -167
q-117 -167 -117 -436q0 -253 100 -422q57 -98 154 -151q76 -41 166 -41q195 0 313 182v850z" />
    <glyph glyph-name="oe" unicode="&#x153;" horiz-adv-x="1494" vert-adv-y="1720" 
d="M1415 445h-602q2 -137 41 -226q69 -154 218 -154q159 0 221 211h109q-21 -98 -71 -169q-95 -136 -259 -136q-204 0 -307 205q-100 -205 -309 -205q-181 0 -281 146q-95 139 -95 354q0 208 90 345q101 155 287 155q207 0 310 -205q109 205 297 205q125 0 217 -92
q133 -133 134 -434zM454 877q-116 0 -187 -108q-75 -114 -75 -297q0 -185 73 -298q70 -109 193 -109q122 0 192 109q73 113 73 296q0 187 -75 299q-72 108 -194 108zM1301 535q-5 120 -43 201q-33 73 -94 114q-44 30 -100 30q-88 0 -155 -73q-80 -87 -96 -272h488z" />
    <glyph glyph-name="endash" unicode="&#x2013;" horiz-adv-x="966" vert-adv-y="1720" 
d="M845 560v-106h-725v106h725z" />
    <glyph glyph-name="emdash" unicode="&#x2014;" horiz-adv-x="1429" vert-adv-y="1720" 
d="M1293 560v-106h-1152v106h1152z" />
    <glyph glyph-name="quotedblleft" unicode="&#x201c;" horiz-adv-x="661" vert-adv-y="1720" 
d="M135 915v148q0 153 36 222q39 74 116 101v-82q-70 -36 -72 -161v-23h59v-205h-139zM387 915v148q0 153 36 222q39 72 115 101v-82q-69 -39 -71 -161v-23h59v-205h-139z" />
    <glyph glyph-name="quotedblright" unicode="&#x201d;" horiz-adv-x="661" vert-adv-y="1720" 
d="M274 1365v-148q0 -154 -36 -223q-39 -71 -115 -100v82q69 39 71 161v23h-59v205h139zM526 1365v-148q0 -153 -36 -223q-38 -71 -115 -100v82q69 39 71 161v23h-59v205h139z" />
    <glyph glyph-name="quoteleft" unicode="&#x2018;" horiz-adv-x="410" vert-adv-y="1720" 
d="M135 915v148q0 153 36 222q39 74 116 101v-82q-70 -36 -72 -161v-23h59v-205h-139z" />
    <glyph glyph-name="quoteright" unicode="&#x2019;" horiz-adv-x="410" vert-adv-y="1720" 
d="M274 1365v-148q0 -154 -36 -223q-39 -71 -115 -100v82q69 39 71 161v23h-59v205h139z" />
    <glyph glyph-name="divide" unicode="&#xf7;" vert-adv-y="1720" 
d="M68 742h887v-105h-887v105zM571 1090v-174h-118v174h118zM571 462v-174h-118v174h118z" />
    <glyph glyph-name="lozenge" unicode="&#x25ca;" horiz-adv-x="1365" vert-adv-y="1720" 
d="M683 1419l532 -736l-532 -736l-532 736zM683 1237l-404 -554l404 -555l403 555z" />
    <glyph glyph-name="ydieresis" unicode="&#xff;" horiz-adv-x="773" vert-adv-y="1720" 
d="M95 -340v96l14 -4q32 -9 57 -9q52 0 79 27q32 32 57 111l41 126l-331 935h121l266 -782l247 782h114l-360 -1087q-35 -105 -80 -153q-54 -57 -144 -57q-39 0 -81 15zM475 1106v191h115v-191h-115zM181 1106v191h115v-191h-115z" />
    <glyph glyph-name="Ydieresis" unicode="&#x178;" horiz-adv-x="1017" vert-adv-y="1720" 
d="M448 0v565l-450 800h141l373 -682l372 682h135l-449 -800v-565h-122zM612 1488v191h119v-191h-119zM294 1488v191h119v-191h-119z" />
    <glyph glyph-name="fraction" unicode="&#x2044;" horiz-adv-x="402" vert-adv-y="1720" 
d="M-43 0h-97l588 1365h94z" />
    <glyph glyph-name="currency" unicode="&#xa4;" horiz-adv-x="1365" vert-adv-y="1720" 
d="M136 243l185 189q-107 134 -107 294q0 151 107 291l-191 189l66 66l188 -188q141 110 299 110q159 0 296 -110l190 188l65 -66l-189 -187q107 -140 107 -295q0 -154 -106 -292l190 -189l-65 -66l-190 189q-137 -107 -295 -107q-152 0 -297 107l-189 -189zM679 1092
q-146 0 -254 -108q-105 -107 -105 -258t106 -258q107 -107 257 -107t257 107q106 107 106 256q0 156 -105 260q-109 108 -262 108z" />
    <glyph glyph-name="guilsinglleft" unicode="&#x2039;" horiz-adv-x="442" vert-adv-y="1720" 
d="M311 199l-221 247v115l221 250v-131l-151 -175l151 -173v-133z" />
    <glyph glyph-name="guilsinglright" unicode="&#x203a;" horiz-adv-x="442" vert-adv-y="1720" 
d="M131 811l221 -247v-115l-221 -250v131l151 175l-151 173v133z" />
    <glyph glyph-name="fi" unicode="&#xf001;" horiz-adv-x="869" vert-adv-y="1720" 
d="M166 0v848h-137v94h137v150q0 152 29 206q54 98 169 98q39 0 99 -20v-103q-39 22 -88 22q-43 0 -71 -35q-25 -33 -25 -154v-164h164v-94h-164v-848h-113zM615 1174v191h112v-191h-112zM615 0v942h112v-942h-112z" />
    <glyph glyph-name="fl" unicode="&#xf002;" horiz-adv-x="869" vert-adv-y="1720" 
d="M166 0v848h-137v94h137v150q0 152 29 206q54 98 169 98q39 0 99 -20v-103q-39 22 -88 22q-43 0 -71 -35q-25 -33 -25 -154v-164h164v-94h-164v-848h-113zM615 0v1365h112v-1365h-112z" />
    <glyph glyph-name="daggerdbl" unicode="&#x2021;" horiz-adv-x="965" vert-adv-y="1720" 
d="M854 960v-102h-323v-690h323v-102h-323v-421h-102v421h-318v102h318v690h-318v102h318v405h102v-405h323z" />
    <glyph glyph-name="periodcentered" unicode="&#x2219;" horiz-adv-x="397" vert-adv-y="1720" 
d="M266 608v-205h-135v205h135z" />
    <glyph glyph-name="quotesinglbase" unicode="&#x201a;" horiz-adv-x="410" vert-adv-y="1720" 
d="M274 205v-148q0 -154 -36 -223q-39 -71 -115 -100v82q69 39 71 161v23h-59v205h139z" />
    <glyph glyph-name="quotedblbase" unicode="&#x201e;" horiz-adv-x="661" vert-adv-y="1720" 
d="M274 205v-148q0 -154 -36 -223q-39 -71 -115 -100v82q69 39 71 161v23h-59v205h139zM526 205v-148q0 -153 -36 -223q-38 -71 -115 -100v82q69 39 71 161v23h-59v205h139z" />
    <glyph glyph-name="perthousand" unicode="&#x2030;" horiz-adv-x="2451" vert-adv-y="1720" 
d="M2077 838q144 0 237 -120q92 -119 92 -310q0 -168 -74 -283q-92 -144 -260 -144q-166 0 -258 144q-74 115 -74 284q0 194 91 309q96 120 246 120zM2070 747q-100 0 -166 -92t-66 -242q0 -142 56 -236q64 -105 179 -105q106 0 168 89q67 96 67 246q0 152 -65 246t-173 94z
M383 1384q143 0 236 -120q92 -120 92 -310q0 -168 -74 -284q-92 -144 -260 -144q-165 0 -258 144q-74 116 -74 284q0 195 91 310q96 120 247 120zM375 1293q-100 0 -166 -92t-66 -243q0 -141 56 -235q64 -106 179 -106q106 0 168 89q67 97 67 247q0 152 -65 246t-173 94z
M605 0h-99l588 1365h95zM1322 838q144 0 237 -120q92 -120 92 -310q0 -168 -74 -283q-93 -144 -260 -144q-166 0 -259 144q-74 115 -74 284q0 194 91 309q96 120 247 120zM1314 747q-100 0 -166 -92q-66 -91 -66 -242q0 -142 56 -236q64 -105 180 -105q105 0 168 89
q67 96 67 246q0 152 -65 246t-174 94z" />
    <glyph glyph-name="Acircumflex" unicode="&#xc2;" horiz-adv-x="1087" vert-adv-y="1720" 
d="M479 1365h133l454 -1365h-133l-136 430h-511l-138 -430h-128zM320 535h444l-220 695zM800 1475h-113l-148 189l-151 -189h-103l200 259h113z" />
    <glyph glyph-name="Ecircumflex" unicode="&#xca;" horiz-adv-x="1017" vert-adv-y="1720" 
d="M147 0v1365h787v-106h-665v-499h622v-106h-622v-548h672v-106h-794zM766 1475h-113l-148 189l-151 -189h-103l200 259h113z" />
    <glyph glyph-name="Aacute" unicode="&#xc1;" horiz-adv-x="1087" vert-adv-y="1720" 
d="M479 1365h133l454 -1365h-133l-136 430h-511l-138 -430h-128zM320 535h444l-220 695zM771 1737l-202 -258h-105l180 258h127z" />
    <glyph glyph-name="Edieresis" unicode="&#xcb;" horiz-adv-x="1017" vert-adv-y="1720" 
d="M147 0v1365h787v-106h-665v-499h622v-106h-622v-548h672v-106h-794zM608 1488v191h119v-191h-119zM290 1488v191h119v-191h-119z" />
    <glyph glyph-name="Egrave" unicode="&#xc8;" horiz-adv-x="1017" vert-adv-y="1720" 
d="M147 0v1365h787v-106h-665v-499h622v-106h-622v-548h672v-106h-794zM281 1737h126l181 -258h-105z" />
    <glyph glyph-name="Iacute" unicode="&#xcd;" horiz-adv-x="420" vert-adv-y="1720" 
d="M149 0v1365h122v-1365h-122zM438 1737l-202 -258h-105l180 258h127z" />
    <glyph glyph-name="Icircumflex" unicode="&#xce;" horiz-adv-x="420" vert-adv-y="1720" 
d="M148 0v1365h122v-1365h-122zM467 1475h-113l-148 189l-151 -189h-103l200 259h113z" />
    <glyph glyph-name="Idieresis" unicode="&#xcf;" horiz-adv-x="420" vert-adv-y="1720" 
d="M149 0v1365h122v-1365h-122zM272 1488v191h119v-191h-119zM29 1488v191h119v-191h-119z" />
    <glyph glyph-name="Igrave" unicode="&#xcc;" horiz-adv-x="420" vert-adv-y="1720" 
d="M149 0v1365h122v-1365h-122zM-18 1737h126l181 -258h-105z" />
    <glyph glyph-name="Oacute" unicode="&#xd3;" horiz-adv-x="1260" vert-adv-y="1720" 
d="M637 1396q158 0 286 -99q135 -103 200 -289q51 -145 51 -329q0 -281 -122 -474q-74 -118 -188 -180q-106 -58 -236 -58q-270 0 -420 238q-122 193 -122 475q0 325 150 517q155 199 401 199zM624 1290q-180 0 -297 -167q-117 -166 -117 -436q0 -253 100 -422
q58 -97 154 -150q76 -42 166 -42q125 0 225 80q106 86 158 255q37 121 37 269q0 271 -115 441q-116 172 -311 172zM858 1737l-202 -258h-105l180 258h127z" />
    <glyph glyph-name="Ocircumflex" unicode="&#xd4;" horiz-adv-x="1260" vert-adv-y="1720" 
d="M637 1396q158 0 286 -99q135 -103 200 -289q51 -145 51 -329q0 -281 -122 -474q-74 -118 -188 -180q-106 -58 -236 -58q-270 0 -420 238q-122 193 -122 475q0 325 150 517q155 199 401 199zM624 1290q-180 0 -297 -167q-117 -166 -117 -436q0 -253 100 -422
q58 -97 154 -150q76 -42 166 -42q125 0 225 80q106 86 158 255q37 121 37 269q0 271 -115 441q-116 172 -311 172zM887 1475h-113l-148 189l-151 -189h-103l200 259h113z" />
    <glyph glyph-name="Euro" unicode="&#x20ac;" horiz-adv-x="1147" vert-adv-y="1720" 
d="M287 512q15 -112 55 -195q115 -244 351 -244q116 0 197 59q47 33 112 120l85 -65q-65 -91 -121 -132q-115 -84 -281 -84q-190 0 -320 124q-162 157 -199 417h-136l37 100h91q-1 27 -1 50q0 42 3 89h-130l37 100h103q22 158 81 267q150 274 448 274q211 0 357 -130
l-41 -111q-83 73 -145 101q-86 38 -179 38q-255 0 -367 -286q-25 -66 -38 -153h618l-37 -100h-590q-2 -26 -2 -67q0 -44 2 -72h539l-37 -100h-492z" />
    <glyph glyph-name="Ograve" unicode="&#xd2;" horiz-adv-x="1260" vert-adv-y="1720" 
d="M637 1396q158 0 286 -99q135 -103 200 -289q51 -145 51 -329q0 -281 -122 -474q-74 -118 -188 -180q-106 -58 -236 -58q-270 0 -420 238q-122 193 -122 475q0 325 150 517q155 199 401 199zM624 1290q-180 0 -297 -167q-117 -166 -117 -436q0 -253 100 -422
q58 -97 154 -150q76 -42 166 -42q125 0 225 80q106 86 158 255q37 121 37 269q0 271 -115 441q-116 172 -311 172zM402 1737h126l181 -258h-105z" />
    <glyph glyph-name="Uacute" unicode="&#xda;" horiz-adv-x="1162" vert-adv-y="1720" 
d="M131 1365h122v-814q0 -148 18 -223q31 -131 114 -192q85 -63 202 -63q110 0 190 58q84 60 113 191q19 82 19 230v813h122v-814q0 -196 -33 -291q-51 -148 -157 -219q-109 -74 -256 -74q-149 0 -261 74q-120 80 -166 244q-27 95 -27 270v810zM809 1737l-202 -258h-105
l180 258h127z" />
    <glyph glyph-name="Ucircumflex" unicode="&#xdb;" horiz-adv-x="1162" vert-adv-y="1720" 
d="M131 1365h122v-814q0 -148 18 -223q31 -131 114 -192q85 -63 202 -63q110 0 190 58q84 60 113 191q19 82 19 230v813h122v-814q0 -196 -33 -291q-51 -148 -157 -219q-109 -74 -256 -74q-149 0 -261 74q-120 80 -166 244q-27 95 -27 270v810zM839 1475h-113l-148 189
l-151 -189h-103l200 259h113z" />
    <glyph glyph-name="Ugrave" unicode="&#xd9;" horiz-adv-x="1162" vert-adv-y="1720" 
d="M131 1365h122v-814q0 -148 18 -223q31 -131 114 -192q85 -63 202 -63q110 0 190 58q84 60 113 191q19 82 19 230v813h122v-814q0 -196 -33 -291q-51 -148 -157 -219q-109 -74 -256 -74q-149 0 -261 74q-120 80 -166 244q-27 95 -27 270v810zM353 1737h126l181 -258h-105z
" />
    <glyph glyph-name="dotlessi" unicode="&#x131;" horiz-adv-x="395" vert-adv-y="1720" 
d="M141 0v942h112v-942h-112z" />
    <glyph glyph-name="circumflex" unicode="&#x2c6;" vert-adv-y="1720" 
d="M740 1092h-108l-124 197l-126 -197h-98l172 273h110z" />
    <glyph glyph-name="tilde" unicode="&#x2dc;" horiz-adv-x="1036" vert-adv-y="1720" 
d="M779 1318q-11 -76 -35 -124q-44 -88 -118 -88q-54 0 -128 73q-55 55 -89 55q-62 0 -79 -121h-73q7 65 28 111q46 101 130 101q58 0 124 -68q54 -55 85 -55q59 0 79 116h76z" />
    <glyph glyph-name="macron" unicode="&#x2c9;" vert-adv-y="1720" 
d="M744 1237v-90h-464v90h464z" />
    <glyph glyph-name="breve" unicode="&#x2d8;" horiz-adv-x="1034" vert-adv-y="1720" 
d="M739 1365q-30 -273 -222 -273t-222 273h77q26 -179 145 -179t144 179h78z" />
    <glyph glyph-name="dotaccent" unicode="&#x2d9;" vert-adv-y="1720" 
d="M455 1106v191h115v-191h-115z" />
    <glyph glyph-name="ring" unicode="&#x2da;" vert-adv-y="1720" 
d="M511 1358q-41 0 -71 -31q-30 -32 -30 -78q0 -45 30 -77q29 -32 72 -32t73 33q29 31 29 75q0 47 -30 78q-30 32 -73 32zM514 1434q74 0 128 -54t54 -131q0 -75 -53 -129q-54 -55 -132 -55q-77 0 -130 54q-54 54 -54 130q0 79 55 132t132 53z" />
    <glyph glyph-name="cedilla" unicode="&#xb8;" vert-adv-y="1720" 
d="M460 0h75l-40 -108q21 6 42 6q50 0 91 -27q55 -37 55 -110q0 -64 -40 -105q-42 -44 -117 -44q-83 0 -123 52q-17 23 -21 50h86q9 -41 57 -41q33 0 53 22q19 22 19 60t-20 60t-52 22q-42 0 -53 -31h-87z" />
    <glyph glyph-name="hungarumlaut" unicode="&#x2dd;" vert-adv-y="1720" 
d="M613 1365l-178 -273h-99l163 273h114zM841 1365l-178 -273h-99l163 273h114z" />
    <glyph glyph-name="ogonek" unicode="&#x2db;" horiz-adv-x="1036" vert-adv-y="1720" 
d="M917 0q-36 -29 -50 -44q-53 -58 -53 -130q0 -56 42 -83q30 -19 65 -19q26 0 72 19v-72q-58 -23 -104 -23q-83 0 -130 48q-40 41 -40 104q0 112 121 200h77z" />
    <glyph glyph-name="caron" unicode="&#x2c7;" vert-adv-y="1720" 
d="M284 1365h108l124 -197l126 197h98l-172 -273h-109z" />
    <glyph glyph-name="uni00A0" unicode="&#xa0;" horiz-adv-x="396" vert-adv-y="1720" 
 />
    <glyph glyph-name="brokenbar" unicode="&#xa6;" vert-adv-y="1720" 
d="M68 1580h887v-105h-887v105z" />
    <glyph glyph-name="sfthyphen" unicode="&#xad;" horiz-adv-x="403" vert-adv-y="1720" 
d="M395 560v-106h-387v106h387z" />
    <glyph glyph-name="macron" unicode="&#xaf;" vert-adv-y="1720" 
d="M68 1580h887v-105h-887v105z" />
    <glyph glyph-name="twosuperior" unicode="&#xb2;" horiz-adv-x="571" vert-adv-y="1720" 
d="M509 629v-83h-460q0 66 15 125q21 82 70 141q35 42 102 90q98 68 129 104q57 67 57 150q0 62 -33 101q-39 46 -108 46q-76 0 -116 -59q-24 -35 -26 -98h-92q6 72 28 116q60 122 207 122q112 0 177 -75q56 -65 56 -157q0 -111 -81 -193q-36 -37 -156 -122
q-91 -66 -115 -134q-12 -36 -13 -74h359z" />
    <glyph glyph-name="threesuperior" unicode="&#xb3;" horiz-adv-x="579" vert-adv-y="1720" 
d="M41 789h86q1 -179 149 -179q68 0 110 44q44 47 44 124q0 89 -58 133q-42 33 -103 33q-11 0 -45 -3v81h36q58 0 94 28q53 41 53 116q0 64 -39 101q-34 33 -91 33q-135 0 -135 -150h-85q4 99 43 150q60 81 180 81q99 0 160 -59q58 -58 58 -151q0 -126 -106 -182
q129 -53 129 -208q0 -115 -71 -187q-64 -65 -173 -65q-145 0 -205 109q-31 55 -31 132v19z" />
    <glyph glyph-name="periodcentered" unicode="&#xb7;" horiz-adv-x="397" vert-adv-y="1720" 
d="M266 608v-205h-135v205h135z" />
    <glyph glyph-name="onesuperior" unicode="&#xb9;" horiz-adv-x="396" vert-adv-y="1720" 
d="M160 546v633q-24 -21 -55 -29q-17 -5 -71 -6v75q132 -4 144 146h74v-819h-92z" />
    <glyph glyph-name="onequarter" unicode="&#xbc;" horiz-adv-x="1165" vert-adv-y="1720" 
d="M161 546v633q-24 -21 -56 -29q-17 -5 -71 -6v75q133 -4 145 146h74v-819h-92zM291 0h-97l588 1365h94zM954 0v217h-309v75l317 527h72v-529h97v-73h-97v-217h-80zM954 290v371l-231 -371h231z" />
    <glyph glyph-name="onehalf" unicode="&#xbd;" horiz-adv-x="1301" vert-adv-y="1720" 
d="M161 546v633q-24 -21 -56 -29q-17 -5 -71 -6v75q133 -4 145 146h74v-819h-92zM286 0h-97l588 1365h94zM1239 83v-83h-459q-1 95 32 179q32 78 109 141q27 21 116 84q52 36 86 93q29 50 29 111q0 62 -32 101q-39 46 -109 46q-76 0 -116 -59q-24 -35 -26 -97h-92
q6 72 28 116q60 122 207 122q113 0 177 -75q56 -65 56 -157q0 -111 -81 -193q-36 -37 -156 -121q-91 -68 -114 -134q-13 -36 -14 -74h359z" />
    <glyph glyph-name="threequarters" unicode="&#xbe;" horiz-adv-x="1370" vert-adv-y="1720" 
d="M496 0h-97l588 1365h94zM1159 0v217h-309v75l317 527h72v-529h97v-73h-97v-217h-80zM1159 290v371l-231 -371h231zM41 789h86q1 -179 149 -179q68 0 110 44q44 47 44 124q0 89 -58 133q-42 33 -103 33q-11 0 -45 -3v81h36q58 0 94 28q53 41 53 116q0 64 -39 101
q-34 33 -91 33q-135 0 -135 -150h-85q4 99 43 150q60 81 180 81q99 0 160 -59q58 -58 58 -151q0 -126 -106 -182q129 -53 129 -208q0 -115 -71 -187q-64 -65 -173 -65q-145 0 -205 109q-31 55 -31 132v19z" />
    <glyph glyph-name="Eth" unicode="&#xd0;" horiz-adv-x="1171" vert-adv-y="1720" 
d="M0 654v106h147v605h344q166 0 272 -47q154 -68 240 -230q82 -154 82 -392q0 -364 -183 -548q-146 -148 -403 -148h-352v654h-147zM269 106h231q247 0 353 151q108 155 108 437q0 327 -158 467q-109 98 -293 98h-241v-499h323v-106h-323v-548z" />
    <glyph glyph-name="multiply" unicode="&#xd7;" vert-adv-y="1720" 
d="M161 966l74 74l277 -276l277 276l74 -74l-277 -277l277 -276l-74 -74l-277 276l-277 -276l-74 74l277 276z" />
    <glyph glyph-name="Yacute" unicode="&#xdd;" horiz-adv-x="1017" vert-adv-y="1720" 
d="M448 0v565l-450 800h141l373 -682l372 682h135l-449 -800v-565h-122zM736 1737l-202 -258h-105l180 258h127z" />
    <glyph glyph-name="Thorn" unicode="&#xde;" horiz-adv-x="1012" vert-adv-y="1720" 
d="M147 0v1365h122v-273h185q147 0 227 -26q114 -37 181 -133q63 -92 63 -228q0 -216 -161 -322q-113 -74 -324 -74h-171v-309h-122zM269 415h181q179 0 257 64q93 75 93 223q0 164 -116 238q-50 32 -123 42q-35 4 -117 4h-175v-571z" />
    <glyph glyph-name="eth" unicode="&#xf0;" horiz-adv-x="950" vert-adv-y="1720" 
d="M622 1394l43 -74l-135 -78q108 -105 178 -228q162 -282 162 -543q0 -215 -99 -354q-105 -146 -296 -146t-296 146q-99 139 -99 354q0 208 94 345q52 76 136 118q73 37 155 37q98 0 178 -56q-85 140 -131 197q-37 45 -71 79l-168 -97l-43 73l146 85q-43 36 -104 79l44 63
q72 -34 146 -93zM471 877q-123 0 -199 -108q-80 -114 -80 -297q0 -185 78 -298q74 -109 205 -109t205 109q78 113 78 296q0 187 -80 299q-77 108 -207 108z" />
    <glyph glyph-name="yacute" unicode="&#xfd;" horiz-adv-x="773" vert-adv-y="1720" 
d="M95 -340v96l14 -4q32 -9 57 -9q52 0 79 27q32 32 57 111l41 126l-331 935h121l266 -782l247 782h114l-360 -1087q-35 -105 -80 -153q-54 -57 -144 -57q-39 0 -81 15zM603 1365l-178 -273h-103l163 273h118z" />
    <glyph glyph-name="thorn" unicode="&#xfe;" horiz-adv-x="988" vert-adv-y="1720" 
d="M137 -355v1720h111v-589q21 61 67 109q82 86 218 86q167 0 268 -129q107 -138 107 -373q0 -228 -100 -362q-102 -136 -272 -136q-143 0 -232 99q-36 40 -55 86v-511h-112zM518 877q-76 0 -142 -51q-131 -100 -131 -358q0 -189 79 -300q73 -103 197 -103q135 0 207 120
q67 111 67 283q0 188 -77 302q-73 107 -200 107z" />
    <glyph glyph-name="Amacron" unicode="&#x100;" horiz-adv-x="1087" vert-adv-y="1720" 
d="M479 1365h133l454 -1365h-133l-136 430h-511l-138 -430h-128zM320 535h444l-220 695zM811 1588v-86h-535v86h535z" />
    <glyph glyph-name="amacron" unicode="&#x101;" horiz-adv-x="897" vert-adv-y="1720" 
d="M854 96v-89q-40 -17 -79 -17q-72 0 -97 61q-14 34 -14 100v34q-120 -214 -314 -214q-105 0 -178 64q-89 77 -89 207q0 148 113 229q85 62 241 78q66 6 211 10v89q0 229 -206 229q-199 0 -218 -225h-104q6 148 87 230q88 89 246 89q173 0 255 -111q40 -54 49 -145
q4 -35 4 -140v-356q0 -85 7 -106q8 -27 43 -27q17 0 43 10zM648 477q-168 -8 -252 -26q-95 -21 -142 -68q-58 -58 -58 -138q0 -75 52 -129q50 -51 126 -51q89 0 158 63q68 62 96 161q20 72 20 131v57zM681 1237v-90h-464v90h464z" />
    <glyph glyph-name="Abreve" unicode="&#x102;" horiz-adv-x="1087" vert-adv-y="1720" 
d="M479 1365h133l454 -1365h-133l-136 430h-511l-138 -430h-128zM320 535h444l-220 695zM782 1734q-33 -260 -239 -260q-207 0 -239 260h83q28 -166 156 -166t156 166h83z" />
    <glyph glyph-name="abreve" unicode="&#x103;" horiz-adv-x="897" vert-adv-y="1720" 
d="M854 96v-89q-40 -17 -79 -17q-72 0 -97 61q-14 34 -14 100v34q-120 -214 -314 -214q-105 0 -178 64q-89 77 -89 207q0 148 113 229q85 62 241 78q66 6 211 10v89q0 229 -206 229q-199 0 -218 -225h-104q6 148 87 230q88 89 246 89q173 0 255 -111q40 -54 49 -145
q4 -35 4 -140v-356q0 -85 7 -106q8 -27 43 -27q17 0 43 10zM648 477q-168 -8 -252 -26q-95 -21 -142 -68q-58 -58 -58 -138q0 -75 52 -129q50 -51 126 -51q89 0 158 63q68 62 96 161q20 72 20 131v57zM671 1365q-30 -273 -222 -273t-222 273h77q26 -179 145 -179t144 179h78
z" />
    <glyph glyph-name="Aogonek" unicode="&#x104;" horiz-adv-x="1087" vert-adv-y="1720" 
d="M1063 0l-6 -4q-100 -76 -100 -170q0 -56 43 -83q30 -19 67 -19q26 0 74 19v-72q-59 -23 -107 -23q-85 0 -134 48q-41 41 -41 104q0 112 125 200h-51l-136 430h-511l-138 -430h-128l459 1365h133l454 -1365h-3zM320 535h444l-220 695z" />
    <glyph glyph-name="aogonek" unicode="&#x105;" horiz-adv-x="897" vert-adv-y="1720" 
d="M833 -1q-36 -29 -49 -43q-53 -59 -53 -130q0 -56 42 -83q30 -19 66 -19q25 0 72 19v-72q-59 -23 -104 -23q-83 0 -131 48q-40 41 -40 104q0 112 112 192q-36 8 -57 35q-27 35 -27 124v34q-121 -214 -314 -214q-106 0 -179 64q-89 77 -89 208q0 147 113 228q86 62 242 78
q66 6 211 10v89q0 229 -206 229q-199 0 -218 -225h-104q7 148 88 230q88 89 246 89q99 0 177 -44q94 -53 117 -155q13 -57 13 -197v-356q0 -86 7 -107q8 -27 43 -27q17 0 43 11v-89q-11 -5 -21 -8zM648 477q-167 -7 -252 -26q-96 -21 -143 -68q-58 -58 -58 -138
q0 -75 52 -128q50 -52 127 -52q89 0 158 63q68 62 96 161q20 72 20 131v57z" />
    <glyph glyph-name="Cacute" unicode="&#x106;" horiz-adv-x="1182" vert-adv-y="1720" 
d="M985 451h124q-19 -165 -99 -284q-135 -200 -381 -200q-261 0 -416 230q-127 189 -127 480q0 324 151 523q150 197 395 197q142 0 257 -73q173 -111 206 -327h-124q-34 119 -88 180q-101 113 -255 113q-180 0 -291 -153q-127 -177 -127 -455q0 -274 118 -446
q52 -76 130 -119q79 -44 173 -44q167 0 271 145q66 93 83 233zM819 1737l-202 -258h-105l180 258h127z" />
    <glyph glyph-name="cacute" unicode="&#x107;" horiz-adv-x="879" vert-adv-y="1720" 
d="M694 302h114q-10 -104 -65 -187q-96 -144 -279 -144q-187 0 -288 146q-96 139 -96 355q0 207 91 345q102 154 294 154q158 0 254 -114q59 -70 80 -178h-115q-17 75 -50 117q-64 81 -170 81q-124 0 -196 -108q-76 -114 -76 -297q0 -185 74 -298q71 -109 198 -109
q120 0 187 109q32 51 43 128zM656 1365l-178 -273h-103l163 273h118z" />
    <glyph glyph-name="Ccircumflex" unicode="&#x108;" horiz-adv-x="1182" vert-adv-y="1720" 
d="M985 451h124q-19 -165 -99 -284q-135 -200 -381 -200q-261 0 -416 230q-127 189 -127 480q0 324 151 523q150 197 395 197q142 0 257 -73q173 -111 206 -327h-124q-34 119 -88 180q-101 113 -255 113q-180 0 -291 -153q-127 -177 -127 -455q0 -274 118 -446
q52 -76 130 -119q79 -44 173 -44q167 0 271 145q66 93 83 233zM886 1475h-113l-148 189l-151 -189h-103l200 259h113z" />
    <glyph glyph-name="Cdotaccent" unicode="&#x10a;" horiz-adv-x="1182" vert-adv-y="1720" 
d="M985 451h124q-19 -165 -99 -284q-135 -200 -381 -200q-261 0 -416 230q-127 189 -127 480q0 324 151 523q150 197 395 197q142 0 257 -73q173 -111 206 -327h-124q-34 119 -88 180q-101 113 -255 113q-180 0 -291 -153q-127 -177 -127 -455q0 -274 118 -446
q52 -76 130 -119q79 -44 173 -44q167 0 271 145q66 93 83 233zM563 1488v191h119v-191h-119z" />
    <glyph glyph-name="cdotaccent" unicode="&#x10b;" horiz-adv-x="879" vert-adv-y="1720" 
d="M694 302h114q-10 -104 -65 -187q-96 -144 -279 -144q-187 0 -288 146q-96 139 -96 355q0 207 91 345q102 154 294 154q158 0 254 -114q59 -70 80 -178h-115q-17 75 -50 117q-64 81 -170 81q-124 0 -196 -108q-76 -114 -76 -297q0 -185 74 -298q71 -109 198 -109
q120 0 187 109q32 51 43 128zM412 1106v191h115v-191h-115z" />
    <glyph glyph-name="Ccaron" unicode="&#x10c;" horiz-adv-x="1182" vert-adv-y="1720" 
d="M985 451h124q-19 -165 -99 -284q-135 -200 -381 -200q-261 0 -416 230q-127 189 -127 480q0 324 151 523q150 197 395 197q142 0 257 -73q173 -111 206 -327h-124q-34 119 -88 180q-101 113 -255 113q-180 0 -291 -153q-127 -177 -127 -455q0 -274 118 -446
q52 -76 130 -119q79 -44 173 -44q167 0 271 145q66 93 83 233zM371 1734h114l147 -190l151 190h103l-200 -259h-113z" />
    <glyph glyph-name="ccaron" unicode="&#x10d;" horiz-adv-x="879" vert-adv-y="1720" 
d="M694 302h114q-10 -104 -65 -187q-96 -144 -279 -144q-187 0 -288 146q-96 139 -96 355q0 207 91 345q102 154 294 154q158 0 254 -114q59 -70 80 -178h-115q-17 75 -50 117q-64 81 -170 81q-124 0 -196 -108q-76 -114 -76 -297q0 -185 74 -298q71 -109 198 -109
q120 0 187 109q32 51 43 128zM241 1365h108l124 -197l126 197h98l-172 -273h-109z" />
    <glyph glyph-name="Dcaron" unicode="&#x10e;" horiz-adv-x="1170" vert-adv-y="1720" 
d="M147 0v1365h343q166 0 271 -47q154 -68 240 -229q82 -155 82 -393q0 -365 -182 -548q-147 -148 -403 -148h-351zM269 106h230q246 0 352 151q108 154 108 437q0 327 -157 467q-109 98 -293 98h-240v-1153zM328 1734h114l147 -190l151 190h103l-200 -259h-113z" />
    <glyph glyph-name="dcaron" unicode="&#x10f;" horiz-adv-x="989" vert-adv-y="1720" 
d="M852 0h-104v173q-90 -202 -293 -202q-161 0 -266 129q-109 136 -109 371q0 230 102 363q105 137 274 137q134 0 228 -101q36 -38 55 -84v579h113v-1365zM462 877q-129 0 -202 -120q-68 -110 -68 -289q0 -185 77 -297q73 -106 196 -106q127 0 200 105q79 115 79 298
q0 194 -79 306q-73 103 -203 103zM1098 1367v-110q0 -94 -36 -137q-39 -44 -115 -62v61q68 19 71 79v17h-59v152h139z" />
    <glyph glyph-name="Dcroat" unicode="&#x110;" horiz-adv-x="1171" vert-adv-y="1720" 
d="M0 654v106h147v605h344q166 0 272 -47q154 -68 240 -230q82 -154 82 -392q0 -364 -183 -548q-146 -148 -403 -148h-352v654h-147zM269 106h231q247 0 353 151q108 155 108 437q0 327 -158 467q-109 98 -293 98h-241v-499h323v-106h-323v-548z" />
    <glyph glyph-name="dcroat" unicode="&#x111;" horiz-adv-x="989" vert-adv-y="1720" 
d="M852 0h-104v173q-90 -202 -293 -202q-161 0 -266 129q-109 136 -109 371q0 231 102 363q105 137 275 137q133 0 227 -101q36 -39 55 -84v316h-273v90h273v173h113v-173h137v-90h-137v-1102zM463 877q-130 0 -203 -120q-68 -111 -68 -289q0 -184 77 -297q72 -106 197 -106
q126 0 199 105q79 115 79 298q0 194 -79 306q-73 103 -202 103z" />
    <glyph glyph-name="Emacron" unicode="&#x112;" horiz-adv-x="1017" vert-adv-y="1720" 
d="M147 0v1365h787v-106h-665v-499h622v-106h-622v-548h672v-106h-794zM806 1588v-86h-535v86h535z" />
    <glyph glyph-name="emacron" unicode="&#x113;" horiz-adv-x="908" vert-adv-y="1720" 
d="M829 445h-637q3 -137 45 -226q73 -154 232 -154q172 0 238 211h108q-21 -98 -73 -170q-99 -135 -274 -135q-190 0 -294 151q-94 137 -94 350q0 223 109 362q108 137 271 137q132 0 228 -92q140 -132 141 -434zM715 535q-5 120 -46 201q-37 74 -101 114q-48 30 -108 30
q-93 0 -164 -72q-86 -88 -104 -273h523zM686 1237v-90h-464v90h464z" />
    <glyph glyph-name="Ebreve" unicode="&#x114;" horiz-adv-x="1017" vert-adv-y="1720" 
d="M147 0v1365h787v-106h-665v-499h622v-106h-622v-548h672v-106h-794zM797 1734q-33 -260 -239 -260q-207 0 -239 260h83q28 -166 156 -166t156 166h83z" />
    <glyph glyph-name="ebreve" unicode="&#x115;" horiz-adv-x="908" vert-adv-y="1720" 
d="M829 445h-637q3 -137 45 -226q73 -154 232 -154q172 0 238 211h108q-21 -98 -73 -170q-99 -135 -274 -135q-190 0 -294 151q-94 137 -94 350q0 223 109 362q108 137 271 137q132 0 228 -92q140 -132 141 -434zM715 535q-5 120 -46 201q-37 74 -101 114q-48 30 -108 30
q-93 0 -164 -72q-86 -88 -104 -273h523zM681 1365q-30 -273 -222 -273t-222 273h77q26 -179 145 -179t144 179h78z" />
    <glyph glyph-name="Edotaccent" unicode="&#x116;" horiz-adv-x="1017" vert-adv-y="1720" 
d="M147 0v1365h787v-106h-665v-499h622v-106h-622v-548h672v-106h-794zM473 1488v191h119v-191h-119z" />
    <glyph glyph-name="edotaccent" unicode="&#x117;" horiz-adv-x="908" vert-adv-y="1720" 
d="M829 445h-637q3 -137 45 -226q73 -154 232 -154q172 0 238 211h108q-21 -98 -73 -170q-99 -135 -274 -135q-190 0 -294 151q-94 137 -94 350q0 223 109 362q108 137 271 137q132 0 228 -92q140 -132 141 -434zM715 535q-5 120 -46 201q-37 74 -101 114q-48 30 -108 30
q-93 0 -164 -72q-86 -88 -104 -273h523zM397 1106v191h115v-191h-115z" />
    <glyph glyph-name="Eogonek" unicode="&#x118;" horiz-adv-x="1017" vert-adv-y="1720" 
d="M940 0q-106 -78 -106 -174q0 -56 43 -83q30 -19 67 -19q26 0 74 19v-72q-59 -23 -107 -23q-85 0 -134 48q-41 41 -41 104q0 112 124 200h-713v1365h787v-106h-665v-499h622v-106h-622v-548h672v-106h-1z" />
    <glyph glyph-name="eogonek" unicode="&#x119;" horiz-adv-x="908" vert-adv-y="1720" 
d="M607 -3q-100 -78 -100 -171q0 -56 42 -83q29 -19 65 -19q26 0 72 19v-72q-58 -23 -104 -23q-83 0 -130 48q-40 41 -40 104q0 92 86 172q-20 -1 -30 -1q-146 0 -245 94q-143 136 -143 407q0 223 109 362q108 137 272 137q131 0 227 -92q140 -132 141 -434h-636
q2 -137 44 -226q74 -154 232 -154q172 0 238 211h109q-18 -91 -74 -169q-55 -76 -135 -110zM715 535q-5 120 -45 201q-37 73 -102 114q-48 30 -108 30q-93 0 -164 -72q-86 -88 -103 -273h522z" />
    <glyph glyph-name="Ecaron" unicode="&#x11a;" horiz-adv-x="1017" vert-adv-y="1720" 
d="M147 0v1365h787v-106h-665v-499h622v-106h-622v-548h672v-106h-794zM271 1734h114l147 -190l151 190h103l-200 -259h-113z" />
    <glyph glyph-name="ecaron" unicode="&#x11b;" horiz-adv-x="908" vert-adv-y="1720" 
d="M829 445h-637q3 -137 45 -226q73 -154 232 -154q172 0 238 211h108q-21 -98 -73 -170q-99 -135 -274 -135q-190 0 -294 151q-94 137 -94 350q0 223 109 362q108 137 271 137q132 0 228 -92q140 -132 141 -434zM715 535q-5 120 -46 201q-37 74 -101 114q-48 30 -108 30
q-93 0 -164 -72q-86 -88 -104 -273h523zM226 1365h108l124 -197l126 197h98l-172 -273h-109z" />
    <glyph glyph-name="Gcircumflex" unicode="&#x11c;" horiz-adv-x="1252" vert-adv-y="1720" 
d="M1129 0h-102v239q-55 -99 -109 -153q-117 -119 -289 -119q-261 0 -416 230q-127 190 -127 481q0 323 151 522q150 197 397 197q145 0 262 -73q172 -106 211 -320h-125q-34 114 -91 176q-102 111 -262 111q-181 0 -292 -153q-127 -177 -127 -456q0 -274 118 -446
q112 -163 307 -163q138 0 236 102q125 129 142 341q2 24 4 72h-383v106h495v-694zM886 1475h-113l-148 189l-151 -189h-103l200 259h113z" />
    <glyph glyph-name="gcircumflex" unicode="&#x11d;" horiz-adv-x="970" vert-adv-y="1720" 
d="M725 942h108v-809q0 -130 -14 -197q-28 -128 -124 -208q-100 -83 -240 -83q-151 0 -247 90q-72 68 -93 182h117q14 -69 54 -110q65 -68 173 -68q136 0 207 113q54 86 54 240v109q-22 -54 -61 -96q-88 -93 -209 -93q-165 0 -269 135q-101 130 -101 355q0 224 108 348
q104 121 260 121q195 0 277 -187v158zM452 877q-115 0 -186 -96q-74 -101 -74 -274q0 -170 64 -282q68 -119 197 -119q77 0 142 50q65 49 98 151q29 89 29 196q0 177 -76 278q-71 96 -194 96zM708 1092h-108l-124 197l-126 -197h-98l172 273h110z" />
    <glyph glyph-name="Gbreve" unicode="&#x11e;" horiz-adv-x="1252" vert-adv-y="1720" 
d="M1129 0h-102v239q-55 -99 -109 -153q-117 -119 -289 -119q-261 0 -416 230q-127 190 -127 481q0 323 151 522q150 197 397 197q145 0 262 -73q172 -106 211 -320h-125q-34 114 -91 176q-102 111 -262 111q-181 0 -292 -153q-127 -177 -127 -456q0 -274 118 -446
q112 -163 307 -163q138 0 236 102q125 129 142 341q2 24 4 72h-383v106h495v-694zM865 1734q-33 -260 -239 -260q-207 0 -239 260h83q28 -166 156 -166t156 166h83z" />
    <glyph glyph-name="gbreve" unicode="&#x11f;" horiz-adv-x="970" vert-adv-y="1720" 
d="M725 942h108v-809q0 -130 -14 -197q-28 -128 -124 -208q-100 -83 -240 -83q-151 0 -247 90q-72 68 -93 182h117q14 -69 54 -110q65 -68 173 -68q136 0 207 113q54 86 54 240v109q-22 -54 -61 -96q-88 -93 -209 -93q-165 0 -269 135q-101 130 -101 355q0 224 108 348
q104 121 260 121q195 0 277 -187v158zM452 877q-115 0 -186 -96q-74 -101 -74 -274q0 -170 64 -282q68 -119 197 -119q77 0 142 50q65 49 98 151q29 89 29 196q0 177 -76 278q-71 96 -194 96zM679 1365q-30 -273 -222 -273t-222 273h77q26 -179 145 -179t144 179h78z" />
    <glyph glyph-name="Gdotaccent" unicode="&#x120;" horiz-adv-x="1252" vert-adv-y="1720" 
d="M1129 0h-102v239q-55 -99 -109 -153q-117 -119 -289 -119q-261 0 -416 230q-127 190 -127 481q0 323 151 522q150 197 397 197q145 0 262 -73q172 -106 211 -320h-125q-34 114 -91 176q-102 111 -262 111q-181 0 -292 -153q-127 -177 -127 -456q0 -274 118 -446
q112 -163 307 -163q138 0 236 102q125 129 142 341q2 24 4 72h-383v106h495v-694zM573 1488v191h119v-191h-119z" />
    <glyph glyph-name="gdotaccent" unicode="&#x121;" horiz-adv-x="970" vert-adv-y="1720" 
d="M725 942h108v-809q0 -130 -14 -197q-28 -128 -124 -208q-100 -83 -240 -83q-151 0 -247 90q-72 68 -93 182h117q14 -69 54 -110q65 -68 173 -68q136 0 207 113q54 86 54 240v109q-22 -54 -61 -96q-88 -93 -209 -93q-165 0 -269 135q-101 130 -101 355q0 224 108 348
q104 121 260 121q195 0 277 -187v158zM452 877q-115 0 -186 -96q-74 -101 -74 -274q0 -170 64 -282q68 -119 197 -119q77 0 142 50q65 49 98 151q29 89 29 196q0 177 -76 278q-71 96 -194 96zM390 1106v191h115v-191h-115z" />
    <glyph glyph-name="Gcommaaccent" unicode="&#x122;" horiz-adv-x="1252" vert-adv-y="1720" 
d="M1129 0h-102v239q-55 -99 -109 -153q-117 -119 -289 -119q-261 0 -416 230q-127 190 -127 481q0 323 151 522q150 197 397 197q145 0 262 -73q172 -106 211 -320h-125q-34 114 -91 176q-102 111 -262 111q-181 0 -292 -153q-127 -177 -127 -456q0 -274 118 -446
q112 -163 307 -163q138 0 236 102q125 129 142 341q2 24 4 72h-383v106h495v-694zM708 -95v-110q0 -95 -36 -138q-38 -44 -115 -61v60q68 20 71 79v18h-59v152h139z" />
    <glyph glyph-name="gcommaaccent" unicode="&#x123;" horiz-adv-x="970" vert-adv-y="1720" 
d="M725 942h108v-809q0 -130 -14 -197q-28 -128 -124 -208q-100 -83 -240 -83q-151 0 -247 90q-72 68 -93 182h117q14 -69 54 -110q65 -68 173 -68q136 0 207 113q54 86 54 240v109q-22 -54 -61 -96q-88 -93 -209 -93q-165 0 -269 135q-101 130 -101 355q0 224 108 348
q104 121 260 121q195 0 277 -187v158zM452 877q-115 0 -186 -96q-74 -101 -74 -274q0 -170 64 -282q68 -119 197 -119q77 0 142 50q65 49 98 151q29 89 29 196q0 177 -76 278q-71 96 -194 96zM397 1058v110q0 94 36 137q40 45 115 62v-61q-68 -19 -71 -79v-17h59v-152h-139z
" />
    <glyph glyph-name="Hcircumflex" unicode="&#x124;" horiz-adv-x="1207" vert-adv-y="1720" 
d="M147 0v1365h122v-596h668v596h122v-1365h-122v663h-668v-663h-122zM876 1475h-113l-148 189l-151 -189h-103l200 259h113z" />
    <glyph glyph-name="Imacron" unicode="&#x12a;" horiz-adv-x="535" vert-adv-y="1720" 
d="M206 0v1365h122v-1365h-122zM535 1588v-86h-535v86h535z" />
    <glyph glyph-name="imacron" unicode="&#x12b;" horiz-adv-x="464" vert-adv-y="1720" 
d="M176 0v942h112v-942h-112zM464 1237v-90h-464v90h464z" />
    <glyph glyph-name="ibreve" unicode="&#x12d;" horiz-adv-x="397" vert-adv-y="1720" 
d="M176 0v942h112v-942h-112zM459 1365q-30 -273 -222 -273t-222 273h77q26 -179 145 -179t144 179h78z" />
    <glyph glyph-name="Iogonek" unicode="&#x12e;" horiz-adv-x="417" vert-adv-y="1720" 
d="M347 -257v-72q-60 -23 -107 -23q-86 0 -134 48q-41 41 -41 104q0 109 125 200h-43v1365h123v-1365q-107 -78 -107 -174q0 -56 43 -83q31 -19 68 -19q27 0 73 19z" />
    <glyph glyph-name="iogonek" unicode="&#x12f;" horiz-adv-x="395" vert-adv-y="1720" 
d="M253 0l-5 -5q-99 -76 -99 -169q0 -56 42 -83q30 -19 66 -19q27 0 72 19v-72q-58 -23 -104 -23q-84 0 -131 48q-40 41 -40 104q0 111 122 200h-35v942h113v-942h-1zM141 1174v191h112v-191h-112z" />
    <glyph glyph-name="Idot" unicode="&#x130;" horiz-adv-x="417" vert-adv-y="1720" 
d="M147 0v1365h122v-1365h-122zM149 1488v191h119v-191h-119z" />
    <glyph glyph-name="Kcommaaccent" unicode="&#x136;" horiz-adv-x="1088" vert-adv-y="1720" 
d="M147 1365h122v-691l645 691h141l-542 -580l564 -785h-138l-505 701l-165 -177v-524h-122v1365zM682 -95v-110q0 -95 -36 -138q-38 -44 -115 -61v60q68 20 71 79v18h-59v152h139z" />
    <glyph glyph-name="kcommaaccent" unicode="&#x137;" horiz-adv-x="890" vert-adv-y="1720" 
d="M137 0v1365h112v-846l449 423h140l-376 -354l396 -588h-128l-347 514l-134 -127v-387h-112zM526 -95v-110q0 -95 -36 -138q-38 -44 -115 -61v60q68 20 71 79v18h-59v152h139z" />
    <glyph glyph-name="Lacute" unicode="&#x139;" horiz-adv-x="923" vert-adv-y="1720" 
d="M131 0v1365h122v-1259h631v-106h-753zM682 1737l-202 -258h-105l180 258h127z" />
    <glyph glyph-name="lacute" unicode="&#x13a;" horiz-adv-x="397" vert-adv-y="1720" 
d="M125 0v1365h112v-1365h-112zM450 1737l-202 -258h-105l180 258h127z" />
    <glyph glyph-name="Lcommaaccent" unicode="&#x13b;" horiz-adv-x="939" vert-adv-y="1720" 
d="M147 0v1365h122v-1259h631v-106h-753zM570 -95v-110q0 -95 -36 -138q-38 -44 -115 -61v60q68 20 71 79v18h-59v152h139z" />
    <glyph glyph-name="lcommaaccent" unicode="&#x13c;" horiz-adv-x="395" vert-adv-y="1720" 
d="M142 0v1365h112v-1365h-112zM267 -95v-110q0 -95 -36 -138q-38 -44 -115 -61v60q68 20 71 79v18h-59v152h139z" />
    <glyph glyph-name="Lcaron" unicode="&#x13d;" horiz-adv-x="939" vert-adv-y="1720" 
d="M147 0v1365h122v-1259h631v-106h-753zM711 1367v-110q0 -94 -36 -137q-39 -44 -115 -62v61q68 19 71 79v17h-59v152h139z" />
    <glyph glyph-name="lcaron" unicode="&#x13e;" horiz-adv-x="395" vert-adv-y="1720" 
d="M141 0v1365h112v-1365h-112zM510 1365v-110q0 -94 -36 -137q-39 -44 -115 -62v61q68 19 71 79v17h-59v152h139z" />
    <glyph glyph-name="Lslash" unicode="&#x141;" horiz-adv-x="939" vert-adv-y="1720" 
d="M17 473v127l131 98v667h122v-591l242 176v-127l-242 -176v-541h631v-106h-753v571z" />
    <glyph glyph-name="lslash" unicode="&#x142;" horiz-adv-x="395" vert-adv-y="1720" 
d="M0 501v127l141 125v612h112v-526l142 124v-126l-142 -125v-712h-112v626z" />
    <glyph glyph-name="Nacute" unicode="&#x143;" horiz-adv-x="1205" vert-adv-y="1720" 
d="M147 0v1365h131l663 -1169v1169h116v-1365h-132l-662 1163v-1163h-116zM830 1737l-202 -258h-105l180 258h127z" />
    <glyph glyph-name="nacute" unicode="&#x144;" horiz-adv-x="951" vert-adv-y="1720" 
d="M137 0v942h106v-159q99 188 287 188q111 0 188 -65q72 -61 92 -173q10 -53 10 -140v-593h-112v555q0 144 -26 213q-18 47 -63 77q-47 32 -110 32q-111 0 -184 -87q-52 -62 -67 -162q-9 -55 -9 -156v-472h-112zM692 1365l-178 -273h-103l163 273h118z" />
    <glyph glyph-name="Ncommaaccent" unicode="&#x145;" horiz-adv-x="1205" vert-adv-y="1720" 
d="M147 0v1365h131l663 -1169v1169h116v-1365h-132l-662 1163v-1163h-116zM671 -95v-110q0 -95 -36 -138q-38 -44 -115 -61v60q68 20 71 79v18h-59v152h139z" />
    <glyph glyph-name="ncommaaccent" unicode="&#x146;" horiz-adv-x="951" vert-adv-y="1720" 
d="M137 0v942h106v-159q99 188 287 188q111 0 188 -65q72 -61 92 -173q10 -53 10 -140v-593h-112v555q0 144 -26 213q-18 47 -63 77q-47 32 -110 32q-111 0 -184 -87q-52 -62 -67 -162q-9 -55 -9 -156v-472h-112zM548 -95v-110q0 -95 -36 -138q-38 -44 -115 -61v60
q68 20 71 79v18h-59v152h139z" />
    <glyph glyph-name="Ncaron" unicode="&#x147;" horiz-adv-x="1205" vert-adv-y="1720" 
d="M147 0v1365h131l663 -1169v1169h116v-1365h-132l-662 1163v-1163h-116zM344 1734h114l147 -190l151 190h103l-200 -259h-113z" />
    <glyph glyph-name="ncaron" unicode="&#x148;" horiz-adv-x="951" vert-adv-y="1720" 
d="M137 0v942h106v-159q99 188 287 188q111 0 188 -65q72 -61 92 -173q10 -53 10 -140v-593h-112v555q0 144 -26 213q-18 47 -63 77q-47 32 -110 32q-111 0 -184 -87q-52 -62 -67 -162q-9 -55 -9 -156v-472h-112zM247 1365h108l124 -197l126 197h98l-172 -273h-109z" />
    <glyph glyph-name="Omacron" unicode="&#x14c;" horiz-adv-x="1260" vert-adv-y="1720" 
d="M637 1396q158 0 286 -99q135 -103 200 -289q51 -145 51 -329q0 -281 -122 -474q-74 -118 -188 -180q-106 -58 -236 -58q-270 0 -420 238q-122 193 -122 475q0 325 150 517q155 199 401 199zM624 1290q-180 0 -297 -167q-117 -166 -117 -436q0 -253 100 -422
q58 -97 154 -150q76 -42 166 -42q125 0 225 80q106 86 158 255q37 121 37 269q0 271 -115 441q-116 172 -311 172zM897 1588v-86h-535v86h535z" />
    <glyph glyph-name="omacron" unicode="&#x14d;" horiz-adv-x="950" vert-adv-y="1720" 
d="M481 971q124 0 221 -76q92 -72 135 -204q33 -98 33 -220q0 -215 -99 -354q-105 -146 -296 -146t-296 146q-99 139 -99 353q0 212 94 346q108 155 307 155zM471 877q-123 0 -199 -108q-80 -114 -80 -297q0 -185 78 -298q74 -109 205 -109t205 109q78 113 78 296
q0 187 -80 299q-77 108 -207 108zM707 1237v-90h-464v90h464z" />
    <glyph glyph-name="Ohungarumlaut" unicode="&#x150;" horiz-adv-x="1260" vert-adv-y="1720" 
d="M637 1396q158 0 286 -99q135 -103 200 -289q51 -145 51 -329q0 -281 -122 -474q-74 -118 -188 -180q-106 -58 -236 -58q-270 0 -420 238q-122 193 -122 475q0 325 150 517q155 199 401 199zM624 1290q-180 0 -297 -167q-117 -166 -117 -436q0 -253 100 -422
q58 -97 154 -150q76 -42 166 -42q125 0 225 80q106 86 158 255q37 121 37 269q0 271 -115 441q-116 172 -311 172zM721 1737l-202 -258h-105l180 258h127zM967 1737l-202 -258h-105l180 258h127z" />
    <glyph glyph-name="ohungarumlaut" unicode="&#x151;" horiz-adv-x="950" vert-adv-y="1720" 
d="M481 971q124 0 221 -76q92 -72 135 -204q33 -98 33 -220q0 -215 -99 -354q-105 -146 -296 -146t-296 146q-99 139 -99 353q0 212 94 346q108 155 307 155zM471 877q-123 0 -199 -108q-80 -114 -80 -297q0 -185 78 -298q74 -109 205 -109t205 109q78 113 78 296
q0 187 -80 299q-77 108 -207 108zM576 1365l-178 -273h-99l163 273h114zM804 1365l-178 -273h-99l163 273h114z" />
    <glyph glyph-name="Racute" unicode="&#x154;" horiz-adv-x="1145" vert-adv-y="1720" 
d="M147 0v1365h443q122 0 194 -25q116 -40 177 -138q50 -80 50 -198q0 -171 -108 -273q-54 -50 -133 -72q96 -19 148 -81q37 -44 54 -139q10 -52 17 -153q9 -143 19 -198q11 -55 34 -88h-138q-20 36 -28 75q-9 34 -18 202q-9 150 -35 203q-40 85 -156 115q-58 16 -176 16
h-222v-611h-122zM269 714h280q171 0 242 55q95 76 95 230q0 143 -93 212q-65 48 -207 48h-317v-545zM800 1737l-202 -258h-105l180 258h127z" />
    <glyph glyph-name="racute" unicode="&#x155;" horiz-adv-x="557" vert-adv-y="1720" 
d="M137 0v942h106v-204q85 240 312 233v-118q-22 1 -34 1q-125 0 -202 -109q-50 -72 -64 -188q-6 -57 -6 -171v-386h-112zM497 1365l-178 -273h-103l163 273h118z" />
    <glyph glyph-name="Rcommaaccent" unicode="&#x156;" horiz-adv-x="1145" vert-adv-y="1720" 
d="M147 0v1365h443q122 0 194 -25q116 -40 177 -138q50 -80 50 -198q0 -171 -108 -273q-54 -50 -133 -72q96 -19 148 -81q37 -44 54 -139q10 -52 17 -153q9 -143 19 -198q11 -55 34 -88h-138q-20 36 -28 75q-9 34 -18 202q-9 150 -35 203q-40 85 -156 115q-58 16 -176 16
h-222v-611h-122zM269 714h280q171 0 242 55q95 76 95 230q0 143 -93 212q-65 48 -207 48h-317v-545zM645 -95v-110q0 -95 -36 -138q-38 -44 -115 -61v60q68 20 71 79v18h-59v152h139z" />
    <glyph glyph-name="rcommaaccent" unicode="&#x157;" horiz-adv-x="557" vert-adv-y="1720" 
d="M138 0v942h106v-204q85 240 312 233v-118q-22 1 -34 1q-125 0 -202 -109q-50 -72 -64 -188q-6 -57 -6 -171v-386h-112zM264 -95v-110q0 -95 -36 -138q-38 -44 -115 -61v60q68 20 71 79v18h-59v152h139z" />
    <glyph glyph-name="Rcaron" unicode="&#x158;" horiz-adv-x="1145" vert-adv-y="1720" 
d="M147 0v1365h443q122 0 194 -25q116 -40 177 -138q50 -80 50 -198q0 -171 -108 -273q-54 -50 -133 -72q96 -19 148 -81q37 -44 54 -139q10 -52 17 -153q9 -143 19 -198q11 -55 34 -88h-138q-20 36 -28 75q-9 34 -18 202q-9 150 -35 203q-40 85 -156 115q-58 16 -176 16
h-222v-611h-122zM269 714h280q171 0 242 55q95 76 95 230q0 143 -93 212q-65 48 -207 48h-317v-545zM315 1734h114l147 -190l151 190h103l-200 -259h-113z" />
    <glyph glyph-name="rcaron" unicode="&#x159;" horiz-adv-x="588" vert-adv-y="1720" 
d="M167 0v942h106v-204q85 240 312 233v-118q-22 1 -34 1q-125 0 -202 -109q-50 -72 -64 -188q-6 -57 -6 -171v-386h-112zM82 1365h108l124 -197l126 197h98l-172 -273h-109z" />
    <glyph glyph-name="Sacute" unicode="&#x15a;" horiz-adv-x="1035" vert-adv-y="1720" 
d="M68 383h117q17 -121 82 -197q95 -111 261 -111q140 0 221 74q88 80 88 210q0 137 -112 211q-56 37 -269 97q-155 43 -227 93q-142 99 -142 279q0 144 98 244q113 114 306 114q248 0 367 -175q51 -75 66 -190h-127q-19 108 -68 164q-82 94 -237 94q-132 0 -208 -73
q-75 -72 -75 -181q0 -117 86 -180q67 -50 220 -92q154 -43 197 -60q255 -104 255 -344q0 -166 -113 -276q-122 -117 -322 -117q-242 0 -365 154q-81 102 -99 262zM745 1737l-202 -258h-105l180 258h127z" />
    <glyph glyph-name="sacute" unicode="&#x15b;" horiz-adv-x="785" vert-adv-y="1720" 
d="M68 265h112q11 -78 52 -128q62 -72 170 -72q91 0 144 48q58 52 58 135q0 90 -78 139q-37 24 -186 64q-100 27 -157 67q-98 70 -98 193q0 104 73 177q81 83 219 83q175 0 262 -124q36 -52 47 -134h-112q-30 166 -193 166q-87 0 -138 -48q-49 -47 -49 -117q0 -75 59 -117
q42 -29 154 -60q163 -46 212 -84q98 -77 98 -204q0 -118 -82 -195q-87 -83 -234 -83q-172 0 -261 109q-58 70 -72 185zM609 1365l-178 -273h-103l163 273h118z" />
    <glyph glyph-name="Scircumflex" unicode="&#x15c;" horiz-adv-x="1035" vert-adv-y="1720" 
d="M68 383h117q17 -121 82 -197q95 -111 261 -111q140 0 221 74q88 80 88 210q0 137 -112 211q-56 37 -269 97q-155 43 -227 93q-142 99 -142 279q0 144 98 244q113 114 306 114q248 0 367 -175q51 -75 66 -190h-127q-19 108 -68 164q-82 94 -237 94q-132 0 -208 -73
q-75 -72 -75 -181q0 -117 86 -180q67 -50 220 -92q154 -43 197 -60q255 -104 255 -344q0 -166 -113 -276q-122 -117 -322 -117q-242 0 -365 154q-81 102 -99 262zM766 1475h-113l-148 189l-151 -189h-103l200 259h113z" />
    <glyph glyph-name="scircumflex" unicode="&#x15d;" horiz-adv-x="785" vert-adv-y="1720" 
d="M68 265h112q11 -78 52 -128q62 -72 170 -72q91 0 144 48q58 52 58 135q0 90 -78 139q-37 24 -186 64q-100 27 -157 67q-98 70 -98 193q0 104 73 177q81 83 219 83q175 0 262 -124q36 -52 47 -134h-112q-30 166 -193 166q-87 0 -138 -48q-49 -47 -49 -117q0 -75 59 -117
q42 -29 154 -60q163 -46 212 -84q98 -77 98 -204q0 -118 -82 -195q-87 -83 -234 -83q-172 0 -261 109q-58 70 -72 185zM620 1092h-108l-124 197l-126 -197h-98l172 273h110z" />
    <glyph glyph-name="Scedilla" unicode="&#x15e;" horiz-adv-x="1035" vert-adv-y="1720" 
d="M68 383h117q17 -121 82 -196q95 -111 261 -111q140 0 221 74q88 80 88 209q0 138 -112 211q-43 29 -126 56q-25 8 -143 41q-154 43 -227 94q-142 98 -142 278q0 145 98 244q113 114 306 114q248 0 367 -175q51 -75 66 -190h-127q-19 108 -68 164q-82 94 -237 94
q-132 0 -208 -73q-75 -72 -75 -181q0 -117 86 -180q67 -50 220 -92q155 -43 197 -60q255 -104 255 -344q0 -132 -76 -233q-115 -153 -353 -159l-32 -76q21 8 43 8q60 0 100 -27q59 -41 59 -112q0 -65 -42 -107q-44 -44 -124 -44q-90 0 -133 53q-20 24 -23 51h93
q9 -41 58 -41q74 0 74 82q0 38 -20 60q-21 22 -54 22q-40 0 -54 -31h-90l66 166q-132 16 -220 80q-151 112 -171 331z" />
    <glyph glyph-name="scedilla" unicode="&#x15f;" horiz-adv-x="785" vert-adv-y="1720" 
d="M68 265h112q11 -78 52 -127q62 -72 170 -72q91 0 144 48q58 51 58 134q0 91 -78 140q-37 24 -186 64q-100 27 -157 67q-98 69 -98 192q0 104 73 177q82 83 219 83q175 0 262 -124q36 -52 47 -134h-112q-30 166 -193 166q-87 0 -138 -48q-49 -47 -49 -117q0 -75 59 -117
q42 -29 154 -60q163 -45 212 -84q98 -77 98 -204q0 -94 -55 -165q-78 -102 -243 -112l-30 -80q21 6 42 6q51 0 91 -27q55 -37 55 -110q0 -64 -39 -105q-43 -44 -118 -44q-83 0 -123 52q-17 22 -20 50h86q9 -41 57 -41q71 0 71 82q0 38 -20 60q-19 22 -52 22q-42 0 -53 -31
h-86l65 169q-91 12 -153 56q-109 79 -124 234z" />
    <glyph glyph-name="Scaron" unicode="&#x160;" horiz-adv-x="1035" vert-adv-y="1720" 
d="M68 383h117q17 -121 82 -197q95 -111 261 -111q140 0 221 74q88 80 88 210q0 137 -112 211q-56 37 -269 97q-155 43 -227 93q-142 99 -142 279q0 144 98 244q113 114 306 114q248 0 367 -175q51 -75 66 -190h-127q-19 108 -68 164q-82 94 -237 94q-132 0 -208 -73
q-75 -72 -75 -181q0 -117 86 -180q67 -50 220 -92q154 -43 197 -60q255 -104 255 -344q0 -166 -113 -276q-122 -117 -322 -117q-242 0 -365 154q-81 102 -99 262zM260 1734h114l147 -190l151 190h103l-200 -259h-113z" />
    <glyph glyph-name="scaron" unicode="&#x161;" horiz-adv-x="785" vert-adv-y="1720" 
d="M68 265h112q11 -78 52 -128q62 -72 170 -72q91 0 144 48q58 52 58 135q0 90 -78 139q-37 24 -186 64q-100 27 -157 67q-98 70 -98 193q0 104 73 177q81 83 219 83q175 0 262 -124q36 -52 47 -134h-112q-30 166 -193 166q-87 0 -138 -48q-49 -47 -49 -117q0 -75 59 -117
q42 -29 154 -60q163 -46 212 -84q98 -77 98 -204q0 -118 -82 -195q-87 -83 -234 -83q-172 0 -261 109q-58 70 -72 185zM164 1365h108l124 -197l126 197h98l-172 -273h-109z" />
    <glyph glyph-name="Tcommaaccent" unicode="&#x162;" horiz-adv-x="985" vert-adv-y="1720" 
d="M554 0h-122v1259h-397v106h916v-106h-397v-1259zM562 -95v-110q0 -95 -36 -138q-38 -44 -115 -61v60q68 20 71 79v18h-59v152h139z" />
    <glyph glyph-name="tcommaaccent" unicode="&#x163;" horiz-adv-x="475" vert-adv-y="1720" 
d="M6 848v94h141v177l92 123h20v-300h169v-94h-169v-604q0 -93 10 -121q18 -50 84 -50q31 0 75 12v-93q-52 -17 -97 -17q-121 0 -161 79q-23 44 -23 201v593h-141zM300 -95v-110q0 -95 -36 -138q-38 -44 -115 -61v60q68 20 71 79v18h-59v152h139z" />
    <glyph glyph-name="Tcaron" unicode="&#x164;" horiz-adv-x="985" vert-adv-y="1720" 
d="M554 0h-122v1259h-397v106h916v-106h-397v-1259zM235 1734h114l147 -190l151 190h103l-200 -259h-113z" />
    <glyph glyph-name="tcaron" unicode="&#x165;" horiz-adv-x="475" vert-adv-y="1720" 
d="M6 848v94h141v177l92 123h20v-300h169v-94h-169v-604q0 -93 10 -121q18 -50 84 -50q31 0 75 12v-93q-52 -17 -97 -17q-121 0 -161 79q-23 44 -23 201v593h-141zM556 1333v-110q0 -94 -36 -137q-39 -44 -115 -62v61q68 19 71 79v17h-59v152h139z" />
    <glyph glyph-name="utilde" unicode="&#x169;" horiz-adv-x="951" vert-adv-y="1720" 
d="M814 942v-942h-106v159q-98 -188 -287 -188q-111 0 -188 65q-71 61 -92 173q-10 54 -10 140v593h112v-555q0 -144 26 -213q18 -47 63 -77q47 -32 110 -32q112 0 184 87q52 62 67 162q9 55 9 156v472h112zM742 1318q-11 -76 -35 -124q-44 -88 -118 -88q-54 0 -128 73
q-55 55 -89 55q-62 0 -79 -121h-73q7 65 28 111q46 101 130 101q58 0 124 -68q54 -55 85 -55q59 0 79 116h76z" />
    <glyph glyph-name="Umacron" unicode="&#x16a;" horiz-adv-x="1162" vert-adv-y="1720" 
d="M131 1365h122v-814q0 -148 18 -223q31 -131 114 -192q85 -63 202 -63q110 0 190 58q84 60 113 191q19 82 19 230v813h122v-814q0 -196 -33 -291q-51 -148 -157 -219q-109 -74 -256 -74q-149 0 -261 74q-120 80 -166 244q-27 95 -27 270v810zM849 1588v-86h-535v86h535z
" />
    <glyph glyph-name="umacron" unicode="&#x16b;" horiz-adv-x="951" vert-adv-y="1720" 
d="M814 942v-942h-106v159q-98 -188 -287 -188q-111 0 -188 65q-71 61 -92 173q-10 54 -10 140v593h112v-555q0 -144 26 -213q18 -47 63 -77q47 -32 110 -32q112 0 184 87q52 62 67 162q9 55 9 156v472h112zM707 1237v-90h-464v90h464z" />
    <glyph glyph-name="ubreve" unicode="&#x16d;" horiz-adv-x="951" vert-adv-y="1720" 
d="M814 942v-942h-106v159q-98 -188 -287 -188q-111 0 -188 65q-71 61 -92 173q-10 54 -10 140v593h112v-555q0 -144 26 -213q18 -47 63 -77q47 -32 110 -32q112 0 184 87q52 62 67 162q9 55 9 156v472h112zM682 1365q-30 -273 -222 -273t-222 273h77q26 -179 145 -179
t144 179h78z" />
    <glyph glyph-name="Uring" unicode="&#x16e;" horiz-adv-x="1162" vert-adv-y="1720" 
d="M131 1365h122v-814q0 -148 18 -223q31 -131 114 -192q85 -63 202 -63q110 0 190 58q84 60 113 191q19 82 19 230v813h122v-814q0 -196 -33 -291q-51 -148 -157 -219q-109 -74 -256 -74q-149 0 -261 74q-120 80 -166 244q-27 95 -27 270v810zM582 1727q-45 0 -75 -31
q-32 -32 -32 -78q0 -45 31 -77t74 -32q45 0 76 33q30 31 30 76q0 46 -31 77q-31 32 -73 32zM582 1805q74 0 129 -54q54 -55 54 -133q0 -75 -53 -129q-55 -56 -133 -56t-132 54q-54 55 -54 131q0 80 56 134q55 53 133 53z" />
    <glyph glyph-name="uring" unicode="&#x16f;" horiz-adv-x="951" vert-adv-y="1720" 
d="M814 942v-942h-106v159q-98 -188 -287 -188q-111 0 -188 65q-71 61 -92 173q-10 54 -10 140v593h112v-555q0 -144 26 -213q18 -47 63 -77q47 -32 110 -32q112 0 184 87q52 62 67 162q9 55 9 156v472h112zM474 1358q-41 0 -71 -31q-30 -32 -30 -78q0 -45 30 -77
q29 -32 72 -32t73 33q29 31 29 75q0 47 -30 78q-30 32 -73 32zM477 1434q74 0 128 -54t54 -131q0 -75 -53 -129q-54 -55 -132 -55q-77 0 -130 54q-54 54 -54 130q0 79 55 132t132 53z" />
    <glyph glyph-name="Uhungarumlaut" unicode="&#x170;" horiz-adv-x="1162" vert-adv-y="1720" 
d="M131 1365h122v-814q0 -148 18 -223q31 -131 114 -192q85 -63 202 -63q110 0 190 58q84 60 113 191q19 82 19 230v813h122v-814q0 -196 -33 -291q-51 -148 -157 -219q-109 -74 -256 -74q-149 0 -261 74q-120 80 -166 244q-27 95 -27 270v810zM673 1737l-202 -258h-105
l180 258h127zM919 1737l-202 -258h-105l180 258h127z" />
    <glyph glyph-name="uhungarumlaut" unicode="&#x171;" horiz-adv-x="951" vert-adv-y="1720" 
d="M814 942v-942h-106v159q-98 -188 -287 -188q-111 0 -188 65q-71 61 -92 173q-10 54 -10 140v593h112v-555q0 -144 26 -213q18 -47 63 -77q47 -32 110 -32q112 0 184 87q52 62 67 162q9 55 9 156v472h112zM576 1365l-178 -273h-99l163 273h114zM804 1365l-178 -273h-99
l163 273h114z" />
    <glyph glyph-name="Uogonek" unicode="&#x172;" horiz-adv-x="1162" vert-adv-y="1720" 
d="M760 -1q-105 -80 -105 -173q0 -56 43 -83q30 -19 67 -19q26 0 74 19v-72q-59 -23 -107 -23q-85 0 -134 48q-41 41 -41 104q0 92 87 171q-37 -4 -63 -4q-144 0 -257 75q-120 79 -166 243q-27 95 -27 270v810h122v-814q0 -147 18 -222q31 -131 114 -192q86 -63 202 -63
q110 0 190 58q83 60 113 190q19 82 19 230v813h122v-814q-1 -202 -33 -291q-68 -195 -238 -261z" />
    <glyph glyph-name="uogonek" unicode="&#x173;" horiz-adv-x="951" vert-adv-y="1720" 
d="M812 0q-5 -4 -11 -9q-93 -71 -93 -165q0 -56 42 -83q30 -19 66 -19q25 0 71 19v-72q-57 -23 -103 -23q-83 0 -130 48q-40 41 -40 104q0 109 120 200h-27v159q-91 -188 -286 -188q-111 0 -188 65q-71 61 -92 173q-10 54 -10 140v593h112v-555q0 -144 26 -213
q18 -47 63 -77q47 -32 111 -32q110 0 183 87q52 62 67 162q9 55 9 156v472h112v-942h-2z" />
    <glyph glyph-name="Wcircumflex" unicode="&#x174;" horiz-adv-x="1504" vert-adv-y="1720" 
d="M339 0l-314 1365h125l259 -1172l276 1172h136l278 -1172l260 1172h120l-315 -1365h-129l-284 1183l-282 -1183h-130zM1016 1475h-113l-148 189l-151 -189h-103l200 259h113z" />
    <glyph glyph-name="Ycircumflex" unicode="&#x176;" horiz-adv-x="1017" vert-adv-y="1720" 
d="M448 0v565l-450 800h141l373 -682l372 682h135l-449 -800v-565h-122zM776 1475h-113l-148 189l-151 -189h-103l200 259h113z" />
    <glyph glyph-name="ycircumflex" unicode="&#x177;" horiz-adv-x="773" vert-adv-y="1720" 
d="M95 -340v96l14 -4q32 -9 57 -9q52 0 79 27q32 32 57 111l41 126l-331 935h121l266 -782l247 782h114l-360 -1087q-35 -105 -80 -153q-54 -57 -144 -57q-39 0 -81 15zM625 1092h-108l-124 197l-126 -197h-98l172 273h110z" />
    <glyph glyph-name="Zacute" unicode="&#x179;" horiz-adv-x="1001" vert-adv-y="1720" 
d="M57 0v115l745 1144h-691v106h825v-112l-745 -1147h759v-106h-893zM728 1737l-202 -258h-105l180 258h127z" />
    <glyph glyph-name="zacute" unicode="&#x17a;" horiz-adv-x="774" vert-adv-y="1720" 
d="M726 942v-80l-545 -768h566v-94h-698v92l539 756h-501v94h639zM604 1365l-178 -273h-103l163 273h118z" />
    <glyph glyph-name="Zdotaccent" unicode="&#x17b;" horiz-adv-x="1001" vert-adv-y="1720" 
d="M57 0v115l745 1144h-691v106h825v-112l-745 -1147h759v-106h-893zM463 1488v191h119v-191h-119z" />
    <glyph glyph-name="zdotaccent" unicode="&#x17c;" horiz-adv-x="774" vert-adv-y="1720" 
d="M726 942v-80l-545 -768h566v-94h-698v92l539 756h-501v94h639zM360 1106v191h115v-191h-115z" />
    <glyph glyph-name="Zcaron" unicode="&#x17d;" horiz-adv-x="1001" vert-adv-y="1720" 
d="M57 0v115l745 1144h-691v106h825v-112l-745 -1147h759v-106h-893zM243 1734h114l147 -190l151 190h103l-200 -259h-113z" />
    <glyph glyph-name="zcaron" unicode="&#x17e;" horiz-adv-x="774" vert-adv-y="1720" 
d="M726 942v-80l-545 -768h566v-94h-698v92l539 756h-501v94h639zM179 1365h108l124 -197l126 197h98l-172 -273h-109z" />
    <glyph glyph-name="uni01CD" unicode="&#x1cd;" horiz-adv-x="1087" vert-adv-y="1720" 
d="M479 1365h133l454 -1365h-133l-136 430h-511l-138 -430h-128zM320 535h444l-220 695zM281 1734h114l147 -190l151 190h103l-200 -259h-113z" />
    <glyph glyph-name="uni01CE" unicode="&#x1ce;" horiz-adv-x="897" vert-adv-y="1720" 
d="M854 96v-89q-40 -17 -79 -17q-72 0 -97 61q-14 34 -14 100v34q-120 -214 -314 -214q-105 0 -178 64q-89 77 -89 207q0 148 113 229q85 62 241 78q66 6 211 10v89q0 229 -206 229q-199 0 -218 -225h-104q6 148 87 230q88 89 246 89q173 0 255 -111q40 -54 49 -145
q4 -35 4 -140v-356q0 -85 7 -106q8 -27 43 -27q17 0 43 10zM648 477q-168 -8 -252 -26q-95 -21 -142 -68q-58 -58 -58 -138q0 -75 52 -129q50 -51 126 -51q89 0 158 63q68 62 96 161q20 72 20 131v57zM221 1365h108l124 -197l126 197h98l-172 -273h-109z" />
    <glyph glyph-name="Ucaron" unicode="&#x1d3;" horiz-adv-x="1162" vert-adv-y="1720" 
d="M131 1365h122v-814q0 -148 18 -223q31 -131 114 -192q85 -63 202 -63q110 0 190 58q84 60 113 191q19 82 19 230v813h122v-814q0 -196 -33 -291q-51 -148 -157 -219q-109 -74 -256 -74q-149 0 -261 74q-120 80 -166 244q-27 95 -27 270v810zM324 1734h114l147 -190
l151 190h103l-200 -259h-113z" />
    <glyph glyph-name="ucaron" unicode="&#x1d4;" horiz-adv-x="951" vert-adv-y="1720" 
d="M814 942v-942h-106v159q-98 -188 -287 -188q-111 0 -188 65q-71 61 -92 173q-10 54 -10 140v593h112v-555q0 -144 26 -213q18 -47 63 -77q47 -32 110 -32q112 0 184 87q52 62 67 162q9 55 9 156v472h112zM247 1365h108l124 -197l126 197h98l-172 -273h-109z" />
    <glyph glyph-name="Gcaron" unicode="&#x1e6;" horiz-adv-x="1252" vert-adv-y="1720" 
d="M1129 0h-102v239q-55 -99 -109 -153q-117 -119 -289 -119q-261 0 -416 230q-127 190 -127 481q0 323 151 522q150 197 397 197q145 0 262 -73q172 -106 211 -320h-125q-34 114 -91 176q-102 111 -262 111q-181 0 -292 -153q-127 -177 -127 -456q0 -274 118 -446
q112 -163 307 -163q138 0 236 102q125 129 142 341q2 24 4 72h-383v106h495v-694zM381 1734h114l147 -190l151 190h103l-200 -259h-113z" />
    <glyph glyph-name="gcaron" unicode="&#x1e7;" horiz-adv-x="970" vert-adv-y="1720" 
d="M725 942h108v-809q0 -130 -14 -197q-28 -128 -124 -208q-100 -83 -240 -83q-151 0 -247 90q-72 68 -93 182h117q14 -69 54 -110q65 -68 173 -68q136 0 207 113q54 86 54 240v109q-22 -54 -61 -96q-88 -93 -209 -93q-165 0 -269 135q-101 130 -101 355q0 224 108 348
q104 121 260 121q195 0 277 -187v158zM452 877q-115 0 -186 -96q-74 -101 -74 -274q0 -170 64 -282q68 -119 197 -119q77 0 142 50q65 49 98 151q29 89 29 196q0 177 -76 278q-71 96 -194 96zM247 1365h108l124 -197l126 197h98l-172 -273h-109z" />
    <glyph glyph-name="afii57929" unicode="&#x2bc;" horiz-adv-x="410" vert-adv-y="1720" 
d="M274 1365v-148q0 -153 -36 -222q-39 -72 -115 -101v82q68 39 71 161v23h-59v205h139z" />
    <glyph glyph-name="semicolon" unicode="&#x37e;" horiz-adv-x="410" vert-adv-y="1720" 
d="M274 205v-148q0 -153 -36 -223q-39 -71 -115 -100v82q68 38 71 161v23h-59v205h139zM274 942v-205h-139v205h139z" />
    <glyph glyph-name="anoteleia" unicode="&#x387;" horiz-adv-x="397" vert-adv-y="1720" 
d="M266 608v-205h-135v205h135z" />
    <glyph glyph-name="Wdieresis" unicode="&#x1e84;" horiz-adv-x="1504" vert-adv-y="1720" 
d="M339 0l-314 1365h125l259 -1172l276 1172h136l278 -1172l260 1172h120l-315 -1365h-129l-284 1183l-282 -1183h-130zM852 1488v191h119v-191h-119zM534 1488v191h119v-191h-119z" />
    <glyph glyph-name="hyphen" unicode="&#x2010;" horiz-adv-x="403" vert-adv-y="1720" 
d="M395 560v-106h-387v106h387z" />
    <glyph glyph-name="nbhyphen" unicode="&#x2011;" horiz-adv-x="403" vert-adv-y="1720" 
d="M395 560v-106h-387v106h387z" />
    <glyph glyph-name="figuredash" unicode="&#x2012;" horiz-adv-x="966" vert-adv-y="1720" 
d="M845 560v-106h-725v106h725z" />
    <glyph glyph-name="afii00208" unicode="&#x2015;" horiz-adv-x="1429" vert-adv-y="1720" 
d="M1293 560v-106h-1152v106h1152z" />
    <glyph glyph-name="quotereversed" unicode="&#x201b;" horiz-adv-x="396" vert-adv-y="1720" 
 />
    <glyph glyph-name="radicalex" unicode="&#x203e;" vert-adv-y="1720" 
d="M68 1580h887v-105h-887v105z" />
    <glyph glyph-name="fourinferior" unicode="&#x2084;" horiz-adv-x="544" vert-adv-y="1720" 
d="M333 0v217h-309v75l317 527h72v-529h97v-73h-97v-217h-80zM333 290v371l-231 -371h231z" />
    <glyph glyph-name="franc" unicode="&#x20a3;" horiz-adv-x="1190" vert-adv-y="1720" 
d="M111 0v1365h727v-101h-609v-435h405v-101h-405v-728h-118zM770 0v829h106v-204q85 240 312 233v-118q-24 1 -34 1q-125 0 -202 -110q-50 -71 -64 -187q-6 -57 -6 -171v-273h-112z" />
    <glyph glyph-name="estimated" unicode="&#x212e;" horiz-adv-x="908" vert-adv-y="1720" 
d="M829 445h-637q3 -137 45 -226q73 -154 232 -154q172 0 238 211h108q-21 -98 -73 -170q-99 -135 -274 -135q-190 0 -294 151q-94 137 -94 350q0 223 109 362q108 137 271 137q132 0 228 -92q140 -132 141 -434zM715 535q-5 120 -46 201q-37 74 -101 114q-48 30 -108 30
q-93 0 -164 -72q-86 -88 -104 -273h523z" />
    <glyph glyph-name="minus" unicode="&#x2212;" vert-adv-y="1720" 
d="M68 742h887v-105h-887v105z" />
    <glyph glyph-name="fraction" unicode="&#x2215;" horiz-adv-x="402" vert-adv-y="1720" 
d="M-43 0h-97l588 1365h94z" />
    <glyph glyph-name="dotmath" unicode="&#x22c5;" horiz-adv-x="397" vert-adv-y="1720" 
d="M266 608v-205h-135v205h135z" />
    <glyph glyph-name="fi" unicode="&#xea01;" horiz-adv-x="869" vert-adv-y="1720" 
d="M166 0v848h-137v94h137v150q0 153 29 207q54 98 169 98q39 0 99 -21v-103q-39 23 -87 23q-44 0 -72 -36q-25 -32 -25 -154v-164h164v-94h-164v-848h-113zM615 1174v191h112v-191h-112zM615 0v942h112v-942h-112z" />
    <glyph glyph-name="fl" unicode="&#xea02;" horiz-adv-x="869" vert-adv-y="1720" 
d="M166 0v848h-137v94h137v150q0 153 29 207q54 98 169 98q39 0 99 -21v-103q-39 23 -87 23q-44 0 -72 -36q-25 -32 -25 -154v-164h164v-94h-164v-848h-113zM615 0v1365h112v-1365h-112z" />
    <glyph glyph-name="uniEA11" unicode="&#xea11;" vert-adv-y="1720" 
d="M612 1488v191h119v-191h-119zM294 1488v191h119v-191h-119z" />
    <glyph glyph-name="uniEA12" unicode="&#xea12;" vert-adv-y="1720" 
d="M453 1488v191h119v-191h-119z" />
    <glyph glyph-name="uniEA13" unicode="&#xea13;" horiz-adv-x="1036" vert-adv-y="1720" 
d="M520 1727q-45 0 -75 -31q-32 -32 -32 -78q0 -45 31 -77t74 -32q45 0 76 33q30 31 30 76q0 46 -31 77q-31 32 -73 32zM520 1805q74 0 129 -54q54 -55 54 -133q0 -75 -53 -129q-55 -56 -133 -56t-132 54q-54 55 -54 131q0 80 56 134q55 53 133 53z" />
    <glyph glyph-name="uniEA14" unicode="&#xea14;" vert-adv-y="1720" 
d="M740 1737l-202 -258h-105l180 258h127z" />
    <glyph glyph-name="uniEA15" unicode="&#xea15;" vert-adv-y="1720" 
d="M284 1737h126l181 -258h-105z" />
    <glyph glyph-name="uniEA16" unicode="&#xea16;" horiz-adv-x="1036" vert-adv-y="1720" 
d="M776 1475h-113l-148 189l-151 -189h-103l200 259h113z" />
    <glyph glyph-name="uniEA17" unicode="&#xea17;" horiz-adv-x="1036" vert-adv-y="1720" 
d="M261 1734h114l147 -190l151 190h103l-200 -259h-113z" />
    <glyph glyph-name="uniEA18" unicode="&#xea18;" horiz-adv-x="1116" vert-adv-y="1720" 
d="M797 1734q-33 -260 -239 -260q-207 0 -239 260h83q28 -166 156 -166t156 166h83z" />
    <glyph glyph-name="uniEA19" unicode="&#xea19;" horiz-adv-x="1036" vert-adv-y="1720" 
d="M789 1703q-11 -70 -35 -113q-47 -80 -124 -80q-54 0 -130 56q-58 42 -92 42q-63 0 -82 -99h-80q9 60 30 102q47 92 129 92q59 0 127 -50q64 -48 92 -48q62 0 83 98h82z" />
    <glyph glyph-name="uniEA1A" unicode="&#xea1a;" vert-adv-y="1720" 
d="M603 1737l-202 -258h-105l180 258h127zM849 1737l-202 -258h-105l180 258h127z" />
    <glyph glyph-name="uniEA1B" unicode="&#xea1b;" horiz-adv-x="1036" vert-adv-y="1720" 
d="M443 0h82l-46 -108q21 8 44 8q59 0 99 -27q59 -40 59 -112q0 -65 -42 -106q-45 -45 -124 -45q-90 0 -133 53q-20 24 -23 51h93q9 -41 58 -41q34 0 54 22t20 60t-21 60t-53 22q-39 0 -54 -31h-90z" />
    <glyph glyph-name="uniEA1C" unicode="&#xea1c;" horiz-adv-x="1036" vert-adv-y="1720" 
d="M919 0q-38 -29 -52 -44q-54 -59 -54 -130q0 -56 43 -83q30 -19 67 -19q27 0 74 19v-72q-59 -23 -107 -23q-85 0 -134 48q-41 41 -41 104q0 112 125 200h79z" />
    <glyph glyph-name="uniEA1D" unicode="&#xea1d;" horiz-adv-x="1036" vert-adv-y="1720" 
d="M786 1588v-86h-535v86h535z" />
    <glyph glyph-name="uniEA3F" unicode="&#xea3f;" vert-adv-y="1720" 
d="M581 1365v-110q0 -94 -36 -137q-39 -44 -115 -62v61q68 19 71 79v17h-59v152h139z" />
    <glyph glyph-name="Hochkomma" unicode="&#xea4f;" vert-adv-y="1720" 
d="M430 1058v110q0 94 36 137q40 45 115 62v-61q-68 -19 -71 -79v-17h59v-152h-139z" />
    <glyph glyph-name="uniEA66" unicode="&#xea66;" vert-adv-y="1720" 
d="M581 -95v-110q0 -95 -36 -138q-38 -44 -115 -61v60q68 20 71 79v18h-59v152h139z" />
    <glyph glyph-name="uniEA67" unicode="&#xea67;" vert-adv-y="1720" 
d="M581 1365v-110q0 -94 -36 -137q-39 -44 -115 -62v61q68 19 71 79v17h-59v152h139z" />
    <glyph glyph-name="uniEA68" unicode="&#xea68;" vert-adv-y="1720" 
d="M574 1488v191h119v-191h-119zM331 1488v191h119v-191h-119z" />
    <glyph glyph-name="Unterkomma" unicode="&#xea69;" vert-adv-y="1720" 
d="M581 -95v-110q0 -95 -36 -138q-38 -44 -115 -61v60q68 20 71 79v18h-59v152h139z" />
    <glyph glyph-name="uniEA6A" unicode="&#xea6a;" vert-adv-y="1720" 
d="M578 1106v191h115v-191h-115zM331 1106v191h115v-191h-115z" />
    <glyph glyph-name="hp1089" unicode="&#xefed;" vert-adv-y="1720" 
d="M453 1488v191h119v-191h-119z" />
    <glyph glyph-name="hp1087" unicode="&#xefee;" horiz-adv-x="1116" vert-adv-y="1720" 
d="M797 1734q-33 -260 -239 -260q-207 0 -239 260h83q28 -166 156 -166t156 166h83z" />
    <glyph glyph-name="hp1085" unicode="&#xefef;" horiz-adv-x="1036" vert-adv-y="1720" 
d="M786 1588v-86h-535v86h535z" />
    <glyph glyph-name="hp1045" unicode="&#xeff0;" vert-adv-y="1720" 
d="M603 1737l-202 -258h-105l180 258h127zM849 1737l-202 -258h-105l180 258h127z" />
    <glyph glyph-name="hp1030" unicode="&#xeff1;" horiz-adv-x="1036" vert-adv-y="1720" 
d="M919 0q-38 -29 -52 -44q-54 -59 -54 -130q0 -56 43 -83q30 -19 67 -19q27 0 74 19v-72q-59 -23 -107 -23q-85 0 -134 48q-41 41 -41 104q0 112 125 200h79z" />
    <glyph glyph-name="hp0330" unicode="&#xeff2;" horiz-adv-x="1036" vert-adv-y="1720" 
d="M443 0h82l-46 -108q21 8 44 8q59 0 99 -27q59 -40 59 -112q0 -65 -42 -106q-45 -45 -124 -45q-90 0 -133 53q-20 24 -23 51h93q9 -41 58 -41q34 0 54 22t20 60t-21 60t-53 22q-39 0 -54 -31h-90z" />
    <glyph glyph-name="hp0323" unicode="&#xeff3;" horiz-adv-x="1036" vert-adv-y="1720" 
d="M520 1727q-45 0 -75 -31q-32 -32 -32 -78q0 -45 31 -77t74 -32q45 0 76 33q30 31 30 76q0 46 -31 77q-31 32 -73 32zM520 1805q74 0 129 -54q54 -55 54 -133q0 -75 -53 -129q-55 -56 -133 -56t-132 54q-54 55 -54 131q0 80 56 134q55 53 133 53z" />
    <glyph glyph-name="hp0322" unicode="&#xeff4;" horiz-adv-x="1036" vert-adv-y="1720" 
d="M261 1734h114l147 -190l151 190h103l-200 -259h-113z" />
    <glyph glyph-name="hp0321" unicode="&#xeff5;" horiz-adv-x="1036" vert-adv-y="1720" 
d="M789 1703q-11 -70 -35 -113q-47 -80 -124 -80q-54 0 -130 56q-58 42 -92 42q-63 0 -82 -99h-80q9 60 30 102q47 92 129 92q59 0 127 -50q64 -48 92 -48q62 0 83 98h82z" />
    <glyph glyph-name="hp0320" unicode="&#xeff6;" vert-adv-y="1720" 
d="M612 1488v191h119v-191h-119zM294 1488v191h119v-191h-119z" />
    <glyph glyph-name="hp0319" unicode="&#xeff7;" horiz-adv-x="1036" vert-adv-y="1720" 
d="M776 1475h-113l-148 189l-151 -189h-103l200 259h113z" />
    <glyph glyph-name="hp0318" unicode="&#xeff8;" vert-adv-y="1720" 
d="M284 1737h126l181 -258h-105z" />
    <glyph glyph-name="hp0317" unicode="&#xeff9;" vert-adv-y="1720" 
d="M740 1737l-202 -258h-105l180 258h127z" />
    <glyph glyph-name="afii10017" unicode="&#x410;" horiz-adv-x="1087" vert-adv-y="1720" 
d="M479 1365h133l454 -1365h-133l-136 430h-511l-138 -430h-128zM320 535h444l-220 695z" />
    <glyph glyph-name="afii10018" unicode="&#x411;" horiz-adv-x="1035" vert-adv-y="1720" 
d="M900 1365v-106h-631v-475h226q147 0 227 -26q114 -37 181 -133q63 -92 63 -233q0 -215 -149 -320q-62 -44 -148 -60q-67 -12 -174 -12h-348v1365h753zM269 678v-572h216q114 0 165 14q94 26 142 97q49 72 49 175q0 167 -115 240q-51 32 -124 42q-35 4 -117 4h-216z" />
    <glyph glyph-name="afii10019" unicode="&#x412;" horiz-adv-x="1118" vert-adv-y="1720" 
d="M147 0v1365h393q209 0 311 -70q136 -94 136 -266q0 -138 -95 -230q-56 -55 -146 -83q285 -65 285 -332q0 -202 -163 -310q-111 -74 -307 -74h-414zM269 760h196q161 0 245 31q80 30 123 104q31 53 31 123q0 150 -120 209q-65 32 -205 32h-270v-499zM269 106h258
q186 0 269 55q110 71 110 225q0 162 -130 230q-80 42 -250 42h-257v-552z" />
    <glyph glyph-name="afii10020" unicode="&#x413;" horiz-adv-x="939" vert-adv-y="1720" 
d="M147 1365h753v-106h-631v-1259h-122v1365z" />
    <glyph glyph-name="afii10021" unicode="&#x414;" horiz-adv-x="1136" vert-adv-y="1720" 
d="M332 1365h654v-1259h123v-311h-123v205h-857v-205h-122v311h17q170 0 193 206zM252 106h612v1153h-421l-104 -914q-14 -119 -42 -175q-19 -36 -45 -64z" />
    <glyph glyph-name="afii10022" unicode="&#x415;" horiz-adv-x="1017" vert-adv-y="1720" 
d="M147 0v1365h787v-106h-665v-499h622v-106h-622v-548h672v-106h-794z" />
    <glyph glyph-name="afii10024" unicode="&#x416;" horiz-adv-x="1714" vert-adv-y="1720" 
d="M1543 1365h138l-511 -636l560 -729h-139l-525 675h-150v-675h-118v675h-151l-525 -675h-138l559 729l-510 636h138l473 -592h154v592h118v-592h154z" />
    <glyph glyph-name="afii10025" unicode="&#x417;" horiz-adv-x="1081" vert-adv-y="1720" 
d="M463 760h68q147 0 226 49q122 75 122 222q0 114 -76 186q-79 74 -226 74q-195 0 -296 -135q-41 -54 -71 -159h-124q27 175 150 284q131 116 343 116q200 0 313 -100q113 -99 113 -267q0 -172 -132 -262q-58 -39 -152 -57q118 -28 179 -82q106 -92 106 -260
q0 -174 -116 -285q-123 -117 -326 -117q-258 0 -393 200q-80 119 -99 284h124q19 -157 102 -256q100 -121 267 -121q140 0 226 85q89 90 89 226q0 97 -55 167q-59 75 -167 95q-36 7 -127 7h-68v106z" />
    <glyph glyph-name="afii10026" unicode="&#x418;" horiz-adv-x="1205" vert-adv-y="1720" 
d="M147 1365h116v-1040l678 904v136h116v-1365h-116v1046l-678 -901v-145h-116v1365z" />
    <glyph glyph-name="afii10028" unicode="&#x41a;" horiz-adv-x="1088" vert-adv-y="1720" 
d="M152 1365h118v-592h154l473 592h138l-511 -636l560 -729h-139l-525 675h-150v-675h-118v1365z" />
    <glyph glyph-name="afii10029" unicode="&#x41b;" horiz-adv-x="1118" vert-adv-y="1720" 
d="M971 1365v-1365h-122v1259h-421l-104 -914q-17 -151 -54 -217q-75 -137 -263 -138v106q86 1 132 48q50 52 63 168l116 1053h653z" />
    <glyph glyph-name="afii10030" unicode="&#x41c;" horiz-adv-x="1415" vert-adv-y="1720" 
d="M147 0v1365h159l405 -1191l397 1191h160v-1365h-116v1170l-387 -1170h-108l-394 1162v-1162h-116z" />
    <glyph glyph-name="afii10031" unicode="&#x41d;" horiz-adv-x="1207" vert-adv-y="1720" 
d="M147 0v1365h122v-596h668v596h122v-1365h-122v663h-668v-663h-122z" />
    <glyph glyph-name="afii10032" unicode="&#x41e;" horiz-adv-x="1260" vert-adv-y="1720" 
d="M637 1396q158 0 286 -99q135 -103 200 -289q51 -145 51 -329q0 -281 -122 -474q-74 -118 -188 -180q-106 -58 -236 -58q-270 0 -420 238q-122 193 -122 475q0 325 150 517q155 199 401 199zM624 1290q-180 0 -297 -167q-117 -166 -117 -436q0 -253 100 -422
q58 -97 154 -150q76 -42 166 -42q125 0 225 80q106 86 158 255q37 121 37 269q0 271 -115 441q-116 172 -311 172z" />
    <glyph glyph-name="afii10033" unicode="&#x41f;" horiz-adv-x="1207" vert-adv-y="1720" 
d="M1059 1365v-1365h-122v1259h-668v-1259h-122v1365h912z" />
    <glyph glyph-name="afii10034" unicode="&#x420;" horiz-adv-x="1049" vert-adv-y="1720" 
d="M147 0v1365h348q147 0 227 -26q114 -37 181 -133q63 -92 63 -228q0 -216 -161 -322q-113 -74 -324 -74h-212v-582h-122zM269 688h222q179 0 257 64q93 75 93 222q0 165 -115 239q-51 32 -124 42q-35 4 -117 4h-216v-571z" />
    <glyph glyph-name="afii10035" unicode="&#x421;" horiz-adv-x="1182" vert-adv-y="1720" 
d="M985 451h124q-19 -165 -99 -284q-135 -200 -381 -200q-261 0 -416 230q-127 189 -127 480q0 324 151 523q150 197 395 197q142 0 257 -73q173 -111 206 -327h-124q-34 119 -88 180q-101 113 -255 113q-180 0 -291 -153q-127 -177 -127 -455q0 -274 118 -446
q52 -76 130 -119q79 -44 173 -44q167 0 271 145q66 93 83 233z" />
    <glyph glyph-name="afii10036" unicode="&#x422;" horiz-adv-x="985" vert-adv-y="1720" 
d="M554 0h-122v1259h-397v106h916v-106h-397v-1259z" />
    <glyph glyph-name="afii10037" unicode="&#x423;" horiz-adv-x="992" vert-adv-y="1720" 
d="M517 492l367 873h129l-516 -1210q-37 -88 -77 -127q-61 -61 -156 -61q-39 0 -89 13v109q43 -16 81 -16q56 0 90 39q22 25 45 80l66 157l-456 1016h138z" />
    <glyph glyph-name="afii10038" unicode="&#x424;" horiz-adv-x="1484" vert-adv-y="1720" 
d="M801 1205q301 -12 454 -147q160 -140 160 -374q0 -351 -326 -470q-126 -47 -288 -53v-161h-119v160q-300 12 -454 147q-160 140 -160 375q0 270 203 410q148 102 411 113v160h119v-160zM801 263q253 15 366 113q128 111 128 307q0 392 -494 422v-842zM682 263v843
q-494 -30 -494 -422q0 -225 162 -334q111 -74 332 -87z" />
    <glyph glyph-name="afii10039" unicode="&#x425;" horiz-adv-x="1005" vert-adv-y="1720" 
d="M20 0l415 702l-390 663h139l319 -564l327 564h132l-391 -663l413 -702h-141l-341 598l-347 -598h-135z" />
    <glyph glyph-name="afii10040" unicode="&#x426;" horiz-adv-x="1209" vert-adv-y="1720" 
d="M1059 106h122v-311h-122v205h-912v1365h122v-1259h668v1259h122v-1259z" />
    <glyph glyph-name="afii10041" unicode="&#x427;" horiz-adv-x="1171" vert-adv-y="1720" 
d="M991 628q-19 -24 -40 -41q-112 -92 -289 -92q-148 0 -263 60q-126 66 -173 198q-27 77 -27 221v391h122v-396q0 -114 19 -172q32 -101 120 -148q89 -48 204 -48q146 0 229 79q98 93 98 334v351h122v-1365h-122v628z" />
    <glyph glyph-name="afii10042" unicode="&#x428;" horiz-adv-x="1641" vert-adv-y="1720" 
d="M1493 0h-1346v1365h122v-1259h490v1259h122v-1259h490v1259h122v-1365z" />
    <glyph glyph-name="afii10043" unicode="&#x429;" horiz-adv-x="1643" vert-adv-y="1720" 
d="M1493 106h123v-311h-123v205h-1346v1365h122v-1259h490v1259h122v-1259h490v1259h122v-1259z" />
    <glyph glyph-name="afii10046" unicode="&#x42c;" horiz-adv-x="1035" vert-adv-y="1720" 
d="M147 1365h122v-581h226q147 0 226 -26q115 -37 182 -133q63 -92 63 -233q0 -215 -149 -320q-62 -44 -149 -60q-66 -12 -173 -12h-348v1365zM269 678v-572h216q114 0 165 14q94 26 142 97q49 72 49 175q0 166 -115 240q-51 32 -124 42q-35 4 -117 4h-216z" />
    <glyph glyph-name="afii10045" unicode="&#x42b;" horiz-adv-x="1398" vert-adv-y="1720" 
d="M147 1365h122v-581h226q147 0 226 -26q115 -37 182 -133q63 -92 63 -233q0 -215 -149 -320q-62 -44 -149 -60q-66 -12 -173 -12h-348v1365zM269 678v-572h216q114 0 165 14q94 26 142 97q49 72 49 175q0 166 -115 240q-51 32 -124 42q-35 4 -117 4h-216zM1128 0v1365h122
v-1365h-122z" />
    <glyph glyph-name="afii10044" unicode="&#x42a;" horiz-adv-x="1261" vert-adv-y="1720" 
d="M14 1365h481v-581h226q147 0 226 -26q115 -37 182 -133q63 -92 63 -233q0 -215 -149 -320q-62 -44 -149 -60q-66 -12 -173 -12h-348v1259h-359v106zM495 678v-572h216q114 0 165 14q94 26 142 97q49 72 49 175q0 167 -115 240q-51 32 -124 42q-35 4 -117 4h-216z" />
    <glyph glyph-name="afii10047" unicode="&#x42d;" horiz-adv-x="1182" vert-adv-y="1720" 
d="M968 760q-13 171 -72 290q-119 240 -343 240q-171 0 -272 -134q-41 -54 -71 -159h-124q21 133 101 232q136 168 362 168q244 0 394 -197q152 -199 152 -523q0 -322 -155 -517q-152 -193 -388 -193q-246 0 -381 200q-80 119 -99 284h124q19 -157 102 -257
q100 -121 252 -121q150 0 257 108q151 152 164 473h-508v106h505z" />
    <glyph glyph-name="afii10048" unicode="&#x42e;" horiz-adv-x="1744" vert-adv-y="1720" 
d="M573 769q12 198 94 347q76 139 194 211q114 69 252 69q244 0 393 -199q151 -201 151 -517q0 -281 -122 -475q-74 -118 -188 -180q-106 -58 -235 -58q-214 0 -357 155q-178 193 -185 541h-301v-663h-122v1365h122v-596h304zM1113 1290q-185 0 -302 -167
q-117 -166 -117 -426q0 -261 100 -431q57 -97 154 -150q76 -42 167 -42q123 0 223 80q106 86 158 255q37 121 37 272q0 268 -115 438q-116 171 -305 171z" />
    <glyph glyph-name="afii10049" unicode="&#x42f;" horiz-adv-x="1145" vert-adv-y="1720" 
d="M997 0h-122v611h-222q-193 0 -275 -61q-51 -38 -70 -106q-17 -58 -22 -167q-8 -140 -15.5 -188t-30.5 -89h-138q24 37 34 88q10 50 19 198q9 139 28 205q31 103 114 144q26 13 77 24q-90 24 -149 88q-92 100 -92 257q0 192 135 289q100 72 286 72h443v-1365zM875 714v545
h-318q-151 0 -219 -58q-80 -69 -80 -201q0 -171 111 -242q68 -44 226 -44h280z" />
    <glyph glyph-name="afii10050" unicode="&#x490;" horiz-adv-x="939" vert-adv-y="1720" 
d="M900 1488v-229h-631v-1259h-122v1365h631v123h122z" />
    <glyph glyph-name="afii10051" unicode="&#x402;" horiz-adv-x="1112" vert-adv-y="1720" 
d="M623 -56q32 -14 59 -14q95 0 162 104q39 62 63 168q25 108 25 228q0 232 -74 348q-63 99 -171 99q-138 0 -205 -134q-48 -97 -48 -271v-472h-122v1259h-298v106h916v-106h-496v-465q91 177 266 177q156 0 249 -131q95 -133 95 -391q0 -202 -56 -356q-58 -158 -167 -221
q-56 -32 -119 -32q-34 0 -79 15v89z" />
    <glyph glyph-name="afii10053" unicode="&#x404;" horiz-adv-x="1182" vert-adv-y="1720" 
d="M213 760h505v-106h-508q9 -208 71 -338q118 -243 350 -243q167 0 271 145q66 93 83 233h124q-19 -165 -99 -284q-135 -200 -381 -200q-261 0 -416 230q-127 189 -127 480q0 324 151 523q150 197 394 197q143 0 258 -73q172 -111 206 -327h-125q-33 119 -87 180
q-101 113 -255 113q-250 0 -364 -287q-40 -101 -51 -243z" />
    <glyph glyph-name="afii10054" unicode="&#x405;" horiz-adv-x="1035" vert-adv-y="1720" 
d="M68 383h117q17 -121 82 -197q95 -111 261 -111q140 0 221 74q88 80 88 210q0 137 -112 211q-56 37 -269 97q-155 43 -227 93q-142 99 -142 279q0 144 98 244q113 114 306 114q248 0 367 -175q51 -75 66 -190h-127q-19 108 -68 164q-82 94 -237 94q-132 0 -208 -73
q-75 -72 -75 -181q0 -117 86 -180q67 -50 220 -92q154 -43 197 -60q255 -104 255 -344q0 -166 -113 -276q-122 -117 -322 -117q-242 0 -365 154q-81 102 -99 262z" />
    <glyph glyph-name="afii10055" unicode="&#x406;" horiz-adv-x="417" vert-adv-y="1720" 
d="M147 0v1365h122v-1365h-122z" />
    <glyph glyph-name="uni04C0" unicode="&#x4c0;" horiz-adv-x="417" vert-adv-y="1720" 
d="M147 0v1365h122v-1365h-122z" />
    <glyph glyph-name="afii10057" unicode="&#x408;" horiz-adv-x="586" vert-adv-y="1720" 
d="M333 1365h122v-898q0 -166 -15 -236q-56 -264 -325 -264q-48 0 -105 13v109q53 -16 104 -16q149 0 194 136q25 76 25 286v870z" />
    <glyph glyph-name="afii10058" unicode="&#x409;" horiz-adv-x="1654" vert-adv-y="1720" 
d="M821 1259h-393l-104 -914q-18 -151 -54 -218q-75 -136 -263 -137v106q86 1 132 48q50 52 63 168l115 1053h626v-581h198q147 0 227 -26q114 -37 181 -133q63 -92 63 -233q0 -215 -149 -320q-62 -44 -148 -60q-67 -12 -174 -12h-320v1259zM943 678v-572h189q113 0 164 14
q94 26 142 97q49 72 49 175q0 166 -115 240q-51 32 -124 42q-34 4 -116 4h-189z" />
    <glyph glyph-name="afii10059" unicode="&#x40a;" horiz-adv-x="1742" vert-adv-y="1720" 
d="M909 777v588h122v-588h199q146 0 226 -25q114 -37 181 -131q63 -91 63 -230q0 -214 -149 -319q-62 -44 -148 -60q-67 -12 -173 -12h-321v671h-640v-671h-122v1365h122v-588h640zM1031 671v-565h189q113 0 164 14q94 26 142 97q49 72 49 174q0 163 -115 235
q-51 31 -124 41q-35 4 -116 4h-189z" />
    <glyph glyph-name="afii10060" unicode="&#x40b;" horiz-adv-x="1135" vert-adv-y="1720" 
d="M434 0h-122v1259h-298v106h916v-106h-496v-465q94 177 281 177q110 0 187 -65q71 -61 92 -173q10 -54 10 -140v-593h-112v555q0 144 -26 213q-18 47 -63 77q-47 32 -110 32q-111 0 -183 -87q-52 -62 -67 -162q-9 -55 -9 -156v-472z" />
    <glyph glyph-name="afii10145" unicode="&#x40f;" horiz-adv-x="1207" vert-adv-y="1720" 
d="M542 0h-395v1365h122v-1259h668v1259h122v-1365h-395v-205h-122v205z" />
    <glyph glyph-name="afii61352" unicode="&#x2116;" horiz-adv-x="1696" vert-adv-y="1720" 
d="M147 0v1365h131l663 -1169v1169h116v-1365h-132l-662 1163v-1163h-116zM1669 227v-90h-505v90h505zM1417 939q124 0 192 -99q60 -87 60 -220q0 -137 -64 -226q-66 -93 -188 -93q-123 0 -189 93q-64 89 -64 230q0 130 60 216q69 99 193 99zM1416 846q-71 0 -113 -60
q-45 -64 -45 -164q0 -105 44 -168q41 -61 115 -61q73 0 115 61q43 63 43 166t-45 166q-43 60 -114 60z" />
    <glyph glyph-name="afii10023" unicode="&#x401;" horiz-adv-x="1017" vert-adv-y="1720" 
d="M147 0v1365h787v-106h-665v-499h622v-106h-622v-548h672v-106h-794zM608 1488v191h119v-191h-119zM290 1488v191h119v-191h-119z" />
    <glyph glyph-name="glyph444" vert-adv-y="1720" 
d="M612 1488v191h119v-191h-119zM294 1488v191h119v-191h-119z" />
    <glyph glyph-name="afii10027" unicode="&#x419;" horiz-adv-x="1205" vert-adv-y="1720" 
d="M147 1365h116v-1040l678 904v136h116v-1365h-116v1046l-678 -901v-145h-116v1365zM851 1734q-33 -259 -239 -259q-207 0 -239 259h83q11 -64 35 -102q39 -63 121 -63q88 0 128 75q18 34 28 90h83z" />
    <glyph glyph-name="glyph446" horiz-adv-x="1116" vert-adv-y="1720" 
d="M797 1734q-33 -259 -239 -259q-207 0 -239 259h83q11 -64 35 -102q39 -63 121 -63q88 0 128 75q18 34 28 90h83z" />
    <glyph glyph-name="afii10052" unicode="&#x403;" horiz-adv-x="939" vert-adv-y="1720" 
d="M147 1365h753v-106h-631v-1259h-122v1365zM729 1737l-202 -258h-105l180 258h127z" />
    <glyph glyph-name="glyph448" vert-adv-y="1720" 
d="M740 1737l-202 -258h-105l180 258h127z" />
    <glyph glyph-name="afii10056" unicode="&#x407;" horiz-adv-x="420" vert-adv-y="1720" 
d="M149 0v1365h122v-1365h-122zM272 1488v191h119v-191h-119zM29 1488v191h119v-191h-119z" />
    <glyph glyph-name="glyph450" vert-adv-y="1720" 
d="M574 1488v191h119v-191h-119zM331 1488v191h119v-191h-119z" />
    <glyph glyph-name="afii10061" unicode="&#x40c;" horiz-adv-x="1088" vert-adv-y="1720" 
d="M152 1365h118v-592h154l473 592h138l-511 -636l560 -729h-139l-525 675h-150v-675h-118v1365zM804 1737l-202 -258h-105l180 258h127z" />
    <glyph glyph-name="afii10062" unicode="&#x40e;" horiz-adv-x="992" vert-adv-y="1720" 
d="M517 492l367 873h129l-516 -1210q-37 -88 -77 -127q-61 -61 -156 -61q-39 0 -89 13v109q43 -16 81 -16q56 0 90 39q22 25 45 80l66 157l-456 1016h138zM758 1734q-33 -259 -239 -259q-207 0 -239 259h83q11 -64 35 -102q39 -63 121 -63q88 0 128 75q18 34 28 90h83z" />
    <glyph glyph-name="afii10065" unicode="&#x430;" horiz-adv-x="897" vert-adv-y="1720" 
d="M854 96v-89q-40 -17 -79 -17q-72 0 -97 61q-14 34 -14 100v34q-120 -214 -314 -214q-105 0 -178 64q-89 77 -89 207q0 148 113 229q85 62 241 78q66 6 211 10v89q0 229 -206 229q-199 0 -218 -225h-104q6 148 87 230q88 89 246 89q173 0 255 -111q40 -54 49 -145
q4 -35 4 -140v-356q0 -85 7 -106q8 -27 43 -27q17 0 43 10zM648 477q-168 -8 -252 -26q-95 -21 -142 -68q-58 -58 -58 -138q0 -75 52 -129q50 -51 126 -51q89 0 158 63q68 62 96 161q20 72 20 131v57z" />
    <glyph glyph-name="afii10066" unicode="&#x431;" horiz-adv-x="950" vert-adv-y="1720" 
d="M662 1458h84q1 -24 1 -29q0 -99 -33 -142q-37 -48 -106 -71q-25 -8 -131 -35q-102 -26 -169 -112q-47 -62 -70 -133q-13 -40 -27 -96q29 45 76 75q86 56 192 56q126 0 223 -76q92 -72 135 -204q33 -98 33 -220q0 -215 -99 -354q-105 -146 -296 -146q-145 0 -246 91
q-150 136 -150 440q0 157 33 325q46 239 177 352q81 70 225 104q77 19 101 34q39 25 45 65q3 18 3 49q0 7 -1 27zM475 877q-127 0 -202 -108q-80 -114 -80 -292q0 -190 78 -303q74 -109 205 -109q130 0 204 109q78 113 78 298t-80 297q-77 108 -203 108z" />
    <glyph glyph-name="afii10067" unicode="&#x432;" horiz-adv-x="817" vert-adv-y="1720" 
d="M137 942h265q155 0 227 -44q99 -61 99 -186q0 -155 -157 -213q191 -55 191 -234q0 -148 -133 -221q-59 -32 -132 -40q-31 -4 -114 -4h-246v942zM249 848v-307h134q233 0 233 162q0 92 -86 128q-39 17 -128 17h-153zM249 447v-353h134q128 0 182 32q85 51 85 151
q0 126 -130 160q-37 10 -137 10h-134z" />
    <glyph glyph-name="afii10068" unicode="&#x433;" horiz-adv-x="714" vert-adv-y="1720" 
d="M249 848v-848h-112v942h557v-94h-445z" />
    <glyph glyph-name="afii10069" unicode="&#x434;" horiz-adv-x="929" vert-adv-y="1720" 
d="M254 942h536v-848h112v-299h-112v205h-678v-205h-112v299h37q119 0 138 166zM224 94h454v754h-320l-74 -609q-11 -90 -60 -145z" />
    <glyph glyph-name="afii10070" unicode="&#x435;" horiz-adv-x="908" vert-adv-y="1720" 
d="M829 445h-637q3 -137 45 -226q73 -154 232 -154q172 0 238 211h108q-21 -98 -73 -170q-99 -135 -274 -135q-190 0 -294 151q-94 137 -94 350q0 223 109 362q108 137 271 137q132 0 228 -92q140 -132 141 -434zM715 535q-5 120 -46 201q-37 74 -101 114q-48 30 -108 30
q-93 0 -164 -72q-86 -88 -104 -273h523z" />
    <glyph glyph-name="afii10072" unicode="&#x436;" horiz-adv-x="1232" vert-adv-y="1720" 
d="M670 0h-108v453h-91l-352 -453h-111l381 501l-355 441h111l323 -405h94v405h108v-405h94l324 406h111l-357 -442l380 -501h-111l-351 453h-90v-453z" />
    <glyph glyph-name="afii10073" unicode="&#x437;" horiz-adv-x="831" vert-adv-y="1720" 
d="M339 541h90q101 0 154 45q58 49 58 126q0 84 -64 129q-51 36 -139 36q-109 0 -168 -53q-53 -49 -76 -145h-115q30 151 133 226q90 66 227 66q125 0 206 -52q109 -70 109 -204q0 -160 -174 -217q189 -52 189 -238q0 -146 -111 -226q-86 -63 -227 -63q-160 0 -255 95
q-93 92 -105 236h113q36 -237 251 -237q114 0 176 71q45 53 45 126q0 108 -87 155q-55 30 -140 30h-90v94z" />
    <glyph glyph-name="afii10074" unicode="&#x438;" horiz-adv-x="957" vert-adv-y="1720" 
d="M708 942h112v-942h-112v696l-459 -603v-93h-112v942h112v-696l459 599v97z" />
    <glyph glyph-name="afii10076" unicode="&#x43a;" horiz-adv-x="890" vert-adv-y="1720" 
d="M139 0v942h112v-405h139l325 406h122l-356 -442l380 -501h-124l-350 453h-136v-453h-112z" />
    <glyph glyph-name="afii10077" unicode="&#x43b;" horiz-adv-x="902" vert-adv-y="1720" 
d="M333 848l-73 -609q-31 -250 -253 -249v94q124 0 144 176l79 682h535v-942h-112v848h-320z" />
    <glyph glyph-name="afii10078" unicode="&#x43c;" horiz-adv-x="1143" vert-adv-y="1720" 
d="M566 152l280 790h160v-942h-112v779l-280 -779h-99l-266 779v-779h-112v942h163z" />
    <glyph glyph-name="afii10079" unicode="&#x43d;" horiz-adv-x="957" vert-adv-y="1720" 
d="M249 447v-447h-112v942h112v-401h459v401h112v-942h-112v447h-459z" />
    <glyph glyph-name="afii10080" unicode="&#x43e;" horiz-adv-x="950" vert-adv-y="1720" 
d="M481 971q124 0 221 -76q92 -72 135 -204q33 -98 33 -220q0 -215 -99 -354q-105 -146 -296 -146t-296 146q-99 139 -99 353q0 212 94 346q108 155 307 155zM471 877q-123 0 -199 -108q-80 -114 -80 -297q0 -185 78 -298q74 -109 205 -109t205 109q78 113 78 296
q0 187 -80 299q-77 108 -207 108z" />
    <glyph glyph-name="afii10081" unicode="&#x43f;" horiz-adv-x="957" vert-adv-y="1720" 
d="M249 848v-848h-112v942h683v-942h-112v848h-459z" />
    <glyph glyph-name="afii10082" unicode="&#x440;" horiz-adv-x="988" vert-adv-y="1720" 
d="M137 -355v1297h104v-166q23 62 69 109q84 86 222 86q168 0 269 -129q107 -138 107 -373q0 -228 -100 -362q-102 -136 -272 -136q-143 0 -232 99q-36 40 -55 86v-511h-112zM519 877q-77 0 -143 -50q-131 -101 -131 -359q0 -188 79 -300q73 -103 197 -103q134 0 207 120
q67 111 67 283q0 188 -77 302q-74 107 -199 107z" />
    <glyph glyph-name="afii10083" unicode="&#x441;" horiz-adv-x="879" vert-adv-y="1720" 
d="M694 302h114q-10 -104 -65 -187q-96 -144 -279 -144q-187 0 -288 146q-96 139 -96 355q0 207 91 345q102 154 294 154q158 0 254 -114q59 -70 80 -178h-115q-17 75 -50 117q-64 81 -170 81q-124 0 -196 -108q-76 -114 -76 -297q0 -185 74 -298q71 -109 198 -109
q120 0 187 109q32 51 43 128z" />
    <glyph glyph-name="afii10084" unicode="&#x442;" horiz-adv-x="645" vert-adv-y="1720" 
d="M378 848v-848h-112v848h-259v94h631v-94h-260z" />
    <glyph glyph-name="afii10085" unicode="&#x443;" horiz-adv-x="773" vert-adv-y="1720" 
d="M95 -340v96l14 -4q32 -9 57 -9q52 0 79 27q32 32 57 111l41 126l-331 935h121l266 -782l247 782h114l-360 -1087q-35 -105 -80 -153q-54 -57 -144 -57q-39 0 -81 15z" />
    <glyph glyph-name="afii10086" unicode="&#x444;" horiz-adv-x="1300" vert-adv-y="1720" 
d="M706 838q23 44 60 76q67 57 151 57q125 0 211 -115q97 -131 97 -385q0 -274 -114 -405q-82 -95 -194 -95q-139 0 -211 133v-459h-112v459q-72 -133 -211 -133q-126 0 -211 115q-97 131 -97 385q0 274 113 405q82 95 195 95q84 0 151 -57q37 -32 60 -76v527h112v-527z
M387 877q-82 0 -138 -94q-62 -107 -62 -312q0 -222 73 -328q53 -78 127 -78q81 0 136 82q71 107 71 319q0 237 -80 342q-53 69 -127 69zM913 877q-82 0 -136 -82q-71 -107 -71 -329q0 -226 80 -332q53 -69 127 -69q82 0 138 94q62 107 62 312q0 222 -73 329q-53 77 -127 77z
" />
    <glyph glyph-name="afii10087" unicode="&#x445;" horiz-adv-x="790" vert-adv-y="1720" 
d="M8 0l318 495l-294 447h136l223 -350l230 350h128l-292 -439l324 -503h-135l-256 404l-254 -404h-128z" />
    <glyph glyph-name="afii10088" unicode="&#x446;" horiz-adv-x="959" vert-adv-y="1720" 
d="M820 94h112v-299h-112v205h-683v942h112v-848h459v848h112v-848z" />
    <glyph glyph-name="afii10091" unicode="&#x449;" horiz-adv-x="1311" vert-adv-y="1720" 
d="M1171 0h-1034v942h112v-848h349v848h112v-848h349v848h112v-848h113v-299h-113v205z" />
    <glyph glyph-name="afii10092" unicode="&#x44a;" horiz-adv-x="927" vert-adv-y="1720" 
d="M0 942h384v-381h173q135 0 212 -44q123 -71 123 -227q0 -139 -92 -219q-62 -55 -161 -67q-27 -4 -101 -4h-266v848h-272v94zM384 467v-373h146q111 0 161 27q89 50 89 168q0 104 -75 147q-51 31 -157 31h-164z" />
    <glyph glyph-name="afii10093" unicode="&#x44b;" horiz-adv-x="1155" vert-adv-y="1720" 
d="M137 0v942h112v-381h173q135 0 212 -44q123 -71 123 -227q0 -139 -91 -219q-63 -55 -162 -67q-27 -4 -102 -4h-265zM249 467v-373h146q111 0 161 27q89 49 89 168q0 104 -75 147q-51 31 -157 31h-164zM906 0v942h112v-942h-112z" />
    <glyph glyph-name="afii10094" unicode="&#x44c;" horiz-adv-x="791" vert-adv-y="1720" 
d="M137 0v942h112v-381h173q135 0 212 -44q123 -71 123 -227q0 -139 -91 -219q-63 -55 -162 -67q-27 -4 -102 -4h-265zM249 467v-373h146q111 0 161 27q89 49 89 168q0 104 -75 147q-51 31 -157 31h-164z" />
    <glyph glyph-name="afii10095" unicode="&#x44d;" horiz-adv-x="879" vert-adv-y="1720" 
d="M683 541q-10 104 -42 173q-75 163 -226 163q-175 0 -221 -198h-115q22 108 80 178q97 114 255 114q192 0 294 -154q91 -138 91 -346q0 -215 -96 -354q-101 -146 -288 -146q-201 0 -295 171q-42 75 -49 160h113q14 -87 55 -145q66 -92 176 -92q165 0 236 183q30 80 35 199
h-347v94h344z" />
    <glyph glyph-name="afii10096" unicode="&#x44e;" horiz-adv-x="1350" vert-adv-y="1720" 
d="M482 541q9 118 56 215q105 215 336 215q195 0 301 -155q94 -137 94 -345q0 -215 -99 -354q-105 -146 -296 -146q-246 0 -347 239q-45 106 -47 237h-231v-447h-112v942h112v-401h233zM875 877q-128 0 -203 -108q-80 -114 -80 -292q0 -191 77 -303q75 -109 206 -109
q130 0 204 109q78 113 78 297q0 186 -80 298q-77 108 -202 108z" />
    <glyph glyph-name="afii10097" unicode="&#x44f;" horiz-adv-x="863" vert-adv-y="1720" 
d="M296 426q-190 42 -190 242q0 137 91 209q63 50 161 62q28 3 102 3h266v-942h-112v381h-173q-102 0 -152 -38q-31 -24 -43 -66q-10 -36 -14 -104q-5 -107 -13 -137q-4 -16 -15 -36h-115q15 23 22 55q6 33 12 125q9 152 67 203q38 32 106 43zM614 475v373h-146
q-111 0 -160 -25q-89 -46 -89 -159q0 -108 74 -156q50 -33 156 -33h165z" />
    <glyph glyph-name="afii10098" unicode="&#x491;" horiz-adv-x="714" vert-adv-y="1720" 
d="M694 1051v-203h-445v-848h-112v942h445v109h112z" />
    <glyph glyph-name="afii10099" unicode="&#x452;" horiz-adv-x="893" vert-adv-y="1720" 
d="M249 0h-112v1147h-109v90h109v128h112v-128h243v-90h-243v-353q39 80 95 122q73 55 158 55q144 0 229 -131q87 -134 87 -389q0 -204 -57 -358q-57 -158 -166 -221q-56 -32 -118 -32q-34 0 -79 15v89q32 -14 59 -14q94 0 160 104q39 62 64 168q24 107 24 231
q0 228 -65 343q-56 100 -153 100q-129 0 -192 -133q-46 -98 -46 -271v-472z" />
    <glyph glyph-name="afii10101" unicode="&#x454;" horiz-adv-x="879" vert-adv-y="1720" 
d="M196 541h344v-94h-347q6 -136 46 -224q74 -158 225 -158q120 0 187 109q32 51 44 128h113q-9 -104 -65 -187q-96 -144 -279 -144q-187 0 -288 146q-96 139 -96 354q0 208 91 346q102 154 294 154q158 0 255 -114q58 -70 80 -178h-115q-46 198 -221 198q-167 0 -238 -193
q-22 -58 -30 -143z" />
    <glyph glyph-name="afii10102" unicode="&#x455;" horiz-adv-x="785" vert-adv-y="1720" 
d="M68 265h112q11 -78 52 -128q62 -72 170 -72q91 0 144 48q58 52 58 135q0 90 -78 139q-37 24 -186 64q-100 27 -157 67q-98 70 -98 193q0 104 73 177q81 83 219 83q175 0 262 -124q36 -52 47 -134h-112q-30 166 -193 166q-87 0 -138 -48q-49 -47 -49 -117q0 -75 59 -117
q42 -29 154 -60q163 -46 212 -84q98 -77 98 -204q0 -118 -82 -195q-87 -83 -234 -83q-172 0 -261 109q-58 70 -72 185z" />
    <glyph glyph-name="afii10103" unicode="&#x456;" horiz-adv-x="395" vert-adv-y="1720" 
d="M141 1174v191h112v-191h-112zM141 0v942h112v-942h-112z" />
    <glyph glyph-name="afii10105" unicode="&#x458;" horiz-adv-x="392" vert-adv-y="1720" 
d="M138 942h112v-986q0 -163 -30 -222q-45 -89 -167 -89q-31 0 -61 8v97q24 -6 44 -6q85 0 97 83q5 38 5 125v990zM138 1174v191h112v-191h-112z" />
    <glyph glyph-name="afii10106" unicode="&#x459;" horiz-adv-x="1218" vert-adv-y="1720" 
d="M619 848h-293l-73 -609q-31 -250 -253 -249v94q124 -1 144 176l79 682h508v-381h146q135 0 212 -44q122 -71 122 -227q0 -139 -91 -219q-63 -55 -161 -67q-27 -4 -102 -4h-238v848zM731 467v-373h118q112 0 161 27q89 50 89 168q0 104 -74 147q-52 31 -157 31h-137z" />
    <glyph glyph-name="afii10107" unicode="&#x45a;" horiz-adv-x="1280" vert-adv-y="1720" 
d="M680 457h-431v-457h-112v942h112v-391h431v391h112v-391h145q135 0 213 -44q122 -69 122 -223q0 -135 -91 -214q-63 -54 -161 -67q-27 -3 -102 -3h-238v457zM792 457v-363h118q112 0 161 27q89 47 89 163q0 101 -74 143q-52 30 -157 30h-137z" />
    <glyph glyph-name="afii10108" unicode="&#x45b;" horiz-adv-x="951" vert-adv-y="1720" 
d="M137 1147h-109v90h109v128h112v-128h243v-90h-243v-353q94 177 281 177q111 0 188 -65q71 -61 92 -173q10 -54 10 -140v-593h-112v555q0 144 -26 213q-18 47 -63 77q-47 32 -111 32q-111 0 -183 -87q-52 -62 -67 -162q-9 -55 -9 -156v-472h-112v1147z" />
    <glyph glyph-name="afii10193" unicode="&#x45f;" horiz-adv-x="957" vert-adv-y="1720" 
d="M534 0v-205h-112v205h-285v942h112v-848h459v848h112v-942h-286z" />
    <glyph glyph-name="afii10089" unicode="&#x447;" horiz-adv-x="970" vert-adv-y="1720" 
d="M720 446q-91 -95 -279 -95q-193 0 -279 105q-53 63 -53 191v295h112v-256q0 -113 31 -160q25 -36 75 -57q58 -24 123 -24q169 0 234 123q36 67 36 200v174h112v-942h-112v446z" />
    <glyph glyph-name="afii10090" unicode="&#x448;" horiz-adv-x="1309" vert-adv-y="1720" 
d="M710 94h349v848h112v-942h-1034v942h112v-848h349v848h112v-848z" />
    <glyph glyph-name="afii10071" unicode="&#x451;" horiz-adv-x="908" vert-adv-y="1720" 
d="M829 445h-637q3 -137 45 -226q73 -154 232 -154q172 0 238 211h108q-21 -98 -73 -170q-99 -135 -274 -135q-190 0 -294 151q-94 137 -94 350q0 223 109 362q108 137 271 137q132 0 228 -92q140 -132 141 -434zM715 535q-5 120 -46 201q-37 74 -101 114q-48 30 -108 30
q-93 0 -164 -72q-86 -88 -104 -273h523zM544 1106v191h115v-191h-115zM250 1106v191h115v-191h-115z" />
    <glyph glyph-name="glyph495" vert-adv-y="1720" 
d="M601 1106v191h115v-191h-115zM307 1106v191h115v-191h-115z" />
    <glyph glyph-name="afii10075" unicode="&#x439;" horiz-adv-x="957" vert-adv-y="1720" 
d="M708 942h112v-942h-112v696l-459 -603v-93h-112v942h112v-696l459 599v97zM719 1365q-30 -273 -222 -273t-222 273h77q26 -179 145 -179t144 179h78z" />
    <glyph glyph-name="glyph497" horiz-adv-x="1034" vert-adv-y="1720" 
d="M739 1365q-30 -273 -222 -273t-222 273h77q26 -179 145 -179t144 179h78z" />
    <glyph glyph-name="afii10100" unicode="&#x453;" horiz-adv-x="714" vert-adv-y="1720" 
d="M249 848v-848h-112v942h557v-94h-445zM623 1365l-178 -273h-103l163 273h118z" />
    <glyph glyph-name="glyph499" vert-adv-y="1720" 
d="M729 1365l-178 -273h-103l163 273h118z" />
    <glyph glyph-name="afii10104" unicode="&#x457;" horiz-adv-x="397" vert-adv-y="1720" 
d="M142 0v942h112v-942h-112zM264 1106v191h115v-191h-115zM17 1106v191h115v-191h-115z" />
    <glyph glyph-name="glyph501" horiz-adv-x="395" vert-adv-y="1720" 
d="M141 0v942h112v-942h-112z" />
    <glyph glyph-name="glyph502" vert-adv-y="1720" 
d="M578 1106v191h115v-191h-115zM331 1106v191h115v-191h-115z" />
    <glyph glyph-name="afii10109" unicode="&#x45c;" horiz-adv-x="890" vert-adv-y="1720" 
d="M139 0v942h112v-405h139l325 406h122l-356 -442l380 -501h-124l-350 453h-136v-453h-112zM697 1365l-178 -273h-103l163 273h118z" />
    <glyph glyph-name="afii10110" unicode="&#x45e;" horiz-adv-x="773" vert-adv-y="1720" 
d="M95 -340v96l14 -4q32 -9 57 -9q52 0 79 27q32 32 57 111l41 126l-331 935h121l266 -782l247 782h114l-360 -1087q-35 -105 -80 -153q-54 -57 -144 -57q-39 0 -81 15zM618 1365q-30 -273 -222 -273t-222 273h77q26 -179 145 -179t144 179h78z" />
    <glyph glyph-name="uni200A" unicode="&#x200a;" horiz-adv-x="205" vert-adv-y="1720" 
 />
    <glyph glyph-name="uni200B" unicode="&#x200b;" horiz-adv-x="0" vert-adv-y="1720" 
 />
    <glyph glyph-name="uniFEFF" unicode="&#xfeff;" horiz-adv-x="0" vert-adv-y="1720" 
 />
    <glyph glyph-name="uniFFFC" unicode="&#xfffc;" horiz-adv-x="2048" vert-adv-y="1720" 
d="M2048 1150h-100v223h-223v100h323v-323zM1473 1373h-323v100h323v-100zM2048 575h-100v323h100v-323zM898 1388h-323v100h323v-100zM2048 0h-323v100h223v223h100v-323zM323 1373h-223v-223h-100v323h323v-100zM1473 0h-323v100h323v-100zM100 575h-100v323h100v-323z
M898 0h-323v100h323v-100zM323 0h-323v323h100v-223h223v-100zM555 1096q134 0 215 -105q84 -109 84 -279q0 -152 -65 -257q-81 -131 -234 -131t-236 132q-64 102 -64 260q0 172 83 275q85 105 217 105zM554 1017q-91 0 -148 -81q-58 -83 -58 -219q0 -135 49 -220
q28 -48 78 -75q38 -21 81 -21q87 0 140 71q65 90 65 239q0 136 -57 222q-55 84 -150 84zM963 357v737h233q101 0 147 -29q78 -51 78 -153q0 -109 -101 -160q128 -37 128 -184q0 -135 -100 -188q-44 -23 -113 -23h-272zM1053 780h124q82 0 109 20q44 30 44 96q0 83 -55 108
q-22 11 -91 11h-131v-235zM1053 436h140q87 0 116 19q48 32 48 114q0 92 -65 123q-27 13 -113 13h-126v-269zM1493 346v80q25 -10 51 -10q72 0 98 67q13 33 13 141v470h90v-485q0 -90 -8 -129q-17 -73 -75 -112q-45 -29 -112 -29q-26 0 -57 7z" />
    <glyph glyph-name="uniFFFD" unicode="&#xfffd;" horiz-adv-x="2048" vert-adv-y="1720" 
d="M1021 1556l940 -938l-940 -937l-937 937zM686 779h214q9 199 132 199q54 0 84 -43q23 -35 23 -85q0 -52 -24 -96q-10 -20 -97 -107q-65 -66 -83 -131q-13 -45 -16 -157v-6v-8h198v10q1 58 10 88q12 41 35 70q9 11 43 39q73 61 113 121q46 69 46 173q0 158 -104 254
q-87 79 -226 79q-138 0 -229 -84q-112 -103 -119 -316zM1145 243h-254v-248h254v248z" />
    <glyph glyph-name="uni2000" unicode="&#x2000;" vert-adv-y="1720" 
 />
    <glyph glyph-name="uni2001" unicode="&#x2001;" horiz-adv-x="2048" vert-adv-y="1720" 
 />
    <glyph glyph-name="uni2002" unicode="&#x2002;" vert-adv-y="1720" 
 />
    <glyph glyph-name="uni2003" unicode="&#x2003;" horiz-adv-x="2048" vert-adv-y="1720" 
 />
    <glyph glyph-name="uni2004" unicode="&#x2004;" horiz-adv-x="683" vert-adv-y="1720" 
 />
    <glyph glyph-name="uni2005" unicode="&#x2005;" horiz-adv-x="512" vert-adv-y="1720" 
 />
    <glyph glyph-name="uni2006" unicode="&#x2006;" horiz-adv-x="341" vert-adv-y="1720" 
 />
    <glyph glyph-name="uni2007" unicode="&#x2007;" horiz-adv-x="1128" vert-adv-y="1720" 
 />
    <glyph glyph-name="uni2008" unicode="&#x2008;" horiz-adv-x="549" vert-adv-y="1720" 
 />
    <glyph glyph-name="uni2009" unicode="&#x2009;" horiz-adv-x="410" vert-adv-y="1720" 
 />
    <glyph glyph-name="ccircumflex" unicode="&#x109;" horiz-adv-x="879" vert-adv-y="1720" 
d="M694 302h114q-10 -104 -65 -187q-96 -144 -279 -144q-187 0 -288 146q-96 139 -96 355q0 207 91 345q102 154 294 154q158 0 254 -114q59 -70 80 -178h-115q-17 75 -50 117q-64 81 -170 81q-124 0 -196 -108q-76 -114 -76 -297q0 -185 74 -298q71 -109 198 -109
q120 0 187 109q32 51 43 128zM692 1092h-108l-124 197l-126 -197h-98l172 273h110z" />
    <glyph glyph-name="GID00520" horiz-adv-x="879" vert-adv-y="1720" 
d="M694 302h114q-10 -104 -65 -187q-96 -144 -279 -144q-187 0 -288 146q-96 139 -96 355q0 207 91 345q102 154 294 154q158 0 254 -114q59 -70 80 -178h-115q-17 75 -50 117q-64 81 -170 81q-124 0 -196 -108q-76 -114 -76 -297q0 -185 74 -298q71 -109 198 -109
q120 0 187 109q32 51 43 128z" />
    <glyph glyph-name="GID00521" vert-adv-y="1720" 
d="M740 1092h-108l-124 197l-126 -197h-98l172 273h110z" />
    <glyph glyph-name="hcircumflex" unicode="&#x125;" horiz-adv-x="951" vert-adv-y="1720" 
d="M137 0v1365h112v-571q94 177 281 177q111 0 188 -65q71 -61 92 -173q10 -54 10 -140v-593h-112v555q0 144 -26 213q-18 47 -63 77q-47 32 -111 32q-110 0 -183 -87q-52 -62 -67 -162q-9 -56 -9 -156v-472h-112zM478 1475h-113l-148 189l-151 -189h-103l200 259h113z" />
    <glyph glyph-name="Hbar" unicode="&#x126;" horiz-adv-x="1226" vert-adv-y="1720" 
d="M157 980h-109v106h109v279h122v-279h668v279h122v-279h109v-106h-109v-980h-122v663h-668v-663h-122v980zM279 980v-211h668v211h-668z" />
    <glyph glyph-name="hbar" unicode="&#x127;" horiz-adv-x="951" vert-adv-y="1720" 
d="M137 1147h-109v90h109v128h112v-128h243v-90h-243v-353q94 177 281 177q111 0 188 -65q71 -61 92 -173q10 -54 10 -140v-593h-112v555q0 144 -26 213q-18 47 -63 77q-47 32 -111 32q-111 0 -183 -87q-52 -62 -67 -162q-9 -55 -9 -156v-472h-112v1147z" />
    <glyph glyph-name="Itilde" unicode="&#x128;" horiz-adv-x="417" vert-adv-y="1720" 
d="M148 0v1365h122v-1365h-122zM480 1703q-11 -70 -35 -113q-47 -80 -124 -80q-53 0 -130 55q-58 42 -92 42q-63 0 -82 -98h-80q9 60 30 101q46 92 129 92q59 0 127 -50q64 -47 92 -47q62 0 83 98h82z" />
    <glyph glyph-name="GID00526" horiz-adv-x="417" vert-adv-y="1720" 
d="M147 0v1365h122v-1365h-122z" />
    <glyph glyph-name="GID00527" horiz-adv-x="1036" vert-adv-y="1720" 
d="M789 1703q-11 -70 -35 -113q-47 -80 -124 -80q-53 0 -130 55q-58 42 -92 42q-63 0 -82 -98h-80q9 60 30 101q46 92 129 92q59 0 127 -50q64 -47 92 -47q62 0 83 98h82z" />
    <glyph glyph-name="itilde" unicode="&#x129;" horiz-adv-x="395" vert-adv-y="1720" 
d="M142 0v942h112v-942h-112zM459 1318q-11 -76 -35 -124q-44 -88 -118 -88q-54 0 -128 73q-55 55 -89 55q-62 0 -79 -121h-73q7 65 28 111q46 101 130 101q58 0 124 -68q54 -55 85 -55q59 0 79 116h76z" />
    <glyph glyph-name="GID00529" horiz-adv-x="395" vert-adv-y="1720" 
d="M141 0v942h112v-942h-112z" />
    <glyph glyph-name="GID00530" horiz-adv-x="1036" vert-adv-y="1720" 
d="M779 1318q-11 -76 -35 -124q-44 -88 -118 -88q-54 0 -128 73q-55 55 -89 55q-62 0 -79 -121h-73q7 65 28 111q46 101 130 101q58 0 124 -68q54 -55 85 -55q59 0 79 116h76z" />
    <glyph glyph-name="Ibreve" unicode="&#x12c;" horiz-adv-x="418" vert-adv-y="1720" 
d="M148 0v1365h122v-1365h-122zM448 1734q-33 -259 -239 -259q-207 0 -239 259h83q11 -64 35 -102q39 -63 121 -63q88 0 128 75q18 34 28 90h83z" />
    <glyph glyph-name="IJ" unicode="&#x132;" horiz-adv-x="941" vert-adv-y="1720" 
d="M147 0v1365h122v-1365h-122zM688 1365h122v-898q0 -166 -15 -236q-56 -264 -326 -264q-47 0 -104 13v109q53 -16 104 -16q149 0 194 136q25 76 25 286v870z" />
    <glyph glyph-name="GID00533" horiz-adv-x="586" vert-adv-y="1720" 
d="M333 1365h122v-898q0 -166 -15 -236q-56 -264 -326 -264q-47 0 -104 13v109q53 -16 104 -16q149 0 194 136q25 76 25 286v870z" />
    <glyph glyph-name="ij" unicode="&#x133;" horiz-adv-x="792" vert-adv-y="1720" 
d="M141 1174v191h112v-191h-112zM141 0v942h112v-942h-112zM538 942h112v-986q0 -163 -30 -222q-45 -89 -167 -89q-31 0 -61 8v97q24 -6 45 -6q84 0 96 83q5 38 5 125v990zM538 1174v191h112v-191h-112z" />
    <glyph glyph-name="GID00535" horiz-adv-x="395" vert-adv-y="1720" 
d="M141 1174v191h112v-191h-112zM141 0v942h112v-942h-112z" />
    <glyph glyph-name="GID00536" horiz-adv-x="392" vert-adv-y="1720" 
d="M138 942h112v-986q0 -163 -30 -222q-45 -89 -167 -89q-31 0 -61 8v97q24 -6 45 -6q84 0 96 83q5 38 5 125v990zM138 1174v191h112v-191h-112z" />
    <glyph glyph-name="Jcircumflex" unicode="&#x134;" horiz-adv-x="586" vert-adv-y="1720" 
d="M333 1365h122v-898q0 -166 -15 -236q-56 -264 -326 -264q-47 0 -104 13v109q53 -16 104 -16q149 0 194 136q25 76 25 286v870zM660 1475h-114l-148 189l-150 -189h-103l200 259h112z" />
    <glyph glyph-name="jcircumflex" unicode="&#x135;" horiz-adv-x="392" vert-adv-y="1720" 
d="M138 942h112v-986q0 -163 -30 -222q-45 -89 -166 -89q-31 0 -61 8v97q24 -6 44 -6q84 0 96 83q5 38 5 125v990zM424 1092h-108l-124 197l-126 -197h-98l172 273h110z" />
    <glyph glyph-name="kgreenlandic" unicode="&#x138;" horiz-adv-x="890" vert-adv-y="1720" 
d="M249 452l452 490h137l-376 -403l396 -539h-131l-340 459l-138 -149v-310h-112v942h112v-490z" />
    <glyph glyph-name="Ldot" unicode="&#x13f;" horiz-adv-x="939" vert-adv-y="1720" 
d="M147 0v1365h122v-1259h631v-106h-753zM488 584v191h115v-191h-115z" />
    <glyph glyph-name="ldot" unicode="&#x140;" horiz-adv-x="454" vert-adv-y="1720" 
d="M141 0v1365h112v-1365h-112zM338 609v191h115v-191h-115z" />
    <glyph glyph-name="napostrophe" unicode="&#x149;" horiz-adv-x="1013" vert-adv-y="1720" 
d="M200 0v942h106v-159q98 188 287 188q110 0 187 -65q71 -61 92 -173q10 -54 10 -140v-593h-112v555q0 144 -26 213q-18 47 -63 77q-47 32 -110 32q-111 0 -183 -87q-52 -62 -67 -162q-9 -55 -9 -156v-472h-112zM151 1138v-110q0 -95 -36 -137q-37 -43 -115 -62v61
q71 21 71 79v17h-59v152h139z" />
    <glyph glyph-name="Eng" unicode="&#x14a;" horiz-adv-x="1196" vert-adv-y="1720" 
d="M147 1365h122v-189q56 86 106 124q107 82 273 82q239 0 341 -173q70 -120 70 -300v-551q0 -167 -15 -236q-57 -264 -326 -264q-47 0 -104 12v110q54 -16 104 -16q149 0 194 136q25 77 25 286v523q0 144 -49 235q-74 138 -255 138q-128 0 -219 -77q-98 -83 -128 -237
q-17 -85 -17 -226v-742h-122v1365z" />
    <glyph glyph-name="eng" unicode="&#x14b;" horiz-adv-x="951" vert-adv-y="1720" 
d="M561 -180v97q25 -6 45 -6q85 0 97 83q5 37 5 125v436q0 145 -26 213q-18 47 -63 77q-48 32 -111 32q-111 0 -183 -87q-52 -62 -67 -162q-9 -55 -9 -156v-472h-112v942h106v-159q98 188 286 188q112 0 189 -65q72 -61 92 -173q10 -53 10 -140v-470q0 -163 -30 -222
q-45 -89 -167 -89q-32 0 -62 8z" />
    <glyph glyph-name="Obreve" unicode="&#x14e;" horiz-adv-x="1260" vert-adv-y="1720" 
d="M630 1396q243 0 393 -199q151 -201 151 -518q0 -281 -122 -474q-74 -118 -188 -180q-106 -58 -234 -58q-272 0 -422 238q-122 193 -122 488q0 312 150 504q155 199 394 199zM630 1290q-186 0 -303 -167q-117 -166 -117 -427q0 -262 100 -431q57 -97 154 -150
q76 -42 167 -42q124 0 224 80q106 86 158 255q37 121 37 272q0 269 -115 438q-116 172 -305 172zM869 1734q-33 -259 -239 -259q-207 0 -239 259h83q11 -64 35 -102q39 -63 121 -63q88 0 128 75q18 34 28 90h83z" />
    <glyph glyph-name="GID00546" horiz-adv-x="1260" vert-adv-y="1720" 
d="M630 1396q243 0 393 -199q151 -201 151 -518q0 -281 -122 -474q-74 -118 -188 -180q-106 -58 -234 -58q-272 0 -422 238q-122 193 -122 488q0 312 150 504q155 199 394 199zM630 1290q-186 0 -303 -167q-117 -166 -117 -427q0 -262 100 -431q57 -97 154 -150
q76 -42 167 -42q124 0 224 80q106 86 158 255q37 121 37 272q0 269 -115 438q-116 172 -305 172z" />
    <glyph glyph-name="GID00547" horiz-adv-x="1116" vert-adv-y="1720" 
d="M797 1734q-33 -259 -239 -259q-207 0 -239 259h83q11 -64 35 -102q39 -63 121 -63q88 0 128 75q18 34 28 90h83z" />
    <glyph glyph-name="obreve" unicode="&#x14f;" horiz-adv-x="950" vert-adv-y="1720" 
d="M475 971q195 0 301 -155q94 -137 94 -345q0 -215 -99 -354q-105 -146 -295 -146q-192 0 -297 146q-99 139 -99 361q0 204 94 338q108 155 301 155zM475 877q-127 0 -203 -108q-80 -114 -80 -292q0 -190 78 -303q74 -109 205 -109t205 109q78 113 78 298t-80 297
q-77 108 -203 108zM697 1365q-30 -273 -222 -273t-222 273h77q26 -179 145 -179t144 179h78z" />
    <glyph glyph-name="GID00549" horiz-adv-x="950" vert-adv-y="1720" 
d="M475 971q195 0 301 -155q94 -137 94 -345q0 -215 -99 -354q-105 -146 -295 -146q-192 0 -297 146q-99 139 -99 361q0 204 94 338q108 155 301 155zM475 877q-127 0 -203 -108q-80 -114 -80 -292q0 -190 78 -303q74 -109 205 -109t205 109q78 113 78 298t-80 297
q-77 108 -203 108z" />
    <glyph glyph-name="GID00550" horiz-adv-x="1034" vert-adv-y="1720" 
d="M739 1365q-30 -273 -222 -273t-222 273h77q26 -179 145 -179t144 179h78z" />
    <glyph glyph-name="Tbar" unicode="&#x166;" horiz-adv-x="985" vert-adv-y="1720" 
d="M432 878h-198v90h198v291h-397v106h916v-106h-397v-291h199v-90h-199v-878h-122v878z" />
    <glyph glyph-name="tbar" unicode="&#x167;" horiz-adv-x="475" vert-adv-y="1720" 
d="M259 763h169v-94h-169v-425q0 -93 10 -121q18 -50 86 -50q29 0 73 12v-93q-52 -17 -97 -17q-121 0 -161 79q-23 44 -23 201v414h-141v94h141v85h-141v94h141v177l92 123h20v-300h169v-94h-169v-85z" />
    <glyph glyph-name="Utilde" unicode="&#x168;" horiz-adv-x="1162" vert-adv-y="1720" 
d="M131 1365h122v-814q0 -148 18 -223q31 -131 114 -192q85 -63 202 -63q110 0 190 58q84 60 113 191q19 82 19 230v813h122v-814q0 -196 -33 -291q-51 -148 -157 -219q-109 -74 -256 -74q-149 0 -261 74q-120 80 -166 244q-27 95 -27 270v810zM852 1703q-11 -70 -35 -113
q-47 -80 -124 -80q-53 0 -130 55q-58 42 -92 42q-63 0 -82 -98h-80q9 60 30 101q46 92 129 92q59 0 127 -50q64 -47 92 -47q62 0 83 98h82z" />
    <glyph glyph-name="GID00554" horiz-adv-x="1162" vert-adv-y="1720" 
d="M131 1365h122v-814q0 -148 18 -223q31 -131 114 -192q85 -63 202 -63q110 0 190 58q84 60 113 191q19 82 19 230v813h122v-814q0 -196 -33 -291q-51 -148 -157 -219q-109 -74 -256 -74q-149 0 -261 74q-120 80 -166 244q-27 95 -27 270v810z" />
    <glyph glyph-name="Ubreve" unicode="&#x16c;" horiz-adv-x="1162" vert-adv-y="1720" 
d="M131 1365h122v-814q0 -148 18 -223q31 -131 114 -192q85 -63 202 -63q110 0 190 58q84 60 113 191q19 82 19 230v813h122v-814q0 -196 -33 -291q-51 -148 -157 -219q-109 -74 -256 -74q-149 0 -261 74q-120 80 -166 244q-27 95 -27 270v810zM820 1734q-33 -259 -239 -259
q-207 0 -239 259h83q11 -64 35 -102q39 -63 121 -63q88 0 128 75q18 34 28 90h83z" />
    <glyph glyph-name="wcircumflex" unicode="&#x175;" horiz-adv-x="1212" vert-adv-y="1720" 
d="M288 0l-268 942h121l210 -782l195 782h123l198 -780l209 780h115l-266 -942h-121l-198 770l-195 -770h-123zM834 1092h-108l-124 197l-126 -197h-98l172 273h109z" />
    <glyph glyph-name="longs" unicode="&#x17f;" horiz-adv-x="474" vert-adv-y="1720" 
d="M167 0v1092q0 153 29 206q54 98 169 98q39 0 99 -20v-103q-40 22 -87 22q-44 0 -72 -36q-25 -31 -25 -154v-1105h-113z" />
    <glyph glyph-name="uni01F5" unicode="&#x1f5;" horiz-adv-x="970" vert-adv-y="1720" 
d="M646 1351l72 -98l-294 -181l-48 74zM725 942h108v-809q0 -130 -14 -197q-28 -128 -124 -208q-100 -83 -240 -83q-151 0 -247 90q-72 68 -93 182h117q14 -69 54 -110q65 -68 173 -68q136 0 207 113q54 86 54 240v109q-22 -54 -61 -96q-88 -93 -209 -93q-165 0 -269 135
q-101 130 -101 354q0 225 108 349q104 121 260 121q195 0 277 -187v158zM456 877q-119 0 -190 -96q-74 -102 -74 -269q0 -175 64 -287q68 -119 197 -119q77 0 142 50q65 49 98 151q29 89 29 198q0 175 -76 276q-71 96 -190 96z" />
    <glyph glyph-name="Wgrave" unicode="&#x1e80;" horiz-adv-x="1504" vert-adv-y="1720" 
d="M339 0l-314 1365h125l259 -1172l276 1172h136l278 -1172l260 1172h120l-315 -1365h-129l-284 1183l-282 -1183h-130zM525 1737h126l181 -258h-105z" />
    <glyph glyph-name="GID00560" horiz-adv-x="1504" vert-adv-y="1720" 
d="M339 0l-314 1365h125l259 -1172l276 1172h136l278 -1172l260 1172h120l-315 -1365h-129l-284 1183l-282 -1183h-130z" />
    <glyph glyph-name="GID00561" vert-adv-y="1720" 
d="M284 1737h126l181 -258h-105z" />
    <glyph glyph-name="wgrave" unicode="&#x1e81;" horiz-adv-x="1212" vert-adv-y="1720" 
d="M288 0l-268 942h121l210 -782l195 782h123l198 -780l209 780h115l-266 -942h-121l-198 770l-195 -770h-123zM389 1365h118l163 -273h-103z" />
    <glyph glyph-name="GID00563" horiz-adv-x="1212" vert-adv-y="1720" 
d="M288 0l-268 942h121l210 -782l195 782h123l198 -780l209 780h115l-266 -942h-121l-198 770l-195 -770h-123z" />
    <glyph glyph-name="GID00564" vert-adv-y="1720" 
d="M295 1365h118l163 -273h-103z" />
    <glyph glyph-name="Wacute" unicode="&#x1e82;" horiz-adv-x="1504" vert-adv-y="1720" 
d="M339 0l-314 1365h125l259 -1172l276 1172h136l278 -1172l260 1172h120l-315 -1365h-129l-284 1183l-282 -1183h-130zM980 1737l-202 -258h-105l180 258h127z" />
    <glyph glyph-name="GID00566" vert-adv-y="1720" 
d="M740 1737l-202 -258h-105l180 258h127z" />
    <glyph glyph-name="wacute" unicode="&#x1e83;" horiz-adv-x="1212" vert-adv-y="1720" 
d="M288 0l-268 942h121l210 -782l195 782h123l198 -780l209 780h115l-266 -942h-121l-198 770l-195 -770h-123zM823 1365l-178 -273h-103l163 273h118z" />
    <glyph glyph-name="GID00568" vert-adv-y="1720" 
d="M729 1365l-178 -273h-103l163 273h118z" />
    <glyph glyph-name="wdieresis" unicode="&#x1e85;" horiz-adv-x="1212" vert-adv-y="1720" 
d="M288 0l-268 942h121l210 -782l195 782h123l198 -780l209 780h115l-266 -942h-121l-198 770l-195 -770h-123zM695 1106v191h115v-191h-115zM401 1106v191h115v-191h-115z" />
    <glyph glyph-name="Ygrave" unicode="&#x1ef2;" horiz-adv-x="1017" vert-adv-y="1720" 
d="M448 0v565l-450 800h141l373 -682l372 682h135l-449 -800v-565h-122zM281 1737h126l181 -258h-105z" />
    <glyph glyph-name="GID00571" horiz-adv-x="1017" vert-adv-y="1720" 
d="M448 0v565l-450 800h141l373 -682l372 682h135l-449 -800v-565h-122z" />
    <glyph glyph-name="ygrave" unicode="&#x1ef3;" horiz-adv-x="773" vert-adv-y="1720" 
d="M95 -340v96q9 -2 14 -4q32 -9 57 -9q52 0 79 27q32 32 57 111l41 126l-331 935h121l266 -782l247 782h114l-360 -1087q-35 -105 -80 -153q-54 -57 -144 -57q-39 0 -81 15zM169 1365h118l163 -273h-103z" />
    <glyph glyph-name="GID00573" horiz-adv-x="773" vert-adv-y="1720" 
d="M95 -340v96q9 -2 14 -4q32 -9 57 -9q52 0 79 27q32 32 57 111l41 126l-331 935h121l266 -782l247 782h114l-360 -1087q-35 -105 -80 -153q-54 -57 -144 -57q-39 0 -81 15z" />
    <glyph glyph-name="glyph575" horiz-adv-x="396" vert-adv-y="1720" 
 />
    </font>
</defs>
</svg>
